Начать новую тему Ответить на тему
Статистика раздачи
Размер: 251.96 МБ | Добавлен: 24 ноя 2012, 23:12 | Скачали: 52
Сидеров: 5  [0 байт/сек]    Личеров: 1  [0 байт/сек]
Пред. тема | След. тема 

Автор
Сообщение

СообщениеДобавлено: 24 ноя 2012, 23:12 

Ответить с цитатой 

Название: Зона отдыха. Музыка для релаксации.
Исполнитель: VA
Год: 2004
Жанр: Музыка для отдыха и медитации

Продолжительность: 39.14
Формат/Кодек: FLAC
Битрейт аудио: lossless


Track01
Track02
Track03
Track04
Track05
Track06
Track07
Track08
Track09
Лог EAC
Exact Audio Copy V0.99 prebeta 4 from 23. January 2008

EAC extraction logfile from 21. August 2009, 20:20

Зона отдыха / Зона отдыха

Used drive : PLEXTOR DVDR PX-608AL Adapter: 1 ID: 1

Read mode : Secure
Utilize accurate stream : Yes
Defeat audio cache : Yes
Make use of C2 pointers : No

Combined read/write offset correction : 0
Overread into Lead-In and Lead-Out : No
Fill up missing offset samples with silence : Yes
Delete leading and trailing silent blocks : No
Null samples used in CRC calculations : Yes
Used interface : Native Win32 interface for Win NT & 2000
Gap handling : Appended to previous track

Used output format : User Defined Encoder
Selected bitrate : 128 kBit/s
Quality : High
Add ID3 tag : No
Command line compressor : C:Program FilesExact Audio CopyFlacflac.exe
Additional command line options : -8 -V -T "ARTIST=%a" -T "TITLE=%t" -T "ALBUM=%g" -T "DATE=%y" -T "TRACKNUMBER=%n" -T "GENRE=%m" -T "COMMENT=EAC FLAC -8" %s


TOC of the extracted CD

Track | Start | Length | Start sector | End sector
---------------------------------------------------------
1 | 0:00.00 | 0:34.07 | 0 | 2556
2 | 0:34.07 | 7:35.23 | 2557 | 36704
3 | 8:09.30 | 9:45.56 | 36705 | 80635
4 | 17:55.11 | 5:12.68 | 80636 | 104103
5 | 23:08.04 | 16:08.41 | 104104 | 176744
6 | 39:16.45 | 4:35.73 | 176745 | 197442
7 | 43:52.43 | 0:25.26 | 197443 | 199343
8 | 44:17.69 | 5:44.74 | 199344 | 225217
9 | 50:02.68 | 0:32.44 | 225218 | 227661


Track 1

Filename D:КАЧАµTorrentРаздачаЗона отдыхаЗона отдыха�1. Зона отдыха - Track01.wav

Pre-gap length 0:00:02.00

Peak level 85.0 %
Track quality 100.0 %
Test CRC 00BA308D
Copy CRC 00BA308D
Copy OK

Track 2

Filename D:КАЧАµTorrentРаздачаЗона отдыхаЗона отдыха�2. Зона отдыха - Track02.wav

Peak level 78.0 %
Track quality 100.0 %
Test CRC 04E5295F
Copy CRC 04E5295F
Copy OK

Track 3

Filename D:КАЧАµTorrentРаздачаЗона отдыхаЗона отдыха�3. Зона отдыха - Track03.wav

Peak level 73.1 %
Track quality 100.0 %
Test CRC CC674A55
Copy CRC CC674A55
Copy OK

Track 4

Filename D:КАЧАµTorrentРаздачаЗона отдыхаЗона отдыха�4. Зона отдыха - Track04.wav

Peak level 72.4 %
Track quality 100.0 %
Test CRC 87AE5DA0
Copy CRC 87AE5DA0
Copy OK

Track 5

Filename D:КАЧАµTorrentРаздачаЗона отдыхаЗона отдыха�5. Зона отдыха - Track05.wav

Peak level 87.7 %
Track quality 100.0 %
Test CRC 8CAB3FA4
Copy CRC 8CAB3FA4
Copy OK

Track 6

Filename D:КАЧАµTorrentРаздачаЗона отдыхаЗона отдыха�6. Зона отдыха - Track06.wav

Peak level 72.7 %
Track quality 99.9 %
Test CRC C3FF1210
Copy CRC C3FF1210
Copy OK

Track 7

Filename D:КАЧАµTorrentРаздачаЗона отдыхаЗона отдыха�7. Зона отдыха - Track07.wav

Peak level 83.3 %
Track quality 100.0 %
Test CRC 1260C14D
Copy CRC 1260C14D
Copy OK

Track 8

Filename D:КАЧАµTorrentРаздачаЗона отдыхаЗона отдыха�8. Зона отдыха - Track08.wav

Peak level 67.5 %
Track quality 100.0 %
Test CRC 2D47B8D8
Copy CRC 2D47B8D8
Copy OK

Track 9

Filename D:КАЧАµTorrentРаздачаЗона отдыхаЗона отдыха�9. Зона отдыха - Track09.wav

Peak level 85.0 %
Track quality 100.0 %
Test CRC 2FABA0EC
Copy CRC 2FABA0EC
Copy OK

No errors occurred

End of status report
[свернуть]




Дополнительная информация:

Включите компакт-диск, приглушите яркий свет, устройтесь поудобнее и окунитесь в удивительный мир музыки "транкуилити" (англ. - спокойствие, расслабленность).
На диске гармонично сочетается прекрасная инструментальная музыка с живыми звуками природы. Она расслабляет Ваше тело, отгоняет сумрачные мысли, делает приятным и глубоким Ваш сон.
С одной стороны Вы соприкасаетесь с миром естества: синевы моря и блеска солнца, прохлады леса и шума дождя, высоты гор и щебетания птиц, с другой стороны - это музыка настраивает Вашу энергетическую систему на высокие позитивные вибрации, расширяет ауру, создает благоприятные условия для получения целительной энергии космоса, снимает стрессы и усталость.
Слушая эту музыку утром, Вы заряжаетесь положительной энергией на целый день вперед, а также вернувшись вечером домой, полностью расслабляетесь и отдыхаете после работы.
Так или иначе, эта музыка делает Ваш мир раскрашенным и безоблачным, доставляет много приятных минут и напоминает о самых счастливых моментах Вашей жизни.
[свернуть]

Правила, инструкции, FAQ!!!
Торрент  Добавлен [24 ноя 2012, 23:12] Скачать торрент Магнет ссылка
Скачать торрент
[ Размер 20.84 КБ / Просмотров 352 ]

Статус
Проверен 
 
Размер  251.96 МБ
Приватный: Нет (DHT включён)
.torrent скачан  52
 


     Отправить личное сообщение
   
Страница 1 из 1
Показать сообщения за:  Поле сортировки  
Начать новую тему Ответить на тему


Сейчас этот форум просматривают: нет зарегистрированных пользователей и гости: 0


Вы не можете начинать темы
Вы не можете отвечать на сообщения
Вы не можете редактировать свои сообщения
Вы не можете удалять свои сообщения
Вы не можете добавлять вложения

Перейти:  
cron