Начать новую тему Ответить на тему
Статистика раздачи
Размер: 1.55 ГБ | Добавлен: 05 дек 2013, 10:37 | Скачали: 3
Сидеров: 1  [0 байт/сек]    Личеров: 0  [0 байт/сек]
Пред. тема | След. тема 

Автор
Сообщение

СообщениеДобавлено: 05 дек 2013, 10:37 

Ответить с цитатой 

VA - Simply Rock 'n' Roll (10CD BOX) (2012)

Страна:
Different
Страна-производитель диска: UK
Жанр: Rock&Roll
Год издания: 06.08.2012
Издатель (лейбл): AMG
Номер по каталогу: R 2544685
Аудиокодек: FLAC (*.flac)
Тип рипа: image+.cue
Битрейт аудио: lossless
Наличие сканов в содержимом раздачи: Yes
Продолжительность: 06:15:42
Описание: В сентябре 2005 года AMG выпустила 4-дисковый сет Simply Rock 'n' Roll, на котором собрала поистине шедевры рок'н'рола середины прошлого тысячелетия. Наряду с бешеной популярностью этого сборника сразу стали раздаваться голоса - а почему того-то не включили (такое часто и у нас на трекере бывает ).
Когда количество таких голосов переросло все мыслимые пределы (через 7 лет) AMG выпустила расширенную версию сборника на 10 дисках, которую я сегодня Вам и представляю.
Если внимательно слушать эти диски, то можно обнаружить множество интереснейших вещей. Так на CD3 есть "The Great Pretender", которая конечно же у большинства ассоциируется с Фредди Меркьюри (его, кстати, так и называли большим притворщиком). А ведь "The Great Pretender" впервые была исполнена вокальной группой «The Platters» в 1955 году. И уж потом кто только не перепевал её: Долли Партон, Рой Орбисон, Лестер Боуи, The Band, вокалист группы «Nazareth» Дэн МакКаффертии и даже Адриано Челентано.
Так что послушайте истоки сегодняшнего Рока.
Треклист:
CD1:
Продолжительность: 00:35:20
01. Chuck Berry - Johnny B Goode (2:41)
02. Carl Perkins - Blue Suede Shoes (2:17)
03. Bill Haley And His Comets - See You Later, Alligator (2:47)
04. Buddy Holly - Peggy Sue (2:32)
05. Fats Domino - Jambalaya (On The Bayou) (2:24)
06. Jerry Lee Lewis - Great Balls Of Fire (1:54)
07. Gene Vincent - Be-Bop-A-Lula (2:37)
08. Aaron Neville - Over You (2:21)
09. Wanda Jackson - Fujiyama Mama (2:15)
10. Bobby Darin - Splish, Splash (2:09)
11. Eddie Cochran - Summertime Blues (2:01)
12. Betty Everett - The Shoop Shoop Song (It's In His Kiss) (2:11)
13. Johnny Cash - Folsom Prison Blues (2:49)
14. The Bobby Fuller Four - I Fought The Law (2:16)
15. Little Richard - Ready Teddy (2:06)
Код:
Код:
REM GENRE Rock
REM DATE 2012
REM DISCID E208470F
REM COMMENT "ExactAudioCopy v1.0b3"
PERFORMER "Various Artists"
TITLE "Simply Rock 'n' Roll [2012] CD1"
FILE "Various Artists - Simply Rock 'n' Roll [2012] CD1.flac" WAVE
  TRACK 01 AUDIO
    TITLE "Johnny B Goode"
    PERFORMER "Chuck Berry"
    INDEX 01 00:00:00
  TRACK 02 AUDIO
    TITLE "Blue Suede Shoes"
    PERFORMER "Carl Perkins"
    INDEX 01 02:40:70
  TRACK 03 AUDIO
    TITLE "See You Later, Alligator"
    PERFORMER "Bill Haley And His Comets"
    INDEX 01 04:57:57
  TRACK 04 AUDIO
    TITLE "Peggy Sue"
    PERFORMER "Buddy Holly"
    INDEX 01 07:44:60
  TRACK 05 AUDIO
    TITLE "Jambalaya (On The Bayou)"
    PERFORMER "Fats Domino"
    INDEX 01 10:16:30
  TRACK 06 AUDIO
    TITLE "Great Balls Of Fire"
    PERFORMER "Jerry Lee Lewis"
    INDEX 01 12:40:04
  TRACK 07 AUDIO
    TITLE "Be-Bop-A-Lula"
    PERFORMER "Gene Vincent"
    INDEX 01 14:34:23
  TRACK 08 AUDIO
    TITLE "Over You"
    PERFORMER "Aaron Neville"
    INDEX 01 17:10:69
  TRACK 09 AUDIO
    TITLE "Fujiyama Mama"
    PERFORMER "Wanda Jackson"
    INDEX 01 19:31:71
  TRACK 10 AUDIO
    TITLE "Splish, Splash"
    PERFORMER "Bobby Darin"
    INDEX 01 21:46:70
  TRACK 11 AUDIO
    TITLE "Summertime Blues"
    PERFORMER "Eddie Cochran"
    INDEX 01 23:55:63
  TRACK 12 AUDIO
    TITLE "The Shoop Shoop Song (It's In His Kiss)"
    PERFORMER "Betty Everett"
    INDEX 01 25:57:25
  TRACK 13 AUDIO
    TITLE "Folsom Prison Blues"
    PERFORMER "Johnny Cash"
    INDEX 01 28:08:29
  TRACK 14 AUDIO
    TITLE "I Fought The Law"
    PERFORMER "The Bobby Fuller Four"
    INDEX 01 30:57:19
  TRACK 15 AUDIO
    TITLE "Ready Teddy"
    PERFORMER "Little Richard"
    INDEX 01 33:13:11
Код:
Код:
Exact Audio Copy V1.0 beta 3 from 29. August 2011

EAC extraction logfile from 23. September 2013, 11:31

Various Artists / Simply Rock 'n' Roll [2012] CD1

Used drive  : TS8XDVDRTranscend   Adapter: 4  ID: 1

Read mode               : Secure
Utilize accurate stream : Yes
Defeat audio cache      : Yes
Make use of C2 pointers : No

Read offset correction                      : 6
Overread into Lead-In and Lead-Out          : No
Fill up missing offset samples with silence : Yes
Delete leading and trailing silent blocks   : No
Null samples used in CRC calculations       : Yes
Used interface                              : Native Win32 interface for Win NT & 2000

Used output format              : User Defined Encoder
Selected bitrate                : 768 kBit/s
Quality                         : High
Add ID3 tag                     : Yes
Command line compressor         : C:\Program Files\Exact Audio Copy\FLAC\FLAC.EXE
Additional command line options : -8 -V -T "Artist=%artist%" -T "Title=%title%" -T "Album=%albumtitle%" -T "DATE=%year%" -T "TRACKNUMBER=%tracknr%" -T "GENRE=%genre%" -T "COMMENT=%comment%" -T "BAND=%albuminterpret%" -T "ALBUMARTIST=%albuminterpret%" -T "COMPOSER=%composer%" %haslyrics%--tag-from-file=LYRICS="%lyricsfile%"%haslyrics% -T "DISCNUMBER=%cdnumber%" -T "TOTALDISCS=%totalcds%" -T "TOTALTRACKS=%numtracks%" %hascover%--picture="%coverfile%"%hascover% %source% -o %dest%

TOC of the extracted CD

     Track |   Start  |  Length  | Start sector | End sector
    ---------------------------------------------------------
        1  |  0:00.00 |  2:40.70 |         0    |    12069
        2  |  2:40.70 |  2:16.62 |     12070    |    22331
        3  |  4:57.57 |  2:47.03 |     22332    |    34859
        4  |  7:44.60 |  2:31.45 |     34860    |    46229
        5  | 10:16.30 |  2:23.49 |     46230    |    57003
        6  | 12:40.04 |  1:54.19 |     57004    |    65572
        7  | 14:34.23 |  2:36.46 |     65573    |    77318
        8  | 17:10.69 |  2:21.02 |     77319    |    87895
        9  | 19:31.71 |  2:14.74 |     87896    |    98019
       10  | 21:46.70 |  2:08.68 |     98020    |   107687
       11  | 23:55.63 |  2:01.37 |    107688    |   116799
       12  | 25:57.25 |  2:11.04 |    116800    |   126628
       13  | 28:08.29 |  2:48.65 |    126629    |   139293
       14  | 30:57.19 |  2:15.67 |    139294    |   149485
       15  | 33:13.11 |  2:06.35 |    149486    |   158970

Range status and errors

Selected range

     Filename D:\Music\VA - Simply Rock 'n' Roll [2012] (10CD BOX)(Flac+cue)\CD1\Various Artists - Simply Rock 'n' Roll [2012] CD1.wav

     Peak level 96.6 %
     Extraction speed 4.1 X
     Range quality 100.0 %
     Test CRC 25988446
     Copy CRC 25988446
     Copy OK

No errors occurred

AccurateRip summary

Track  1  not present in database
Track  2  not present in database
Track  3  not present in database
Track  4  not present in database
Track  5  not present in database
Track  6  not present in database
Track  7  not present in database
Track  8  not present in database
Track  9  not present in database
Track 10  not present in database
Track 11  not present in database
Track 12  not present in database
Track 13  not present in database
Track 14  not present in database
Track 15  not present in database

None of the tracks are present in the AccurateRip database

End of status report

==== Log checksum 3E3BE89CB0C148F784CA76430926708B7F53FA0F594A09D5E32457A0F7BCAA9A ====
Код:
Код:
-----------------------

DON'T MODIFY THIS FILE

-----------------------

PERFORMER: auCDtect Task Manager, ver. 1.6.0 RC1 build 1.6.0.1
Copyright (c) 2008-2010 y-soft. All rights reserved
http:/y-soft.org

ANALYZER: auCDtect: CD records authenticity detector, version 0.8.2
Copyright (c) 2004 Oleg Berngardt. All rights reserved.
Copyright (c) 2004 Alexander Djourik. All rights reserved.

FILE: Various Artists - Simply Rock 'n' Roll [2012] CD1.flac
  Size: 172899115 Hash: D98617F82DC6B23A052ECB10C3FCB91C Accuracy: -m0
  Conclusion: CDDA 100%
  Signature: DD8DFEE06E5FA8DE18E0A1A6C945BB280579EE81
Продолжительность: 00:37:15
Треклист:
01. Frankie Lymon & The Teenagers - Why Do Fools Fall In Love? (2:20)
02. The Champs - Tequila (2:18)
03. Bruce Channel - Hey! Baby (2:22)
04. Little Richard - Tutti Frutti (2:26)
05. Chuck Berry - Roll Over, Beethoven (2:25)
06. Bill Haley & His Comets - Shake, Rattle And Roll (2:34)
07. Ray Charles - I Got A Woman (2:51)
08. Etta James - The Wallflower (2:59)
09. Cliff Richard - Move It! (2:23)
10. Buddy Holly - That'll Be The Day (2:19)
11. Big Joe Turner - Flip, Flop & Fly (2:49)
12. Allen Toussaint - Whirlaway (2:20)
13. Jerry Lee Lewis - Breathless (2:45)
14. Bill Justis - Raunchy (2:23)
15. Warren Smith - Ubangi Stomp (2:00)
Код:
Код:
REM GENRE "Rock & Roll"
REM DATE 2012
REM DISCID D008BA0F
REM COMMENT "ExactAudioCopy v1.0b3"
PERFORMER "Various Artists"
TITLE "Simply Rock 'n' Roll [2012] CD2"
FILE "Various Artists - Simply Rock 'n' Roll [2012] CD2.flac" WAVE
  TRACK 01 AUDIO
    TITLE "Why Do Fools Fall In Love?"
    PERFORMER "Frankie Lymon & The Teenagers"
    INDEX 01 00:00:00
  TRACK 02 AUDIO
    TITLE "Tequila"
    PERFORMER "The Champs"
    INDEX 01 02:20:36
  TRACK 03 AUDIO
    TITLE "Hey! Baby"
    PERFORMER "Bruce Channel"
    INDEX 01 04:38:62
  TRACK 04 AUDIO
    TITLE "Tutti Frutti"
    PERFORMER "Little Richard"
    INDEX 01 07:01:21
  TRACK 05 AUDIO
    TITLE "Roll Over, Beethoven"
    PERFORMER "Chuck Berry"
    INDEX 01 09:27:15
  TRACK 06 AUDIO
    TITLE "Shake, Rattle And Roll"
    PERFORMER "Bill Haley & His Comets"
    INDEX 01 11:52:16
  TRACK 07 AUDIO
    TITLE "I Got A Woman"
    PERFORMER "Ray Charles"
    INDEX 01 14:26:49
  TRACK 08 AUDIO
    TITLE "The Wallflower"
    PERFORMER "Etta James"
    INDEX 01 17:17:48
  TRACK 09 AUDIO
    TITLE "Move It!"
    PERFORMER "Cliff Richard"
    INDEX 01 20:16:25
  TRACK 10 AUDIO
    TITLE "That'll Be The Day"
    PERFORMER "Buddy Holly"
    INDEX 01 22:38:64
  TRACK 11 AUDIO
    TITLE "Flip, Flop & Fly"
    PERFORMER "Big Joe Turner"
    INDEX 01 24:57:45
  TRACK 12 AUDIO
    TITLE "Whirlaway"
    PERFORMER "Allen Toussaint"
    INDEX 01 27:46:28
  TRACK 13 AUDIO
    TITLE "Breathless"
    PERFORMER "Jerry Lee Lewis"
    INDEX 01 30:06:53
  TRACK 14 AUDIO
    TITLE "Raunchy"
    PERFORMER "Bill Justis"
    INDEX 01 32:51:52
  TRACK 15 AUDIO
    TITLE "Ubangi Stomp"
    PERFORMER "Warren Smith"
    INDEX 01 35:14:43

Код:
Код:
Exact Audio Copy V1.0 beta 3 from 29. August 2011

EAC extraction logfile from 23. September 2013, 12:12

Various Artists / Simply Rock 'n' Roll [2012] CD2

Used drive  : TS8XDVDRTranscend   Adapter: 4  ID: 1

Read mode               : Secure
Utilize accurate stream : Yes
Defeat audio cache      : Yes
Make use of C2 pointers : No

Read offset correction                      : 6
Overread into Lead-In and Lead-Out          : No
Fill up missing offset samples with silence : Yes
Delete leading and trailing silent blocks   : No
Null samples used in CRC calculations       : Yes
Used interface                              : Native Win32 interface for Win NT & 2000

Used output format              : User Defined Encoder
Selected bitrate                : 768 kBit/s
Quality                         : High
Add ID3 tag                     : Yes
Command line compressor         : C:\Program Files\Exact Audio Copy\FLAC\FLAC.EXE
Additional command line options : -8 -V -T "Artist=%artist%" -T "Title=%title%" -T "Album=%albumtitle%" -T "DATE=%year%" -T "TRACKNUMBER=%tracknr%" -T "GENRE=%genre%" -T "COMMENT=%comment%" -T "BAND=%albuminterpret%" -T "ALBUMARTIST=%albuminterpret%" -T "COMPOSER=%composer%" %haslyrics%--tag-from-file=LYRICS="%lyricsfile%"%haslyrics% -T "DISCNUMBER=%cdnumber%" -T "TOTALDISCS=%totalcds%" -T "TOTALTRACKS=%numtracks%" %hascover%--picture="%coverfile%"%hascover% %source% -o %dest%

TOC of the extracted CD

     Track |   Start  |  Length  | Start sector | End sector
    ---------------------------------------------------------
        1  |  0:00.00 |  2:20.36 |         0    |    10535
        2  |  2:20.36 |  2:18.26 |     10536    |    20911
        3  |  4:38.62 |  2:22.34 |     20912    |    31595
        4  |  7:01.21 |  2:25.69 |     31596    |    42539
        5  |  9:27.15 |  2:25.01 |     42540    |    53415
        6  | 11:52.16 |  2:34.33 |     53416    |    64998
        7  | 14:26.49 |  2:50.74 |     64999    |    77822
        8  | 17:17.48 |  2:58.52 |     77823    |    91224
        9  | 20:16.25 |  2:22.39 |     91225    |   101913
       10  | 22:38.64 |  2:18.56 |    101914    |   112319
       11  | 24:57.45 |  2:48.58 |    112320    |   124977
       12  | 27:46.28 |  2:20.25 |    124978    |   135502
       13  | 30:06.53 |  2:44.74 |    135503    |   147876
       14  | 32:51.52 |  2:22.66 |    147877    |   158592
       15  | 35:14.43 |  2:00.05 |    158593    |   167597

Range status and errors

Selected range

     Filename D:\Music\VA - Simply Rock 'n' Roll [2012] (10CD BOX)(Flac+cue)\CD2\Various Artists - Simply Rock 'n' Roll [2012] CD2.wav

     Peak level 96.6 %
     Extraction speed 4.2 X
     Range quality 100.0 %
     Test CRC 59F786FB
     Copy CRC 59F786FB
     Copy OK

No errors occurred

AccurateRip summary

Track  1  not present in database
Track  2  not present in database
Track  3  not present in database
Track  4  not present in database
Track  5  not present in database
Track  6  not present in database
Track  7  not present in database
Track  8  not present in database
Track  9  not present in database
Track 10  not present in database
Track 11  not present in database
Track 12  not present in database
Track 13  not present in database
Track 14  not present in database
Track 15  not present in database

None of the tracks are present in the AccurateRip database

End of status report

==== Log checksum E10B0DE39676B67523687B1F187492967FB9CCA899659220C937C793E3F70376 ====

Код:
Код:
-----------------------

DON'T MODIFY THIS FILE

-----------------------

PERFORMER: auCDtect Task Manager, ver. 1.6.0 RC1 build 1.6.0.1
Copyright (c) 2008-2010 y-soft. All rights reserved
http:/y-soft.org

ANALYZER: auCDtect: CD records authenticity detector, version 0.8.2
Copyright (c) 2004 Oleg Berngardt. All rights reserved.
Copyright (c) 2004 Alexander Djourik. All rights reserved.

FILE: Various Artists - Simply Rock 'n' Roll [2012] CD2.flac
  Size: 155688511 Hash: 221F81FC0F698BA932480DB89756120F Accuracy: -m0
  Conclusion: CDDA 100%
  Signature: 2A122FD3AE1DB37B1CE96203D01BBDC64CCC2331

Продолжительность: 00:37:00
Треклист:
01. Ritchie Valens - La Bamba (2:01)
02. Dion & The Belmonts - A Teenager In Love (2:36)
03. The Platters - The Great Pretender (2:40)
04. Roy Orbison - Ooby Dooby (2:15)
05. Little Richard - Lucille (2:17)
06. The Big Bopper - Chantilly Lace (2:25)
07. Bill Haley And His Comets - Forty Cups Of Coffee (2:36)
08. Bo Diddley - Diddy Wah Diddy (2:34)
09. Chuck Berry - Back In The U S A (2:29)
10. Huey 'Piano' Smith & The Clowns - Don't You Just Know It (2:36)
11. Smiley Lewis - I Hear You Knocking (2:34)
12. Chris Kenner - I Like It Like That (1:58)
13. Al Johnson - Carnival Time (2:42)
14. Duane Eddy - Rebel Rouser (2:19)
15. Etta James - At Last (2:59)
Код:
Код:
REM GENRE "Rock & Roll"
REM DATE 2012
REM DISCID AF08AC0F
REM COMMENT "ExactAudioCopy v1.0b3"
PERFORMER "Various Artists"
TITLE "Simply Rock 'n' Roll [2012] CD3"
FILE "Various Artists - Simply Rock 'n' Roll [2012] CD3.flac" WAVE
  TRACK 01 AUDIO
    TITLE "La Bamba"
    PERFORMER "Ritchie Valens"
    INDEX 01 00:00:00
  TRACK 02 AUDIO
    TITLE "A Teenager In Love"
    PERFORMER "Dion & The Belmonts"
    INDEX 01 02:01:19
  TRACK 03 AUDIO
    TITLE "The Great Pretender"
    PERFORMER "The Platters"
    INDEX 01 04:37:43
  TRACK 04 AUDIO
    TITLE "Ooby Dooby"
    PERFORMER "Roy Orbison"
    INDEX 01 07:17:41
  TRACK 05 AUDIO
    TITLE "Lucille"
    PERFORMER "Little Richard"
    INDEX 01 09:32:36
  TRACK 06 AUDIO
    TITLE "Chantilly Lace"
    PERFORMER "The Big Bopper"
    INDEX 01 11:49:24
  TRACK 07 AUDIO
    TITLE "Forty Cups Of Coffee"
    PERFORMER "Bill Haley And His Comets"
    INDEX 01 14:13:68
  TRACK 08 AUDIO
    TITLE "Diddy Wah Diddy"
    PERFORMER "Bo Diddley"
    INDEX 01 16:50:19
  TRACK 09 AUDIO
    TITLE "Back In The U S A"
    PERFORMER "Chuck Berry"
    INDEX 01 19:23:71
  TRACK 10 AUDIO
    TITLE "Don't You Just Know It"
    PERFORMER "Huey 'Piano' Smith & The Clowns"
    INDEX 01 21:53:01
  TRACK 11 AUDIO
    TITLE "I Hear You Knocking"
    PERFORMER "Smiley Lewis"
    INDEX 01 24:28:42
  TRACK 12 AUDIO
    TITLE "I Like It Like That"
    PERFORMER "Chris Kenner"
    INDEX 01 27:02:58
  TRACK 13 AUDIO
    TITLE "Carnival Time"
    PERFORMER "Al Johnson"
    INDEX 01 29:01:12
  TRACK 14 AUDIO
    TITLE "Rebel Rouser"
    PERFORMER "Duane Eddy"
    INDEX 01 31:42:61
  TRACK 15 AUDIO
    TITLE "At Last"
    PERFORMER "Etta James"
    INDEX 01 34:01:25

Код:
Код:
Exact Audio Copy V1.0 beta 3 from 29. August 2011

EAC extraction logfile from 23. September 2013, 13:48

Various Artists / Simply Rock 'n' Roll [2012] CD3

Used drive  : TS8XDVDRTranscend   Adapter: 4  ID: 1

Read mode               : Secure
Utilize accurate stream : Yes
Defeat audio cache      : Yes
Make use of C2 pointers : No

Read offset correction                      : 6
Overread into Lead-In and Lead-Out          : No
Fill up missing offset samples with silence : Yes
Delete leading and trailing silent blocks   : No
Null samples used in CRC calculations       : Yes
Used interface                              : Native Win32 interface for Win NT & 2000

Used output format              : User Defined Encoder
Selected bitrate                : 768 kBit/s
Quality                         : High
Add ID3 tag                     : Yes
Command line compressor         : C:\Program Files\Exact Audio Copy\FLAC\FLAC.EXE
Additional command line options : -8 -V -T "Artist=%artist%" -T "Title=%title%" -T "Album=%albumtitle%" -T "DATE=%year%" -T "TRACKNUMBER=%tracknr%" -T "GENRE=%genre%" -T "COMMENT=%comment%" -T "BAND=%albuminterpret%" -T "ALBUMARTIST=%albuminterpret%" -T "COMPOSER=%composer%" %haslyrics%--tag-from-file=LYRICS="%lyricsfile%"%haslyrics% -T "DISCNUMBER=%cdnumber%" -T "TOTALDISCS=%totalcds%" -T "TOTALTRACKS=%numtracks%" %hascover%--picture="%coverfile%"%hascover% %source% -o %dest%

TOC of the extracted CD

     Track |   Start  |  Length  | Start sector | End sector
    ---------------------------------------------------------
        1  |  0:00.00 |  2:01.19 |         0    |     9093
        2  |  2:01.19 |  2:36.24 |      9094    |    20817
        3  |  4:37.43 |  2:39.73 |     20818    |    32815
        4  |  7:17.41 |  2:14.70 |     32816    |    42935
        5  |  9:32.36 |  2:16.63 |     42936    |    53198
        6  | 11:49.24 |  2:24.44 |     53199    |    64042
        7  | 14:13.68 |  2:36.26 |     64043    |    75768
        8  | 16:50.19 |  2:33.52 |     75769    |    87295
        9  | 19:23.71 |  2:29.05 |     87296    |    98475
       10  | 21:53.01 |  2:35.41 |     98476    |   110141
       11  | 24:28.42 |  2:34.16 |    110142    |   121707
       12  | 27:02.58 |  1:58.29 |    121708    |   130586
       13  | 29:01.12 |  2:41.49 |    130587    |   142710
       14  | 31:42.61 |  2:18.39 |    142711    |   153099
       15  | 34:01.25 |  2:58.62 |    153100    |   166511

Range status and errors

Selected range

     Filename D:\Music\VA - Simply Rock 'n' Roll [2012] (10CD BOX)(Flac+cue)\CD03\Various Artists - Simply Rock 'n' Roll [2012] CD3.wav

     Peak level 94.4 %
     Extraction speed 1.8 X
     Range quality 100.0 %
     Test CRC A3231A4F
     Copy CRC A3231A4F
     Copy OK

No errors occurred

AccurateRip summary

Track  1  not present in database
Track  2  not present in database
Track  3  not present in database
Track  4  not present in database
Track  5  not present in database
Track  6  not present in database
Track  7  not present in database
Track  8  not present in database
Track  9  not present in database
Track 10  not present in database
Track 11  not present in database
Track 12  not present in database
Track 13  not present in database
Track 14  not present in database
Track 15  not present in database

None of the tracks are present in the AccurateRip database

End of status report

==== Log checksum 0130255B9F0673DC719DCEF359D025F3F9945EE96E3CC5EDA50970110CA09D52 ====

Код:
Код:
-----------------------

DON'T MODIFY THIS FILE

-----------------------

PERFORMER: auCDtect Task Manager, ver. 1.6.0 RC1 build 1.6.0.1
Copyright (c) 2008-2010 y-soft. All rights reserved
http:/y-soft.org

ANALYZER: auCDtect: CD records authenticity detector, version 0.8.2
Copyright (c) 2004 Oleg Berngardt. All rights reserved.
Copyright (c) 2004 Alexander Djourik. All rights reserved.

FILE: Various Artists - Simply Rock 'n' Roll [2012] CD3.flac
  Size: 163604892 Hash: 8FB43796E4907851B36B55AF1DBF21D6 Accuracy: -m0
  Conclusion: CDDA 100%
  Signature: F4F7EAAF55A89B88DCE27F61E944400C66C709D4

Продолжительность: 00:37:45
Треклист:
01. Jerry Lee Lewis - Whole Lotta Shakin' Goin' On (2:54)
02. Fats Domino - Ain't That A Shame (2:26)
03. Buddy Holly - Heartbeat (2:10)
04. Eddie Cochran - Twenty Flight Rock (1:46)
05. John Lee Hooker - Boom, Boom (2:30)
06. Chuck Berry - Sweet Little Sixteen (3:13)
07. Carl Perkins - Put Your Cat Clothes On (2:42)
08. Johnny Cash - Get Rhythm (2:14)
09. Roy Orbison - Only The Lonely (2:27)
10. Dale Hawkins - Susie Q (2:19)
11. Little Junior's Blue Flames - Mystery Train (2:24)
12. Bo Diddley - I'm A Man (2:57)
13. Art Neville - Cha Dooky-Doo (2:39)
14. Barbara George - I Know (You Don't Love Me No More) (2:20)
15. The Spaniels - Goodnight, Sweetheart, Goodnight (2:42)
Код:
Код:
REM GENRE "Rock & Roll"
REM DATE 2012
REM DISCID C308D90F
REM COMMENT "ExactAudioCopy v1.0b3"
PERFORMER "Various Artists"
TITLE "Simply Rock 'n' Roll [2012] CD4"
FILE "Various Artists - Simply Rock 'n' Roll [2012] CD4.flac" WAVE
  TRACK 01 AUDIO
    TITLE "Whole Lotta Shakin' Goin' On"
    PERFORMER "Jerry Lee Lewis"
    INDEX 01 00:00:00
  TRACK 02 AUDIO
    TITLE "Ain't That A Shame"
    PERFORMER "Fats Domino"
    INDEX 01 02:54:24
  TRACK 03 AUDIO
    TITLE "Heartbeat"
    PERFORMER "Buddy Holly"
    INDEX 01 05:20:41
  TRACK 04 AUDIO
    TITLE "Twenty Flight Rock"
    PERFORMER "Eddie Cochran"
    INDEX 01 07:30:68
  TRACK 05 AUDIO
    TITLE "Boom, Boom"
    PERFORMER "John Lee Hooker"
    INDEX 01 09:16:69
  TRACK 06 AUDIO
    TITLE "Sweet Little Sixteen"
    PERFORMER "Chuck Berry"
    INDEX 01 11:47:04
  TRACK 07 AUDIO
    TITLE "Put Your Cat Clothes On"
    PERFORMER "Carl Perkins"
    INDEX 01 14:59:51
  TRACK 08 AUDIO
    TITLE "Get Rhythm"
    PERFORMER "Johnny Cash"
    INDEX 01 17:41:59
  TRACK 09 AUDIO
    TITLE "Only The Lonely"
    PERFORMER "Roy Orbison"
    INDEX 01 19:56:19
  TRACK 10 AUDIO
    TITLE "Susie Q"
    PERFORMER "Dale Hawkins"
    INDEX 01 22:23:38
  TRACK 11 AUDIO
    TITLE "Mystery Train"
    PERFORMER "Little Junior's Blue Flames"
    INDEX 01 24:42:46
  TRACK 12 AUDIO
    TITLE "I'm A Man"
    PERFORMER "Bo Diddley"
    INDEX 01 27:06:47
  TRACK 13 AUDIO
    TITLE "Cha Dooky-Doo"
    PERFORMER "Art Neville"
    INDEX 01 30:03:37
  TRACK 14 AUDIO
    TITLE "I Know (You Don't Love Me No More)"
    PERFORMER "Barbara George"
    INDEX 01 32:42:20
  TRACK 15 AUDIO
    TITLE "Goodnight, Sweetheart, Goodnight"
    PERFORMER "The Spaniels"
    INDEX 01 35:02:53

Код:
Код:
Exact Audio Copy V1.0 beta 3 from 29. August 2011

EAC extraction logfile from 23. September 2013, 14:52

Various Artists / Simply Rock 'n' Roll [2012] CD4

Used drive  : TS8XDVDRTranscend   Adapter: 4  ID: 1

Read mode               : Secure
Utilize accurate stream : Yes
Defeat audio cache      : Yes
Make use of C2 pointers : No

Read offset correction                      : 6
Overread into Lead-In and Lead-Out          : No
Fill up missing offset samples with silence : Yes
Delete leading and trailing silent blocks   : No
Null samples used in CRC calculations       : Yes
Used interface                              : Native Win32 interface for Win NT & 2000

Used output format              : User Defined Encoder
Selected bitrate                : 768 kBit/s
Quality                         : High
Add ID3 tag                     : Yes
Command line compressor         : C:\Program Files\Exact Audio Copy\FLAC\FLAC.EXE
Additional command line options : -8 -V -T "Artist=%artist%" -T "Title=%title%" -T "Album=%albumtitle%" -T "DATE=%year%" -T "TRACKNUMBER=%tracknr%" -T "GENRE=%genre%" -T "COMMENT=%comment%" -T "BAND=%albuminterpret%" -T "ALBUMARTIST=%albuminterpret%" -T "COMPOSER=%composer%" %haslyrics%--tag-from-file=LYRICS="%lyricsfile%"%haslyrics% -T "DISCNUMBER=%cdnumber%" -T "TOTALDISCS=%totalcds%" -T "TOTALTRACKS=%numtracks%" %hascover%--picture="%coverfile%"%hascover% %source% -o %dest%

TOC of the extracted CD

     Track |   Start  |  Length  | Start sector | End sector
    ---------------------------------------------------------
        1  |  0:00.00 |  2:54.24 |         0    |    13073
        2  |  2:54.24 |  2:26.17 |     13074    |    24040
        3  |  5:20.41 |  2:10.27 |     24041    |    33817
        4  |  7:30.68 |  1:46.01 |     33818    |    41768
        5  |  9:16.69 |  2:30.10 |     41769    |    53028
        6  | 11:47.04 |  3:12.47 |     53029    |    67475
        7  | 14:59.51 |  2:42.08 |     67476    |    79633
        8  | 17:41.59 |  2:14.35 |     79634    |    89718
        9  | 19:56.19 |  2:27.19 |     89719    |   100762
       10  | 22:23.38 |  2:19.08 |    100763    |   111195
       11  | 24:42.46 |  2:24.01 |    111196    |   121996
       12  | 27:06.47 |  2:56.65 |    121997    |   135261
       13  | 30:03.37 |  2:38.58 |    135262    |   147169
       14  | 32:42.20 |  2:20.33 |    147170    |   157702
       15  | 35:02.53 |  2:42.31 |    157703    |   169883

Range status and errors

Selected range

     Filename D:\Music\VA - Simply Rock 'n' Roll [2012] (10CD BOX)(Flac+cue)\CD04\Various Artists - Simply Rock 'n' Roll [2012] CD4.wav

     Peak level 96.6 %
     Extraction speed 1.6 X
     Range quality 100.0 %
     Test CRC C80104F7
     Copy CRC C80104F7
     Copy OK

No errors occurred

AccurateRip summary

Track  1  not present in database
Track  2  not present in database
Track  3  not present in database
Track  4  not present in database
Track  5  not present in database
Track  6  not present in database
Track  7  not present in database
Track  8  not present in database
Track  9  not present in database
Track 10  not present in database
Track 11  not present in database
Track 12  not present in database
Track 13  not present in database
Track 14  not present in database
Track 15  not present in database

None of the tracks are present in the AccurateRip database

End of status report

==== Log checksum C15B8A8380CC8C538E6DA48D83C83CFFA80C47351ADDD22F3B909908576CB041 ====

Код:
Код:
-----------------------

DON'T MODIFY THIS FILE

-----------------------

PERFORMER: auCDtect Task Manager, ver. 1.6.0 RC1 build 1.6.0.1
Copyright (c) 2008-2010 y-soft. All rights reserved
http:/y-soft.org

ANALYZER: auCDtect: CD records authenticity detector, version 0.8.2
Copyright (c) 2004 Oleg Berngardt. All rights reserved.
Copyright (c) 2004 Alexander Djourik. All rights reserved.

FILE: Various Artists - Simply Rock 'n' Roll [2012] CD4.flac
  Size: 140592333 Hash: 0BB01195A3892B8199FFC5CF225D68A7 Accuracy: -m0
  Conclusion: MPEG 95%
  Signature: 487FB581D381333B66966534D764B1AD2A3C105B

Продолжительность: 00:39:32
Треклист:
01. Hank Ballard & The Midnighters - The Twist (2:37)
02. Little Richard - Long Tall Sally (2:03)
03. Fats Domino - I'm Walkin' (2:06)
04. Jerry Lee Lewis - High School Confidential (2:31)
05. Gene Vincent - Race With The Devil (2:04)
06. Jackie Brenston - Rocket 88 (2:51)
07. Big Joe Turner - Corrine, Corrina (2:55)
08. Cecil Gant - We're Gonna Rock (2:17)
09. Billy 'The Kid' Emerson - Red Hot (2:35)
10. Chuck Berry - Rock And Roll Music (2:34)
11. The Isley Brothers - Shout - Parts 1 & 2 (4:43)
12. Larry Williams - Bony Moronie (3:04)
13. James Booker - Gonzo (2:26)
14. Joe Jones - You Talk Too Much (2:32)
15. Johnny & The Hurricanes - Red River Rock (2:14)
Код:
Код:
REM GENRE "Rock & Roll"
REM DATE 2012
REM DISCID C709440F
REM COMMENT "ExactAudioCopy v1.0b3"
PERFORMER "Various Artists"
TITLE "Simply Rock 'n' Roll [2012] CD5"
FILE "Various Artists - Simply Rock 'n' Roll [2012] CD5.flac" WAVE
  TRACK 01 AUDIO
    TITLE "The Twist"
    PERFORMER "Hank Ballard & The Midnighters"
    INDEX 01 00:00:00
  TRACK 02 AUDIO
    TITLE "Long Tall Sally"
    PERFORMER "Little Richard"
    INDEX 01 02:37:11
  TRACK 03 AUDIO
    TITLE "I'm Walkin'"
    PERFORMER "Fats Domino"
    INDEX 01 04:40:32
  TRACK 04 AUDIO
    TITLE "High School Confidential"
    PERFORMER "Jerry Lee Lewis"
    INDEX 01 06:46:65
  TRACK 05 AUDIO
    TITLE "Race With The Devil"
    PERFORMER "Gene Vincent"
    INDEX 01 09:18:11
  TRACK 06 AUDIO
    TITLE "Rocket 88"
    PERFORMER "Jackie Brenston"
    INDEX 01 11:22:04
  TRACK 07 AUDIO
    TITLE "Corrine, Corrina"
    PERFORMER "Big Joe Turner"
    INDEX 01 14:12:50
  TRACK 08 AUDIO
    TITLE "We're Gonna Rock"
    PERFORMER "Cecil Gant"
    INDEX 01 17:07:43
  TRACK 09 AUDIO
    TITLE "Red Hot"
    PERFORMER "Billy 'The Kid' Emerson"
    INDEX 01 19:24:41
  TRACK 10 AUDIO
    TITLE "Rock And Roll Music"
    PERFORMER "Chuck Berry"
    INDEX 01 21:59:29
  TRACK 11 AUDIO
    TITLE "Shout - Parts 1 & 2"
    PERFORMER "The Isley Brothers"
    INDEX 01 24:32:69
  TRACK 12 AUDIO
    TITLE "Bony Moronie"
    PERFORMER "Larry Williams"
    INDEX 01 29:16:00
  TRACK 13 AUDIO
    TITLE "Gonzo"
    PERFORMER "James Booker"
    INDEX 01 32:20:33
  TRACK 14 AUDIO
    TITLE "You Talk Too Much"
    PERFORMER "Joe Jones"
    INDEX 01 34:46:59
  TRACK 15 AUDIO
    TITLE "Red River Rock"
    PERFORMER "Johnny & The Hurricanes"
    INDEX 01 37:18:26

Код:
Код:
Exact Audio Copy V1.0 beta 3 from 29. August 2011

EAC extraction logfile from 23. September 2013, 16:06

Various Artists / Simply Rock 'n' Roll [2012] CD5

Used drive  : TS8XDVDRTranscend   Adapter: 4  ID: 1

Read mode               : Secure
Utilize accurate stream : Yes
Defeat audio cache      : Yes
Make use of C2 pointers : No

Read offset correction                      : 6
Overread into Lead-In and Lead-Out          : No
Fill up missing offset samples with silence : Yes
Delete leading and trailing silent blocks   : No
Null samples used in CRC calculations       : Yes
Used interface                              : Native Win32 interface for Win NT & 2000

Used output format              : User Defined Encoder
Selected bitrate                : 768 kBit/s
Quality                         : High
Add ID3 tag                     : Yes
Command line compressor         : C:\Program Files\Exact Audio Copy\FLAC\FLAC.EXE
Additional command line options : -8 -V -T "Artist=%artist%" -T "Title=%title%" -T "Album=%albumtitle%" -T "DATE=%year%" -T "TRACKNUMBER=%tracknr%" -T "GENRE=%genre%" -T "COMMENT=%comment%" -T "BAND=%albuminterpret%" -T "ALBUMARTIST=%albuminterpret%" -T "COMPOSER=%composer%" %haslyrics%--tag-from-file=LYRICS="%lyricsfile%"%haslyrics% -T "DISCNUMBER=%cdnumber%" -T "TOTALDISCS=%totalcds%" -T "TOTALTRACKS=%numtracks%" %hascover%--picture="%coverfile%"%hascover% %source% -o %dest%

TOC of the extracted CD

     Track |   Start  |  Length  | Start sector | End sector
    ---------------------------------------------------------
        1  |  0:00.00 |  2:37.11 |         0    |    11785
        2  |  2:37.11 |  2:03.21 |     11786    |    21031
        3  |  4:40.32 |  2:06.33 |     21032    |    30514
        4  |  6:46.65 |  2:31.21 |     30515    |    41860
        5  |  9:18.11 |  2:03.68 |     41861    |    51153
        6  | 11:22.04 |  2:50.46 |     51154    |    63949
        7  | 14:12.50 |  2:54.68 |     63950    |    77067
        8  | 17:07.43 |  2:16.73 |     77068    |    87340
        9  | 19:24.41 |  2:34.63 |     87341    |    98953
       10  | 21:59.29 |  2:33.40 |     98954    |   110468
       11  | 24:32.69 |  4:43.06 |    110469    |   131699
       12  | 29:16.00 |  3:04.33 |    131700    |   145532
       13  | 32:20.33 |  2:26.26 |    145533    |   156508
       14  | 34:46.59 |  2:31.42 |    156509    |   167875
       15  | 37:18.26 |  2:13.69 |    167876    |   177919

Range status and errors

Selected range

     Filename D:\Music\VA - Simply Rock 'n' Roll [2012] (10CD BOX)(Flac+cue)\CD05\Various Artists - Simply Rock 'n' Roll [2012] CD5.wav

     Peak level 96.6 %
     Extraction speed 4.2 X
     Range quality 100.0 %
     Test CRC 4AD5B0AA
     Copy CRC 4AD5B0AA
     Copy OK

No errors occurred

AccurateRip summary

Track  1  not present in database
Track  2  not present in database
Track  3  not present in database
Track  4  not present in database
Track  5  not present in database
Track  6  not present in database
Track  7  not present in database
Track  8  not present in database
Track  9  not present in database
Track 10  not present in database
Track 11  not present in database
Track 12  not present in database
Track 13  not present in database
Track 14  not present in database
Track 15  not present in database

None of the tracks are present in the AccurateRip database

End of status report

==== Log checksum 10FA8BEAEDBB2F9D40618D1A7A75E3A79C2C294DE098064C7E14579E9D5A006F ====

Код:
Код:
-----------------------

DON'T MODIFY THIS FILE

-----------------------

PERFORMER: auCDtect Task Manager, ver. 1.6.0 RC1 build 1.6.0.1
Copyright (c) 2008-2010 y-soft. All rights reserved
http:/y-soft.org

ANALYZER: auCDtect: CD records authenticity detector, version 0.8.2
Copyright (c) 2004 Oleg Berngardt. All rights reserved.
Copyright (c) 2004 Alexander Djourik. All rights reserved.

FILE: Various Artists - Simply Rock 'n' Roll [2012] CD5.flac
  Size: 188870725 Hash: A90FDA09A3924E6C5FBCCC76D6933085 Accuracy: -m0
  Conclusion: CDDA 100%
  Signature: 92ECF03290D819A2DFA3F501EE4C09EB447166F2

Продолжительность: 00:38:31
Треклист:
01. Buddy Holly - Not Fade Away (2:18)
02. Gene Chandler - Duke Of Earl (2:26)
03. Carl Perkins - Dixie Fried (2:28)
04. Jackie Wilson - Reet Petite (2:45)
05. Dion - Runaround Sue (2:42)
06. Rosco Gordon - No More Doggin' (3:11)
07. Gene Vincent - Say Mama (1:59)
08. Roy Milton And His Solid Senders - Thrill Me (2:56)
09. Hank Ballard & The Midnighters - Finger Poppin' Time (1:51)
10. Chuck Berry - Route 66 (2:55)
11. Fats Domino - Blue Monday (2:19)
12. Jerry Butler & The Impressions - For Your Precious Love (2:45)
13. Johnny Adams - I Won't Cry (2:19)
14. Big Joe Turner - Shake, Rattle And Roll (3:00)
15. Jerry Lee Lewis - Crazy Arms (2:38)
Код:
Код:
REM GENRE "Rock & Roll"
REM DATE 2012
REM DISCID C109060F
REM COMMENT "ExactAudioCopy v1.0b3"
PERFORMER "Various Artists"
TITLE "Simply Rock 'n' Roll [2012] CD6"
FILE "Various Artists - Simply Rock 'n' Roll [2012] CD6.flac" WAVE
  TRACK 01 AUDIO
    TITLE "Not Fade Away"
    PERFORMER "Buddy Holly"
    INDEX 01 00:00:00
  TRACK 02 AUDIO
    TITLE "Duke Of Earl"
    PERFORMER "Gene Chandler"
    INDEX 01 02:18:10
  TRACK 03 AUDIO
    TITLE "Dixie Fried"
    PERFORMER "Carl Perkins"
    INDEX 01 04:44:03
  TRACK 04 AUDIO
    TITLE "Reet Petite"
    PERFORMER "Jackie Wilson"
    INDEX 01 07:11:61
  TRACK 05 AUDIO
    TITLE "Runaround Sue"
    PERFORMER "Dion"
    INDEX 01 09:56:48
  TRACK 06 AUDIO
    TITLE "No More Doggin'"
    PERFORMER "Rosco Gordon"
    INDEX 01 12:38:14
  TRACK 07 AUDIO
    TITLE "Say Mama"
    PERFORMER "Gene Vincent"
    INDEX 01 15:48:67
  TRACK 08 AUDIO
    TITLE "Thrill Me"
    PERFORMER "Roy Milton And His Solid Senders"
    INDEX 01 17:48:04
  TRACK 09 AUDIO
    TITLE "Finger Poppin' Time"
    PERFORMER "Hank Ballard & The Midnighters"
    INDEX 01 20:44:25
  TRACK 10 AUDIO
    TITLE "Route 66"
    PERFORMER "Chuck Berry"
    INDEX 01 22:35:11
  TRACK 11 AUDIO
    TITLE "Blue Monday"
    PERFORMER "Fats Domino"
    INDEX 01 25:29:65
  TRACK 12 AUDIO
    TITLE "For Your Precious Love"
    PERFORMER "Jerry Butler & The Impressions"
    INDEX 01 27:48:42
  TRACK 13 AUDIO
    TITLE "I Won't Cry"
    PERFORMER "Johnny Adams"
    INDEX 01 30:33:56
  TRACK 14 AUDIO
    TITLE "Shake, Rattle And Roll"
    PERFORMER "Big Joe Turner"
    INDEX 01 32:52:28
  TRACK 15 AUDIO
    TITLE "Crazy Arms"
    PERFORMER "Jerry Lee Lewis"
    INDEX 01 35:52:50
Код:
Код:
Exact Audio Copy V1.0 beta 3 from 29. August 2011

EAC extraction logfile from 23. September 2013, 16:54

Various Artists / Simply Rock 'n' Roll [2012] CD6

Used drive  : TS8XDVDRTranscend   Adapter: 4  ID: 1

Read mode               : Secure
Utilize accurate stream : Yes
Defeat audio cache      : Yes
Make use of C2 pointers : No

Read offset correction                      : 6
Overread into Lead-In and Lead-Out          : No
Fill up missing offset samples with silence : Yes
Delete leading and trailing silent blocks   : No
Null samples used in CRC calculations       : Yes
Used interface                              : Native Win32 interface for Win NT & 2000

Used output format              : User Defined Encoder
Selected bitrate                : 768 kBit/s
Quality                         : High
Add ID3 tag                     : Yes
Command line compressor         : C:\Program Files\Exact Audio Copy\FLAC\FLAC.EXE
Additional command line options : -8 -V -T "Artist=%artist%" -T "Title=%title%" -T "Album=%albumtitle%" -T "DATE=%year%" -T "TRACKNUMBER=%tracknr%" -T "GENRE=%genre%" -T "COMMENT=%comment%" -T "BAND=%albuminterpret%" -T "ALBUMARTIST=%albuminterpret%" -T "COMPOSER=%composer%" %haslyrics%--tag-from-file=LYRICS="%lyricsfile%"%haslyrics% -T "DISCNUMBER=%cdnumber%" -T "TOTALDISCS=%totalcds%" -T "TOTALTRACKS=%numtracks%" %hascover%--picture="%coverfile%"%hascover% %source% -o %dest%

TOC of the extracted CD

     Track |   Start  |  Length  | Start sector | End sector
    ---------------------------------------------------------
        1  |  0:00.00 |  2:18.10 |         0    |    10359
        2  |  2:18.10 |  2:25.68 |     10360    |    21302
        3  |  4:44.03 |  2:27.58 |     21303    |    32385
        4  |  7:11.61 |  2:44.62 |     32386    |    44747
        5  |  9:56.48 |  2:41.41 |     44748    |    56863
        6  | 12:38.14 |  3:10.53 |     56864    |    71166
        7  | 15:48.67 |  1:59.12 |     71167    |    80103
        8  | 17:48.04 |  2:56.21 |     80104    |    93324
        9  | 20:44.25 |  1:50.61 |     93325    |   101635
       10  | 22:35.11 |  2:54.54 |    101636    |   114739
       11  | 25:29.65 |  2:18.52 |    114740    |   125141
       12  | 27:48.42 |  2:45.14 |    125142    |   137530
       13  | 30:33.56 |  2:18.47 |    137531    |   147927
       14  | 32:52.28 |  3:00.22 |    147928    |   161449
       15  | 35:52.50 |  2:38.06 |    161450    |   173305

Range status and errors

Selected range

     Filename D:\Music\VA - Simply Rock 'n' Roll [2012] (10CD BOX)(Flac+cue)\CD06\Various Artists - Simply Rock 'n' Roll [2012] CD6.wav

     Peak level 97.7 %
     Extraction speed 4.1 X
     Range quality 99.9 %
     Test CRC D77DC88B
     Copy CRC D77DC88B
     Copy OK

No errors occurred

AccurateRip summary

Track  1  not present in database
Track  2  not present in database
Track  3  not present in database
Track  4  not present in database
Track  5  not present in database
Track  6  not present in database
Track  7  not present in database
Track  8  not present in database
Track  9  not present in database
Track 10  not present in database
Track 11  not present in database
Track 12  not present in database
Track 13  not present in database
Track 14  not present in database
Track 15  not present in database

None of the tracks are present in the AccurateRip database

End of status report

==== Log checksum 833364389D4CE8CE38ECE9E62ED77B607197125B244C769C2EE86AF430932EE7 ====

Код:
Код:
-----------------------

DON'T MODIFY THIS FILE

-----------------------

PERFORMER: auCDtect Task Manager, ver. 1.6.0 RC1 build 1.6.0.1
Copyright (c) 2008-2010 y-soft. All rights reserved
http:/y-soft.org

ANALYZER: auCDtect: CD records authenticity detector, version 0.8.2
Copyright (c) 2004 Oleg Berngardt. All rights reserved.
Copyright (c) 2004 Alexander Djourik. All rights reserved.

FILE: Various Artists - Simply Rock 'n' Roll [2012] CD6.flac
  Size: 170409422 Hash: 0DB5AF75483AC40EC2D6C799AAE41274 Accuracy: -m0
  Conclusion: CDDA 100%
  Signature: D2837D55AF6B7EC993F1184736DFA94ED6D38974

Продолжительность: 00:34:56
Треклист:
01. Roy Orbison - Domino (2:17)
02. Gene Vincent - Pink Thunderbird (2:34)
03. Carl Perkins - Matchbox (2:11)
04. Clarence 'Frogman' Henry - But I Do (2:20)
05. Johnny Cash - Big River (2:32)
06. Lloyd Price - Stagger Lee (2:19)
07. Sonny Burgess - Red Headed Woman (2:10)
08. Bo Diddley - Mona (I Need You Baby) (2:22)
09. Charlie Feathers - Tongue - Tied Jill (1:58)
10. Dinah Washington - Big Long Slidin' Thing (2:58)
11. Earl King - Those Lonely, Lonely Nights (2:26)
12. Fats Domino - Walking To New Orleans (2:01)
13. Eddie Cochran - Sittin' In The Balcony (2:01)
14. Johnny Horton - Honky - Tonk Man (2:13)
15. Bill Haley & The Saddlemen - Rocket 88 (2:33)
Код:
Код:
REM GENRE "Rock & Roll"
REM DATE 2012
REM DISCID CD08300F
REM COMMENT "ExactAudioCopy v1.0b3"
PERFORMER "Various Artists"
TITLE "Simply Rock 'n' Roll [2012] CD7"
FILE "Various Artists - Simply Rock 'n' Roll [2012] CD7.flac" WAVE
  TRACK 01 AUDIO
    TITLE "Domino"
    PERFORMER "Roy Orbison"
    INDEX 01 00:00:00
  TRACK 02 AUDIO
    TITLE "Pink Thunderbird"
    PERFORMER "Gene Vincent"
    INDEX 01 02:17:22
  TRACK 03 AUDIO
    TITLE "Matchbox"
    PERFORMER "Carl Perkins"
    INDEX 01 04:51:31
  TRACK 04 AUDIO
    TITLE "But I Do"
    PERFORMER "Clarence 'Frogman' Henry"
    INDEX 01 07:02:00
  TRACK 05 AUDIO
    TITLE "Big River"
    PERFORMER "Johnny Cash"
    INDEX 01 09:22:00
  TRACK 06 AUDIO
    TITLE "Stagger Lee"
    PERFORMER "Lloyd Price"
    INDEX 01 11:54:25
  TRACK 07 AUDIO
    TITLE "Red Headed Woman"
    PERFORMER "Sonny Burgess"
    INDEX 01 14:13:40
  TRACK 08 AUDIO
    TITLE "Mona (I Need You Baby)"
    PERFORMER "Bo Diddley"
    INDEX 01 16:24:00
  TRACK 09 AUDIO
    TITLE "Tongue - Tied Jill"
    PERFORMER "Charlie Feathers"
    INDEX 01 18:46:28
  TRACK 10 AUDIO
    TITLE "Big Long Slidin' Thing"
    PERFORMER "Dinah Washington"
    INDEX 01 20:44:19
  TRACK 11 AUDIO
    TITLE "Those Lonely, Lonely Nights"
    PERFORMER "Earl King"
    INDEX 01 23:42:09
  TRACK 12 AUDIO
    TITLE "Walking To New Orleans"
    PERFORMER "Fats Domino"
    INDEX 01 26:08:24
  TRACK 13 AUDIO
    TITLE "Sittin' In The Balcony"
    PERFORMER "Eddie Cochran"
    INDEX 01 28:08:64
  TRACK 14 AUDIO
    TITLE "Honky - Tonk Man"
    PERFORMER "Johnny Horton"
    INDEX 01 30:10:12
  TRACK 15 AUDIO
    TITLE "Rocket 88"
    PERFORMER "Bill Haley & The Saddlemen"
    INDEX 01 32:23:31

Код:
Код:
Exact Audio Copy V1.0 beta 3 from 29. August 2011

EAC extraction logfile from 23. September 2013, 18:00

Various Artists / Simply Rock 'n' Roll [2012] CD7

Used drive  : TS8XDVDRTranscend   Adapter: 4  ID: 1

Read mode               : Secure
Utilize accurate stream : Yes
Defeat audio cache      : Yes
Make use of C2 pointers : No

Read offset correction                      : 6
Overread into Lead-In and Lead-Out          : No
Fill up missing offset samples with silence : Yes
Delete leading and trailing silent blocks   : No
Null samples used in CRC calculations       : Yes
Used interface                              : Native Win32 interface for Win NT & 2000

Used output format              : User Defined Encoder
Selected bitrate                : 768 kBit/s
Quality                         : High
Add ID3 tag                     : Yes
Command line compressor         : C:\Program Files\Exact Audio Copy\FLAC\FLAC.EXE
Additional command line options : -8 -V -T "Artist=%artist%" -T "Title=%title%" -T "Album=%albumtitle%" -T "DATE=%year%" -T "TRACKNUMBER=%tracknr%" -T "GENRE=%genre%" -T "COMMENT=%comment%" -T "BAND=%albuminterpret%" -T "ALBUMARTIST=%albuminterpret%" -T "COMPOSER=%composer%" %haslyrics%--tag-from-file=LYRICS="%lyricsfile%"%haslyrics% -T "DISCNUMBER=%cdnumber%" -T "TOTALDISCS=%totalcds%" -T "TOTALTRACKS=%numtracks%" %hascover%--picture="%coverfile%"%hascover% %source% -o %dest%

TOC of the extracted CD

     Track |   Start  |  Length  | Start sector | End sector
    ---------------------------------------------------------
        1  |  0:00.00 |  2:17.22 |         0    |    10296
        2  |  2:17.22 |  2:34.09 |     10297    |    21855
        3  |  4:51.31 |  2:10.44 |     21856    |    31649
        4  |  7:02.00 |  2:20.00 |     31650    |    42149
        5  |  9:22.00 |  2:32.25 |     42150    |    53574
        6  | 11:54.25 |  2:19.15 |     53575    |    64014
        7  | 14:13.40 |  2:10.35 |     64015    |    73799
        8  | 16:24.00 |  2:22.28 |     73800    |    84477
        9  | 18:46.28 |  1:57.66 |     84478    |    93318
       10  | 20:44.19 |  2:57.65 |     93319    |   106658
       11  | 23:42.09 |  2:26.15 |    106659    |   117623
       12  | 26:08.24 |  2:00.40 |    117624    |   126663
       13  | 28:08.64 |  2:01.23 |    126664    |   135761
       14  | 30:10.12 |  2:13.19 |    135762    |   145755
       15  | 32:23.31 |  2:32.57 |    145756    |   157212

Range status and errors

Selected range

     Filename D:\Music\VA - Simply Rock 'n' Roll [2012] (10CD BOX)(Flac+cue)\CD07\Various Artists - Simply Rock 'n' Roll [2012] CD7.wav

     Peak level 96.6 %
     Extraction speed 1.5 X
     Range quality 100.0 %
     Test CRC DA26637F
     Copy CRC DA26637F
     Copy OK

No errors occurred

AccurateRip summary

Track  1  not present in database
Track  2  not present in database
Track  3  not present in database
Track  4  not present in database
Track  5  not present in database
Track  6  not present in database
Track  7  not present in database
Track  8  not present in database
Track  9  not present in database
Track 10  not present in database
Track 11  not present in database
Track 12  not present in database
Track 13  not present in database
Track 14  not present in database
Track 15  not present in database

None of the tracks are present in the AccurateRip database

End of status report

==== Log checksum 0A951BFC8F61AFEAE790EC62A73D01EB55108B1511A9FE6ACE0971CD20EAF76F ====

Код:
Код:
-----------------------

DON'T MODIFY THIS FILE

-----------------------

PERFORMER: auCDtect Task Manager, ver. 1.6.0 RC1 build 1.6.0.1
Copyright (c) 2008-2010 y-soft. All rights reserved
http:/y-soft.org

ANALYZER: auCDtect: CD records authenticity detector, version 0.8.2
Copyright (c) 2004 Oleg Berngardt. All rights reserved.
Copyright (c) 2004 Alexander Djourik. All rights reserved.

FILE: Various Artists - Simply Rock 'n' Roll [2012] CD7.flac
  Size: 161517583 Hash: 7EBE96A03DF884F118BBA18AD2BED54A Accuracy: -m0
  Conclusion: CDDA 100%
  Signature: 42EAE6E90372C2320386A2652C8FC89CD3CBE276

Продолжительность: 00:38:36
Треклист:
01. Joey Dee And The Starliters - Peppermint Twist (2:06)
02. Buddy Holly - Everyday (2:08)
03. Little Richard - The Girl Can't Help It (2:32)
04. Jerry Lee Lewis - What'd I Say (2:28)
05. Chuck Berry - Little Queenie (2:41)
06. Bo Diddley - Road Runner (2:46)
07. Johnny Cash - Wide Open Road (2:36)
08. Roy Orbison - Claudette (1:59)
09. Bobby Marchan - There's Something On Your Mind (2:52)
10. Earl Hooker - The Hucklebuck (3:07)
11. Jerry Butler - He Will Break Your Heart (2:44)
12. Link Wray And His Ray Men - Rumble (2:26)
13. The Drifters - Money Honey (2:59)
14. Percy Mayfield - Please Send Me Someone To Love (2:55)
15. The Hawketts - Mardi Gras Mambo (2:16)
Код:
Код:
REM GENRE "Rock & Roll"
REM DATE 2012
REM DISCID BD090C0F
REM COMMENT "ExactAudioCopy v1.0b3"
PERFORMER "Various Artists"
TITLE "Simply Rock 'n' Roll [2012] CD8"
FILE "Various Artists - Simply Rock 'n' Roll [2012] CD8.flac" WAVE
  TRACK 01 AUDIO
    TITLE "Peppermint Twist"
    PERFORMER "Joey Dee And The Starliters"
    INDEX 01 00:00:00
  TRACK 02 AUDIO
    TITLE "Everyday"
    PERFORMER "Buddy Holly"
    INDEX 01 02:05:73
  TRACK 03 AUDIO
    TITLE "The Girl Can't Help It"
    PERFORMER "Little Richard"
    INDEX 01 04:14:09
  TRACK 04 AUDIO
    TITLE "What'd I Say"
    PERFORMER "Jerry Lee Lewis"
    INDEX 01 06:46:42
  TRACK 05 AUDIO
    TITLE "Little Queenie"
    PERFORMER "Chuck Berry"
    INDEX 01 09:14:55
  TRACK 06 AUDIO
    TITLE "Road Runner"
    PERFORMER "Bo Diddley"
    INDEX 01 11:55:73
  TRACK 07 AUDIO
    TITLE "Wide Open Road"
    PERFORMER "Johnny Cash"
    INDEX 01 14:41:73
  TRACK 08 AUDIO
    TITLE "Claudette"
    PERFORMER "Roy Orbison"
    INDEX 01 17:18:05
  TRACK 09 AUDIO
    TITLE "There's Something On Your Mind"
    PERFORMER "Bobby Marchan"
    INDEX 01 19:17:05
  TRACK 10 AUDIO
    TITLE "The Hucklebuck"
    PERFORMER "Earl Hooker"
    INDEX 01 22:09:15
  TRACK 11 AUDIO
    TITLE "He Will Break Your Heart"
    PERFORMER "Jerry Butler"
    INDEX 01 25:16:25
  TRACK 12 AUDIO
    TITLE "Rumble"
    PERFORMER "Link Wray And His Ray Men"
    INDEX 01 28:00:31
  TRACK 13 AUDIO
    TITLE "Money Honey"
    PERFORMER "The Drifters"
    INDEX 01 30:26:60
  TRACK 14 AUDIO
    TITLE "Please Send Me Someone To Love"
    PERFORMER "Percy Mayfield"
    INDEX 01 33:25:63
  TRACK 15 AUDIO
    TITLE "Mardi Gras Mambo"
    PERFORMER "The Hawketts"
    INDEX 01 36:20:53

Код:
Код:
Exact Audio Copy V1.0 beta 3 from 29. August 2011

EAC extraction logfile from 23. September 2013, 19:09

Various Artists / Simply Rock 'n' Roll [2012] CD8

Used drive  : TS8XDVDRTranscend   Adapter: 4  ID: 1

Read mode               : Secure
Utilize accurate stream : Yes
Defeat audio cache      : Yes
Make use of C2 pointers : No

Read offset correction                      : 6
Overread into Lead-In and Lead-Out          : No
Fill up missing offset samples with silence : Yes
Delete leading and trailing silent blocks   : No
Null samples used in CRC calculations       : Yes
Used interface                              : Native Win32 interface for Win NT & 2000

Used output format              : User Defined Encoder
Selected bitrate                : 768 kBit/s
Quality                         : High
Add ID3 tag                     : Yes
Command line compressor         : C:\Program Files\Exact Audio Copy\FLAC\FLAC.EXE
Additional command line options : -8 -V -T "Artist=%artist%" -T "Title=%title%" -T "Album=%albumtitle%" -T "DATE=%year%" -T "TRACKNUMBER=%tracknr%" -T "GENRE=%genre%" -T "COMMENT=%comment%" -T "BAND=%albuminterpret%" -T "ALBUMARTIST=%albuminterpret%" -T "COMPOSER=%composer%" %haslyrics%--tag-from-file=LYRICS="%lyricsfile%"%haslyrics% -T "DISCNUMBER=%cdnumber%" -T "TOTALDISCS=%totalcds%" -T "TOTALTRACKS=%numtracks%" %hascover%--picture="%coverfile%"%hascover% %source% -o %dest%

TOC of the extracted CD

     Track |   Start  |  Length  | Start sector | End sector
    ---------------------------------------------------------
        1  |  0:00.00 |  2:05.73 |         0    |     9447
        2  |  2:05.73 |  2:08.11 |      9448    |    19058
        3  |  4:14.09 |  2:32.33 |     19059    |    30491
        4  |  6:46.42 |  2:28.13 |     30492    |    41604
        5  |  9:14.55 |  2:41.18 |     41605    |    53697
        6  | 11:55.73 |  2:46.00 |     53698    |    66147
        7  | 14:41.73 |  2:36.07 |     66148    |    77854
        8  | 17:18.05 |  1:59.00 |     77855    |    86779
        9  | 19:17.05 |  2:52.10 |     86780    |    99689
       10  | 22:09.15 |  3:07.10 |     99690    |   113724
       11  | 25:16.25 |  2:44.06 |    113725    |   126030
       12  | 28:00.31 |  2:26.29 |    126031    |   137009
       13  | 30:26.60 |  2:59.03 |    137010    |   150437
       14  | 33:25.63 |  2:54.65 |    150438    |   163552
       15  | 36:20.53 |  2:15.52 |    163553    |   173729

Range status and errors

Selected range

     Filename D:\Music\VA - Simply Rock 'n' Roll [2012] (10CD BOX)(Flac+cue)\CD08\Various Artists - Simply Rock 'n' Roll [2012] CD8.wav

     Peak level 96.6 %
     Extraction speed 4.1 X
     Range quality 99.9 %
     Test CRC DE54C5BD
     Copy CRC DE54C5BD
     Copy OK

No errors occurred

AccurateRip summary

Track  1  not present in database
Track  2  not present in database
Track  3  not present in database
Track  4  not present in database
Track  5  not present in database
Track  6  not present in database
Track  7  not present in database
Track  8  not present in database
Track  9  not present in database
Track 10  not present in database
Track 11  not present in database
Track 12  not present in database
Track 13  not present in database
Track 14  not present in database
Track 15  not present in database

None of the tracks are present in the AccurateRip database

End of status report

==== Log checksum 77EAC800F5DACF40D7693A33052F4FB0528F86A29178D52089C4AFD453EDD4DE ====

Код:
Код:
-----------------------

DON'T MODIFY THIS FILE

-----------------------

PERFORMER: auCDtect Task Manager, ver. 1.6.0 RC1 build 1.6.0.1
Copyright (c) 2008-2010 y-soft. All rights reserved
http:/y-soft.org

ANALYZER: auCDtect: CD records authenticity detector, version 0.8.2
Copyright (c) 2004 Oleg Berngardt. All rights reserved.
Copyright (c) 2004 Alexander Djourik. All rights reserved.

FILE: Various Artists - Simply Rock 'n' Roll [2012] CD8.flac
  Size: 166179960 Hash: B56AB3DFAF0B8351EBD2E039DEB65876 Accuracy: -m0
  Conclusion: CDDA 100%
  Signature: 21572B904C62131E7A3E3A6C64B4BA0EDDE0FF83

Продолжительность: 00:37:45
Треклист:
01. Gene Vincent - Rollin' Danny (2:09)
02. Jerry Lee Lewis - Down The Line (2:15)
03. Carl Mann - Pretend (2:40)
04. Bo Diddley - Who Do You Love? (2:30)
05. Lloyd Price - Lawdy Miss Clawdy (2:33)
06. Bobby Charles - See You Later Alligator (2:51)
07. Huey 'Piano' Smith & The Clowns - Rockin' Pneumonia And The Boogie Woogie Flu (2:18)
08. Ritchie Valens - Donna (2:31)
09. Charlie Rich - Who Will The Next Fool Be? (2:25)
10. Ernie K - Doe (2:28)
11. Fats Domino - The Fat Man (2:38)
12. Roy Brown - Good Rockin' Tonight (2:59)
13. Ronnie Hawkins & The Hawks - Forty Days (2:18)
14. Lee Dorsey - Ya Ya (2:27)
15. Frankie Ford - Sea Cruise (2:43)
Код:
Код:
REM GENRE "Rock & Roll"
REM DATE 2012
REM DISCID C208D90F
REM COMMENT "ExactAudioCopy v1.0b3"
PERFORMER "Various Artists"
TITLE "Simply Rock 'n' Roll [2012]  CD9"
FILE "Various Artists - Simply Rock 'n' Roll [2012]  CD9.flac" WAVE
  TRACK 01 AUDIO
    TITLE "Rollin' Danny"
    PERFORMER "Gene Vincent"
    INDEX 01 00:00:00
  TRACK 02 AUDIO
    TITLE "Down The Line"
    PERFORMER "Jerry Lee Lewis"
    INDEX 01 02:09:24
  TRACK 03 AUDIO
    TITLE "Pretend"
    PERFORMER "Carl Mann"
    INDEX 01 04:24:19
  TRACK 04 AUDIO
    TITLE "Who Do You Love?"
    PERFORMER "Bo Diddley"
    INDEX 01 07:04:38
  TRACK 05 AUDIO
    TITLE "Lawdy Miss Clawdy"
    PERFORMER "Lloyd Price"
    INDEX 01 09:34:27
  TRACK 06 AUDIO
    TITLE "See You Later Alligator"
    PERFORMER "Bobby Charles"
    INDEX 01 12:07:38
  TRACK 07 AUDIO
    TITLE "Rockin' Pneumonia And The Boogie Woogie Flu"
    PERFORMER "Huey 'Piano' Smith & The Clowns"
    INDEX 01 14:58:63
  TRACK 08 AUDIO
    TITLE "Donna"
    PERFORMER "Ritchie Valens"
    INDEX 01 17:16:27
  TRACK 09 AUDIO
    TITLE "Who Will The Next Fool Be?"
    PERFORMER "Charlie Rich"
    INDEX 01 19:47:34
  TRACK 10 AUDIO
    TITLE "Doe"
    PERFORMER "Ernie K"
    INDEX 01 22:12:13
  TRACK 11 AUDIO
    TITLE "The Fat Man"
    PERFORMER "Fats Domino"
    INDEX 01 24:40:36
  TRACK 12 AUDIO
    TITLE "Good Rockin' Tonight"
    PERFORMER "Roy Brown"
    INDEX 01 27:18:29
  TRACK 13 AUDIO
    TITLE "Forty Days"
    PERFORMER "Ronnie Hawkins & The Hawks"
    INDEX 01 30:17:24
  TRACK 14 AUDIO
    TITLE "Ya Ya"
    PERFORMER "Lee Dorsey"
    INDEX 01 32:35:10
  TRACK 15 AUDIO
    TITLE "Sea Cruise"
    PERFORMER "Frankie Ford"
    INDEX 01 35:02:32

Код:
Код:
Exact Audio Copy V1.0 beta 3 from 29. August 2011

EAC extraction logfile from 23. September 2013, 20:26

Various Artists / Simply Rock 'n' Roll [2012]  CD9

Used drive  : TS8XDVDRTranscend   Adapter: 4  ID: 1

Read mode               : Secure
Utilize accurate stream : Yes
Defeat audio cache      : Yes
Make use of C2 pointers : No

Read offset correction                      : 6
Overread into Lead-In and Lead-Out          : No
Fill up missing offset samples with silence : Yes
Delete leading and trailing silent blocks   : No
Null samples used in CRC calculations       : Yes
Used interface                              : Native Win32 interface for Win NT & 2000

Used output format              : User Defined Encoder
Selected bitrate                : 768 kBit/s
Quality                         : High
Add ID3 tag                     : Yes
Command line compressor         : C:\Program Files\Exact Audio Copy\FLAC\FLAC.EXE
Additional command line options : -8 -V -T "Artist=%artist%" -T "Title=%title%" -T "Album=%albumtitle%" -T "DATE=%year%" -T "TRACKNUMBER=%tracknr%" -T "GENRE=%genre%" -T "COMMENT=%comment%" -T "BAND=%albuminterpret%" -T "ALBUMARTIST=%albuminterpret%" -T "COMPOSER=%composer%" %haslyrics%--tag-from-file=LYRICS="%lyricsfile%"%haslyrics% -T "DISCNUMBER=%cdnumber%" -T "TOTALDISCS=%totalcds%" -T "TOTALTRACKS=%numtracks%" %hascover%--picture="%coverfile%"%hascover% %source% -o %dest%

TOC of the extracted CD

     Track |   Start  |  Length  | Start sector | End sector
    ---------------------------------------------------------
        1  |  0:00.00 |  2:09.24 |         0    |     9698
        2  |  2:09.24 |  2:14.70 |      9699    |    19818
        3  |  4:24.19 |  2:40.19 |     19819    |    31837
        4  |  7:04.38 |  2:29.64 |     31838    |    43076
        5  |  9:34.27 |  2:33.11 |     43077    |    54562
        6  | 12:07.38 |  2:51.25 |     54563    |    67412
        7  | 14:58.63 |  2:17.39 |     67413    |    77726
        8  | 17:16.27 |  2:31.07 |     77727    |    89058
        9  | 19:47.34 |  2:24.54 |     89059    |    99912
       10  | 22:12.13 |  2:28.23 |     99913    |   111035
       11  | 24:40.36 |  2:37.68 |    111036    |   122878
       12  | 27:18.29 |  2:58.70 |    122879    |   136298
       13  | 30:17.24 |  2:17.61 |    136299    |   146634
       14  | 32:35.10 |  2:27.22 |    146635    |   157681
       15  | 35:02.32 |  2:42.61 |    157682    |   169892

Range status and errors

Selected range

     Filename D:\Music\VA - Simply Rock 'n' Roll [2012] (10CD BOX)(Flac+cue)\CD09\Various Artists - Simply Rock 'n' Roll [2012]  CD9.wav

     Peak level 97.7 %
     Extraction speed 1.5 X
     Range quality 99.9 %
     Test CRC 7D503624
     Copy CRC 7D503624
     Copy OK

No errors occurred

AccurateRip summary

Track  1  not present in database
Track  2  not present in database
Track  3  not present in database
Track  4  not present in database
Track  5  not present in database
Track  6  not present in database
Track  7  not present in database
Track  8  not present in database
Track  9  not present in database
Track 10  not present in database
Track 11  not present in database
Track 12  not present in database
Track 13  not present in database
Track 14  not present in database
Track 15  not present in database

None of the tracks are present in the AccurateRip database

End of status report

==== Log checksum 5114E5459BA02DACC762F50183F34683EF9F87B24366E4F4457AA2B60A677E98 ====

Код:
Код:
-----------------------

DON'T MODIFY THIS FILE

-----------------------

PERFORMER: auCDtect Task Manager, ver. 1.6.0 RC1 build 1.6.0.1
Copyright (c) 2008-2010 y-soft. All rights reserved
http:/y-soft.org

ANALYZER: auCDtect: CD records authenticity detector, version 0.8.2
Copyright (c) 2004 Oleg Berngardt. All rights reserved.
Copyright (c) 2004 Alexander Djourik. All rights reserved.

FILE: Various Artists - Simply Rock 'n' Roll [2012]  CD9.flac
  Size: 163723612 Hash: A1D9D1FFC30963964345AC59E200558A Accuracy: -m0
  Conclusion: CDDA 100%
  Signature: 0F8C1191F21491C276364E2A342A54DB260F7DDE

Продолжительность: 00:39:02
Треклист:
01. Buddy Holly - Rave On (1:51)
02. Lee Allen & His Band - Walking With Mr. Lee (2:28)
03. Warren Smith - Red Cadillac And A Black Moustache (2:18)
04. Down The Line) (Roy Orbison - Go! Go! Go! (2:09)
05. Little Junior's Blue Flames - Feelin Good (2:58)
06. Smiley Lewis - Gumbo Blues (2:27)
07. Huey 'Piano' Smith - Fore Day In The Morning (4:09)
08. Wynonie Harris - Good Rockin' Tonight (2:46)
09. Jimmy Jones - Good Timin (2:12)
10. Louis Jordan And His Tympany Five - Caldonia (2:42)
11. Roy Montrell - That Mellow Saxophone (Everytime I Hear) (2:26)
12. Shirley And Lee - Let The Good Times Roll (2:16)
13. Slim Harpo - I'm A King Bee (3:03)
14. The Teddy Bears - To Know Him Is To Love Him (2:25)
15. Mac Rebennack - Storm Warning (2:53)
Код:
Код:
REM GENRE "Rock & Roll"
REM DATE 2012
REM DISCID AF09260F
REM COMMENT "ExactAudioCopy v1.0b3"
PERFORMER "Various Artists"
TITLE "Simply Rock 'n' Roll [2012] CD10"
FILE "Various Artists - Simply Rock 'n' Roll [2012] CD10.flac" WAVE
  TRACK 01 AUDIO
    TITLE "Rave On"
    PERFORMER "Buddy Holly"
    INDEX 01 00:00:00
  TRACK 02 AUDIO
    TITLE "Walking With Mr. Lee"
    PERFORMER "Lee Allen & His Band"
    INDEX 01 01:50:64
  TRACK 03 AUDIO
    TITLE "Red Cadillac And A Black Moustache"
    PERFORMER "Warren Smith"
    INDEX 01 04:19:07
  TRACK 04 AUDIO
    TITLE "Go! Go! Go!"
    PERFORMER "Down The Line) (Roy Orbison"
    INDEX 01 06:37:29
  TRACK 05 AUDIO
    TITLE "Feelin Good"
    PERFORMER "Little Junior's Blue Flames"
    INDEX 01 08:46:53
  TRACK 06 AUDIO
    TITLE "Gumbo Blues"
    PERFORMER "Smiley Lewis"
    INDEX 01 11:44:59
  TRACK 07 AUDIO
    TITLE "Fore Day In The Morning"
    PERFORMER "Huey 'Piano' Smith"
    INDEX 01 14:11:68
  TRACK 08 AUDIO
    TITLE "Good Rockin' Tonight"
    PERFORMER "Wynonie Harris"
    INDEX 01 18:20:65
  TRACK 09 AUDIO
    TITLE "Good Timin"
    PERFORMER "Jimmy Jones"
    INDEX 01 21:06:69
  TRACK 10 AUDIO
    TITLE "Caldonia"
    PERFORMER "Louis Jordan And His Tympany Five"
    INDEX 01 23:19:00
  TRACK 11 AUDIO
    TITLE "That Mellow Saxophone (Everytime I Hear)"
    PERFORMER "Roy Montrell"
    INDEX 01 26:00:47
  TRACK 12 AUDIO
    TITLE "Let The Good Times Roll"
    PERFORMER "Shirley And Lee"
    INDEX 01 28:26:22
  TRACK 13 AUDIO
    TITLE "I'm A King Bee"
    PERFORMER "Slim Harpo"
    INDEX 01 30:42:30
  TRACK 14 AUDIO
    TITLE "To Know Him Is To Love Him"
    PERFORMER "The Teddy Bears"
    INDEX 01 33:44:74
  TRACK 15 AUDIO
    TITLE "Storm Warning"
    PERFORMER "Mac Rebennack"
    INDEX 01 36:09:41

Код:
Код:
Exact Audio Copy V1.0 beta 3 from 29. August 2011

EAC extraction logfile from 23. September 2013, 21:06

Various Artists / Simply Rock 'n' Roll [2012] CD10

Used drive  : TS8XDVDRTranscend   Adapter: 4  ID: 1

Read mode               : Secure
Utilize accurate stream : Yes
Defeat audio cache      : Yes
Make use of C2 pointers : No

Read offset correction                      : 6
Overread into Lead-In and Lead-Out          : No
Fill up missing offset samples with silence : Yes
Delete leading and trailing silent blocks   : No
Null samples used in CRC calculations       : Yes
Used interface                              : Native Win32 interface for Win NT & 2000

Used output format              : User Defined Encoder
Selected bitrate                : 768 kBit/s
Quality                         : High
Add ID3 tag                     : Yes
Command line compressor         : C:\Program Files\Exact Audio Copy\FLAC\FLAC.EXE
Additional command line options : -8 -V -T "Artist=%artist%" -T "Title=%title%" -T "Album=%albumtitle%" -T "DATE=%year%" -T "TRACKNUMBER=%tracknr%" -T "GENRE=%genre%" -T "COMMENT=%comment%" -T "BAND=%albuminterpret%" -T "ALBUMARTIST=%albuminterpret%" -T "COMPOSER=%composer%" %haslyrics%--tag-from-file=LYRICS="%lyricsfile%"%haslyrics% -T "DISCNUMBER=%cdnumber%" -T "TOTALDISCS=%totalcds%" -T "TOTALTRACKS=%numtracks%" %hascover%--picture="%coverfile%"%hascover% %source% -o %dest%

TOC of the extracted CD

     Track |   Start  |  Length  | Start sector | End sector
    ---------------------------------------------------------
        1  |  0:00.00 |  1:50.64 |         0    |     8313
        2  |  1:50.64 |  2:28.18 |      8314    |    19431
        3  |  4:19.07 |  2:18.22 |     19432    |    29803
        4  |  6:37.29 |  2:09.24 |     29804    |    39502
        5  |  8:46.53 |  2:58.06 |     39503    |    52858
        6  | 11:44.59 |  2:27.09 |     52859    |    63892
        7  | 14:11.68 |  4:08.72 |     63893    |    82564
        8  | 18:20.65 |  2:46.04 |     82565    |    95018
        9  | 21:06.69 |  2:12.06 |     95019    |   104924
       10  | 23:19.00 |  2:41.47 |    104925    |   117046
       11  | 26:00.47 |  2:25.50 |    117047    |   127971
       12  | 28:26.22 |  2:16.08 |    127972    |   138179
       13  | 30:42.30 |  3:02.44 |    138180    |   151873
       14  | 33:44.74 |  2:24.42 |    151874    |   162715
       15  | 36:09.41 |  2:52.48 |    162716    |   175663

Range status and errors

Selected range

     Filename D:\Music\VA - Simply Rock 'n' Roll [2012] (10CD BOX)(Flac+cue)\CD10\Various Artists - Simply Rock 'n' Roll [2012] CD10.wav

     Peak level 96.6 %
     Extraction speed 4.2 X
     Range quality 100.0 %
     Test CRC E621DAF2
     Copy CRC E621DAF2
     Copy OK

No errors occurred

AccurateRip summary

Track  1  not present in database
Track  2  not present in database
Track  3  not present in database
Track  4  not present in database
Track  5  not present in database
Track  6  not present in database
Track  7  not present in database
Track  8  not present in database
Track  9  not present in database
Track 10  not present in database
Track 11  not present in database
Track 12  not present in database
Track 13  not present in database
Track 14  not present in database
Track 15  not present in database

None of the tracks are present in the AccurateRip database

End of status report

==== Log checksum 27C553B4DCAB472BB77794C86D0AD617360BE83C1EFA517A7984926F2306B402 ====

Код:
Код:
-----------------------

DON'T MODIFY THIS FILE

-----------------------

PERFORMER: auCDtect Task Manager, ver. 1.6.0 RC1 build 1.6.0.1
Copyright (c) 2008-2010 y-soft. All rights reserved
http:/y-soft.org

ANALYZER: auCDtect: CD records authenticity detector, version 0.8.2
Copyright (c) 2004 Oleg Berngardt. All rights reserved.
Copyright (c) 2004 Alexander Djourik. All rights reserved.

FILE: Various Artists - Simply Rock 'n' Roll [2012] CD10.flac
  Size: 174560551 Hash: DEED6010F0CB1A829FA773C407EA87DB Accuracy: -m0
  Conclusion: CDDA 99%
  Signature: E63C10519A3608C37C4A05E46F3B049CAB1392C8

Правила, инструкции, FAQ!!!
Торрент  Добавлен [05 дек 2013, 10:37] Скачать торрент Магнет ссылка
Скачать торрент
[ Размер 19.64 КБ / Просмотров 59 ]

Статус  
 
Размер  1.55 ГБ
Приватный: Нет (DHT включён)
.torrent скачан  3
 


     Отправить личное сообщение
   
Страница 1 из 1
Показать сообщения за:  Поле сортировки  
Начать новую тему Ответить на тему


Сейчас этот форум просматривают: нет зарегистрированных пользователей и гости: 0


Вы не можете начинать темы
Вы не можете отвечать на сообщения
Вы не можете редактировать свои сообщения
Вы не можете удалять свои сообщения
Вы не можете добавлять вложения

Перейти:  
cron
cron