Начать новую тему Ответить на тему
Статистика раздачи
Размер: 288.47 МБ | Добавлен: 05 дек 2013, 10:38 | Скачали: 3
Сидеров: 1  [0 байт/сек]    Личеров: 0  [0 байт/сек]
Пред. тема | След. тема 

Автор
Сообщение

СообщениеДобавлено: 05 дек 2013, 10:38 

Ответить с цитатой 

VA - George Martin: In My Life (1998)

Год: 1998
Жанр: Rock
Страна: UK
Страна-производитель диска: USA
Издатель (лейбл): MCA Rec. | #: MCAD-11841
Наличие сканов в содержимом раздачи: да
Источник (релизер): dafnaplus
Продолжительность: 00:47:09

Кодек: FLAC
Битрейт: Lossless

Треклист:
1. Robin Williams & Bobby McFerrin - Come Together (4:36)
2. Goldie Hawn - A Hard Day's Night (3:24)
3. Jeff Beck - A Day In the Life (4:44)
4. Celine Dion - Here There & Everywhere (3:18)
5. Vanessa Mae - Because (3:18)
6. Jim Carrey - I Am the Walrus (4:31)
7. John Williams - Here Comes the Sun (3:30)
8. Billy Connolly - Being For the Benefit of Mr. Kite (2:58)
9. George Martin & His Orchestra - The Pepperland Suite (6:19)
10. Phil Collins - Golden Slumbers, Carry That Weight, The End (medley) (5:38)
11. George Martin & His Orchestra - Friends and Lovers (2:24)
12. Sean Connery - In My Life (2:29)
Очень красивый и мелодичный альбом битловских песен, спетых известными музыкантами и звездами Голливуда.
Их собрал вместе и спродюсировал диск бывший продюсер самих битлов Джордж Мартин.

_________________________
In My Life is a 1998 album compiled and produced by Sir George Martin.
The CD is composed almost entirely of cover versions of The Beatles songs which George Martin produced originally.
----------------------------------------
В моей жизни альбоме 1998 года составлен и спродюсирован сэром Джорджем Мартином.
Компакт-диск почти полностью состоит из кавер-версий песни Beatles Джордж Мартин которых производятся первоначально.
Код:
Код:
Exact Audio Copy V0.99 prebeta 4 from 23. January 2008

EAC extraction logfile from 15. January 2009, 9:07

Various / In My Life

Used drive  : SONY    DVD RW DRU-830A   Adapter: 0  ID: 0

Read mode               : Secure
Utilize accurate stream : Yes
Defeat audio cache      : Yes
Make use of C2 pointers : No

Read offset correction                      : 6
Overread into Lead-In and Lead-Out          : No
Fill up missing offset samples with silence : Yes
Delete leading and trailing silent blocks   : No
Null samples used in CRC calculations       : Yes
Used interface                              : Native Win32 interface for Win NT & 2000
Gap handling                                : Appended to previous track

Used output format              : User Defined Encoder
Selected bitrate                : 192 kBit/s
Quality                         : High
Add ID3 tag                     : No
Command line compressor         : C:\flac.exe
Additional command line options : -V -8 -T "artist=%a" -T "title=%t" -T "album=%g" -T "date=%y" -T "tracknumber=%n" -T "genre=%m" %s

TOC of the extracted CD

     Track |   Start  |  Length  | Start sector | End sector
    ---------------------------------------------------------
        1  |  0:00.00 |  4:36.67 |         0    |    20766
        2  |  4:36.67 |  3:24.05 |     20767    |    36071
        3  |  8:00.72 |  4:44.00 |     36072    |    57371
        4  | 12:44.72 |  3:18.20 |     57372    |    72241
        5  | 16:03.17 |  3:18.33 |     72242    |    87124
        6  | 19:21.50 |  4:31.45 |     87125    |   107494
        7  | 23:53.20 |  3:30.72 |    107495    |   123316
        8  | 27:24.17 |  2:58.63 |    123317    |   136729
        9  | 30:23.05 |  6:19.00 |    136730    |   165154
       10  | 36:42.05 |  5:38.55 |    165155    |   190559
       11  | 42:20.60 |  2:24.60 |    190560    |   201419
       12  | 44:45.45 |  2:29.65 |    201420    |   212659

Track  1

     Filename C:\In My Life - 1998\01 - Robin Williams & Bobby McFerrin) - Come Together.wav

     Pre-gap length  0:00:02.00

     Peak level 92.8 %
     Track quality 100.0 %
     Test CRC F2069286
     Copy CRC F2069286
     Accurately ripped (confidence 6)  [D098A893]
     Copy OK

Track  2

     Filename C:\In My Life - 1998\02 - Goldie Hawn - A Hard Day's Night.wav

     Peak level 90.2 %
     Track quality 100.0 %
     Test CRC 9CCC6D65
     Copy CRC 9CCC6D65
     Accurately ripped (confidence 6)  [9D6F905C]
     Copy OK

Track  3

     Filename C:\In My Life - 1998\03 - Jeff Beck - A Day In the Life.wav

     Peak level 99.5 %
     Track quality 100.0 %
     Test CRC 42496202
     Copy CRC 42496202
     Accurately ripped (confidence 6)  [380A39CD]
     Copy OK

Track  4

     Filename C:\In My Life - 1998\04 - Celine Dion - Here There & Everywhere.wav

     Pre-gap length  0:00:02.42

     Peak level 80.4 %
     Track quality 100.0 %
     Test CRC 913CE91F
     Copy CRC 913CE91F
     Accurately ripped (confidence 5)  [4FAFD8C5]
     Copy OK

Track  5

     Filename C:\In My Life - 1998\05 - Vanessa Mae - Because.wav

     Peak level 93.8 %
     Track quality 100.0 %
     Test CRC 3AFC1C15
     Copy CRC 3AFC1C15
     Accurately ripped (confidence 6)  [170C7828]
     Copy OK

Track  6

     Filename C:\In My Life - 1998\06 - Jim Carrey - I Am the Walrus.wav

     Pre-gap length  0:00:01.57

     Peak level 99.5 %
     Track quality 100.0 %
     Test CRC 82D17770
     Copy CRC 82D17770
     Accurately ripped (confidence 6)  [4BDAB381]
     Copy OK

Track  7

     Filename C:\In My Life - 1998\07 - John Williams - Here Comes the Sun.wav

     Pre-gap length  0:00:01.97

     Peak level 92.8 %
     Track quality 100.0 %
     Test CRC EA7AC0E8
     Copy CRC EA7AC0E8
     Accurately ripped (confidence 6)  [26695464]
     Copy OK

Track  8

     Filename C:\In My Life - 1998\08 - Billy Connolly - Being For the Benefit of Mr. Kite.wav

     Pre-gap length  0:00:01.53

     Peak level 94.0 %
     Track quality 100.0 %
     Test CRC 39FFCC94
     Copy CRC 39FFCC94
     Accurately ripped (confidence 6)  [6857BA3C]
     Copy OK

Track  9

     Filename C:\In My Life - 1998\09 - George Martin & His Orchestra - The Pepperland Suite.wav

     Peak level 99.6 %
     Track quality 100.0 %
     Test CRC 5AF26376
     Copy CRC 5AF26376
     Accurately ripped (confidence 6)  [DF27AD1C]
     Copy OK

Track 10

     Filename C:\In My Life - 1998\10 - Phil Collins - Golden Slumbers, Carry That Weight, The End (medley).wav

     Peak level 96.1 %
     Track quality 100.0 %
     Test CRC 07FB6B4B
     Copy CRC 07FB6B4B
     Accurately ripped (confidence 6)  [F4234954]
     Copy OK

Track 11

     Filename C:\In My Life - 1998\11 - George Martin & His Orchestra - Friends and Lovers.wav

     Peak level 71.9 %
     Track quality 99.9 %
     Test CRC 7FFB8B2D
     Copy CRC 7FFB8B2D
     Accurately ripped (confidence 5)  [D6A3BFE0]
     Copy OK

Track 12

     Filename C:\In My Life - 1998\12 - Sean Connery - In My Life.wav

     Peak level 53.9 %
     Track quality 100.0 %
     Test CRC 80D2FC80
     Copy CRC 80D2FC80
     Accurately ripped (confidence 6)  [E823F6B2]
     Copy OK

All tracks accurately ripped

No errors occurred

End of status report
Код:
Код:
-----------------------

DON'T MODIFY THIS FILE

-----------------------

PERFORMER: auCDtect Task Manager, ver. 1.6.0 RC1 build 1.6.0.1
Copyright (c) 2008-2010 y-soft. All rights reserved
http:/y-soft.org

ANALYZER: auCDtect: CD records authenticity detector, version 0.8.2
Copyright (c) 2004 Oleg Berngardt. All rights reserved.
Copyright (c) 2004 Alexander Djourik. All rights reserved.

FILE: 12 - Sean Connery - In My Life.flac
  Size: 11234130 Hash: 0F9CA261CA5CF3F813640C1B317D2BB6 Accuracy: -m0
  Conclusion: CDDA 100%
  Signature: 2AD18EC2DC1A6CAFDFF9975E4B1026F73A731B2D
FILE: 11 - George Martin & His Orchestra - Friends and Lovers.flac
  Size: 13083452 Hash: 952EB89ABA16EDCACA6F252E30061229 Accuracy: -m0
  Conclusion: CDDA 100%
  Signature: 305A37668905D148777840E6511B188D328E61FB
FILE: 10 - Phil Collins - Golden Slumbers, Carry That Weight, The End (medley).flac
  Size: 38808027 Hash: CD8E38549F28473DC0DD072E29563869 Accuracy: -m0
  Conclusion: CDDA 100%
  Signature: A4AC6BFD96ADE577699EA9A7ADCF589C0B07FE19
FILE: 09 - George Martin & His Orchestra - The Pepperland Suite.flac
  Size: 37480221 Hash: 3B1852F28E05CC164D5F3ED0CFF17BB5 Accuracy: -m0
  Conclusion: CDDA 99%
  Signature: B287E112E10BC566DA30F55227C7BD60E5528847
FILE: 08 - Billy Connolly - Being For the Benefit of Mr. Kite.flac
  Size: 20170232 Hash: CACF2AB420BD20455A550742CC34530C Accuracy: -m0
  Conclusion: CDDA 100%
  Signature: DCF4D5F6EAAB8A37FE9233AE897EB3CF4E5AD740
FILE: 07 - John Williams - Here Comes the Sun.flac
  Size: 19071598 Hash: E612158623E87CAE49E11DC1BF96C102 Accuracy: -m0
  Conclusion: CDDA 100%
  Signature: ACA01F07E6656AFBD7F3A1BE8809B137179A586E
FILE: 06 - Jim Carrey - I Am the Walrus.flac
  Size: 34482834 Hash: 8F21EB59EEE9B2085DC8A6C6DFE9B410 Accuracy: -m0
  Conclusion: CDDA 100%
  Signature: 96C6D67D066E6D38D71BBE6D7CF8810BC1464CB5
FILE: 05 - Vanessa Mae - Because.flac
  Size: 19552494 Hash: 90481CC0849E003678BE95974F75E4A6 Accuracy: -m0
  Conclusion: CDDA 100%
  Signature: 6D76B89E69C3CEE9AE4531BFB08FB28570070C73
FILE: 04 - Celine Dion - Here There & Everywhere.flac
  Size: 20835466 Hash: EB5278910895EB2723491DB3647013F5 Accuracy: -m0
  Conclusion: CDDA 100%
  Signature: 0DCB20A38B985CFE6928B934C27459063B527C70
FILE: 03 - Jeff Beck - A Day In the Life.flac
  Size: 30154923 Hash: 9123239C93D7C4A8AA85B3EE7F8FC2D4 Accuracy: -m0
  Conclusion: CDDA 100%
  Signature: 3AD17E0EC8B5C2AF9F2795DC23E33D6F3DDC4BF8
FILE: 02 - Goldie Hawn - A Hard Day's Night.flac
  Size: 22298287 Hash: 877D2BB68D2259F0940B210B28371B85 Accuracy: -m0
  Conclusion: CDDA 100%
  Signature: 03E1C22EFBA9964F8F3AFEA4A79A01DFA5DB0606
FILE: 01 - Robin Williams & Bobby McFerrin) - Come Together.flac
  Size: 30623699 Hash: D70A1E324007BE7C66BD1979ECA2EB54 Accuracy: -m0
  Conclusion: CDDA 99%
  Signature: CC2818BE694EC31A81104C80ED12DDF7A0F7E1A6

Правила, инструкции, FAQ!!!
Торрент  Добавлен [05 дек 2013, 10:38] Скачать торрент Магнет ссылка
Скачать торрент
[ Размер 13.28 КБ / Просмотров 40 ]

Статус  
 
Размер  288.47 МБ
Приватный: Нет (DHT включён)
.torrent скачан  3
 


     Отправить личное сообщение
   
Страница 1 из 1
Показать сообщения за:  Поле сортировки  
Начать новую тему Ответить на тему


Сейчас этот форум просматривают: нет зарегистрированных пользователей и гости: 0


Вы не можете начинать темы
Вы не можете отвечать на сообщения
Вы не можете редактировать свои сообщения
Вы не можете удалять свои сообщения
Вы не можете добавлять вложения

Перейти:  
cron