Начать новую тему Ответить на тему
Статистика раздачи
Размер: 534.71 МБ | Добавлен: 16 мар 2014, 00:13 | Скачали: 0
Сидеров: 1  [0 байт/сек]    Личеров: 0  [0 байт/сек]
Пред. тема | След. тема 

Автор
Сообщение

СообщениеДобавлено: 16 мар 2014, 00:13 

Ответить с цитатой 

VA - Classic Rock Presents: Bag of Bones (2013)

Год: 2013
Жанр: Rock, Blues Rock
Продолжительность: 01:18:25

Кодек: FLAC
Битрейт: Lossless

Треклист:
01. Devon Allman's Honeytribe - Mercy Mercy (2:45)
02. Leslie West - Third Degree (5:11)
03. Europe - Bag of Bones (5:31)
04. Walter Trout - Lonely (4:52)
05. Don Airey - People in Your Head (5:01)
06. Gov't Mule - Railroad Boy (5:03)
07. Beth Hart & Joe Bonamassa - I Love You More Than You'll Ever Know (7:05)
08. Healing Sixes - Fine Time (5:00)
09. Warren Haynes - Hattiesburg Hustle (6:30)
10. Steve Lukather - Transition (5:32)
11. JJ Grey & Mofro - 99 Shades of Crazy (4:52)
12. Robert Cray - Won't Be Coming Home (4:52)
13. Danny Bryant - Prisoner of the Blues (5:33)
14. Rock Candy Funk Party - The Best Ten Minutes of Your Life (10:37)
Код:
Код:
Exact Audio Copy V1.0 beta 3 from 29. August 2011

EAC extraction logfile from 3. July 2013, 9:14

VA / Classic Rock 185: Bag of Bones

Used drive  : ATAPI   iHAS120   X   Adapter: 6  ID: 0

Read mode               : Secure
Utilize accurate stream : Yes
Defeat audio cache      : Yes
Make use of C2 pointers : No

Read offset correction                      : 48
Overread into Lead-In and Lead-Out          : No
Fill up missing offset samples with silence : Yes
Delete leading and trailing silent blocks   : No
Null samples used in CRC calculations       : Yes
Used interface                              : Native Win32 interface for Win NT & 2000
Gap handling                                : Appended to previous track

Used output format              : User Defined Encoder
Selected bitrate                : 128 kBit/s
Quality                         : High
Add ID3 tag                     : No
Command line compressor         : C:\Program Files\Exact Audio Copy\Flac\flac.exe
Additional command line options : -V -8 -T "Genre=%genre%" -T "Artist=%artist%" -T "Title=%title%" -T "Album=%albumtitle%" -T "Date=%year%" -T "Tracknumber=%tracknr%" -T "Comment=%comment%" %source%

TOC of the extracted CD

     Track |   Start  |  Length  | Start sector | End sector
    ---------------------------------------------------------
        1  |  0:00.00 |  2:45.17 |         0    |    12391
        2  |  2:45.17 |  5:10.67 |     12392    |    35708
        3  |  7:56.09 |  5:31.02 |     35709    |    60535
        4  | 13:27.11 |  4:52.05 |     60536    |    82440
        5  | 18:19.16 |  5:00.56 |     82441    |   104996
        6  | 23:19.72 |  5:03.27 |    104997    |   127748
        7  | 28:23.24 |  7:04.72 |    127749    |   159620
        8  | 35:28.21 |  5:00.17 |    159621    |   182137
        9  | 40:28.38 |  6:30.12 |    182138    |   211399
       10  | 46:58.50 |  5:32.01 |    211400    |   236300
       11  | 52:30.51 |  4:52.33 |    236301    |   258233
       12  | 57:23.09 |  4:52.32 |    258234    |   280165
       13  | 62:15.41 |  5:33.12 |    280166    |   305152
       14  | 67:48.53 | 10:36.50 |    305153    |   352902

Track  1

     Filename D:\zzz\Classic Rock 185- Bag of Bones\01. Devon Allman's Honeytribe - Mercy Mercy.wav

     Pre-gap length  0:00:02.00

     Peak level 99.9 %
     Extraction speed 2.4 X
     Track quality 100.0 %
     Test CRC 724D27A8
     Copy CRC 724D27A8
     Track not present in AccurateRip database
     Copy OK

Track  2

     Filename D:\zzz\Classic Rock 185- Bag of Bones\02. Leslie West - Third Degree.wav

     Peak level 98.8 %
     Extraction speed 2.8 X
     Track quality 100.0 %
     Test CRC EAFA217F
     Copy CRC EAFA217F
     Track not present in AccurateRip database
     Copy OK

Track  3

     Filename D:\zzz\Classic Rock 185- Bag of Bones\03. Europe - Bag of Bones.wav

     Peak level 100.0 %
     Extraction speed 2.9 X
     Track quality 99.9 %
     Test CRC 4770B127
     Copy CRC 4770B127
     Track not present in AccurateRip database
     Copy OK

Track  4

     Filename D:\zzz\Classic Rock 185- Bag of Bones\04. Walter Trout - Lonely.wav

     Peak level 97.3 %
     Extraction speed 3.4 X
     Track quality 100.0 %
     Test CRC E5089B93
     Copy CRC E5089B93
     Track not present in AccurateRip database
     Copy OK

Track  5

     Filename D:\zzz\Classic Rock 185- Bag of Bones\05. Don Airey - People in Your Head.wav

     Peak level 96.5 %
     Extraction speed 3.3 X
     Track quality 99.9 %
     Test CRC F7F7C011
     Copy CRC F7F7C011
     Track not present in AccurateRip database
     Copy OK

Track  6

     Filename D:\zzz\Classic Rock 185- Bag of Bones\06. Gov't Mule - Railroad Boy.wav

     Peak level 97.1 %
     Extraction speed 3.9 X
     Track quality 100.0 %
     Test CRC B19AC175
     Copy CRC B19AC175
     Track not present in AccurateRip database
     Copy OK

Track  7

     Filename D:\zzz\Classic Rock 185- Bag of Bones\07. Beth Hart & Joe Bonamassa - I Love You More Than You'll Ever Know.wav

     Peak level 99.5 %
     Extraction speed 4.0 X
     Track quality 99.9 %
     Test CRC F694A934
     Copy CRC F694A934
     Track not present in AccurateRip database
     Copy OK

Track  8

     Filename D:\zzz\Classic Rock 185- Bag of Bones\08. Healing Sixes - Fine Time.wav

     Peak level 100.0 %
     Extraction speed 4.4 X
     Track quality 100.0 %
     Test CRC 51029A04
     Copy CRC 51029A04
     Track not present in AccurateRip database
     Copy OK

Track  9

     Filename D:\zzz\Classic Rock 185- Bag of Bones\09. Warren Haynes - Hattiesburg Hustle.wav

     Peak level 99.8 %
     Extraction speed 4.8 X
     Track quality 100.0 %
     Test CRC 342A6617
     Copy CRC 342A6617
     Track not present in AccurateRip database
     Copy OK

Track 10

     Filename D:\zzz\Classic Rock 185- Bag of Bones\10. Steve Lukather - Transition.wav

     Peak level 98.8 %
     Extraction speed 4.5 X
     Track quality 99.9 %
     Test CRC 7DD44D71
     Copy CRC 7DD44D71
     Track not present in AccurateRip database
     Copy OK

Track 11

     Filename D:\zzz\Classic Rock 185- Bag of Bones\11. JJ Grey & Mofro - 99 Shades of Crazy.wav

     Peak level 99.8 %
     Extraction speed 5.0 X
     Track quality 100.0 %
     Test CRC 50D6EFA4
     Copy CRC 50D6EFA4
     Track not present in AccurateRip database
     Copy OK

Track 12

     Filename D:\zzz\Classic Rock 185- Bag of Bones\12. Robert Cray - Won't Be Coming Home.wav

     Peak level 98.8 %
     Extraction speed 5.2 X
     Track quality 100.0 %
     Test CRC 55A9CCC5
     Copy CRC 55A9CCC5
     Track not present in AccurateRip database
     Copy OK

Track 13

     Filename D:\zzz\Classic Rock 185- Bag of Bones\13. Danny Bryant - Prisoner of the Blues.wav

     Peak level 97.7 %
     Extraction speed 5.4 X
     Track quality 100.0 %
     Test CRC 1D82837F
     Copy CRC 1D82837F
     Track not present in AccurateRip database
     Copy OK

Track 14

     Filename D:\zzz\Classic Rock 185- Bag of Bones\14. Rock Candy Funk Party - The Best Ten Minutes of Your Life.wav

     Peak level 98.8 %
     Extraction speed 5.9 X
     Track quality 100.0 %
     Test CRC 92665CC5
     Copy CRC 92665CC5
     Track not present in AccurateRip database
     Copy OK

None of the tracks are present in the AccurateRip database

No errors occurred

End of status report

---- CUETools DB Plugin V2.1.3

[CTDB TOCID: i1s9WOK9zf6xv3wKVIlX1sKxcC0-] found, Submit result: i1s9WOK9zf6xv3wKVIlX1sKxcC0- has been confirmed
[65f17979] (3/3) Accurately ripped

==== Log checksum A6289D6C1A47B913A7EC15CB8616CEBA41C2FDCED337210F6141F195E8A729B2 ====
Код:
Код:
-----------------------

DON'T MODIFY THIS FILE

-----------------------

PERFORMER: auCDtect Task Manager, ver. 1.6.0 RC1 build 1.6.0.1
Copyright (c) 2008-2010 y-soft. All rights reserved
http:/y-soft.org

ANALYZER: auCDtect: CD records authenticity detector, version 0.8.2
Copyright (c) 2004 Oleg Berngardt. All rights reserved.
Copyright (c) 2004 Alexander Djourik. All rights reserved.

FILE: 14. Rock Candy Funk Party - The Best Ten Minutes of Your Life.flac
  Size: 59692175 Hash: 59F6C8F7077F55C55BDE26D67C1C9995 Accuracy: -m8
  Conclusion: CDDA 99%
  Signature: 29D02D49E33D3B8E0396D919AD2870BD41BD4F2C
FILE: 13. Danny Bryant - Prisoner of the Blues.flac
  Size: 40903129 Hash: CD5CE9490EAD71A2967B56D9275C2B3A Accuracy: -m8
  Conclusion: CDDA 100%
  Signature: CD7DADBAC142D6C12510D91A0FE756E859C82F72
FILE: 12. Robert Cray - Won't Be Coming Home.flac
  Size: 34045478 Hash: 3B1F245E1691177682ED6A003892A5D5 Accuracy: -m8
  Conclusion: CDDA 100%
  Signature: 28719C29C963112F90B1B0E5117C201795B7E639
FILE: 11. JJ Grey & Mofro - 99 Shades of Crazy.flac
  Size: 30308300 Hash: A8B0DFF183B2E270D002A71F608684FA Accuracy: -m8
  Conclusion: CDDA 100%
  Signature: CEC3DAE5CE33036A2EA3736BCB768CDEEA62CA6B
FILE: 10. Steve Lukather - Transition.flac
  Size: 36638567 Hash: 8F58D289D822BAFA8A6A473375279154 Accuracy: -m8
  Conclusion: CDDA 100%
  Signature: ECB5F1E67EE9C3592D45534B647B8B37FBC8E6BD
FILE: 09. Warren Haynes - Hattiesburg Hustle.flac
  Size: 41264776 Hash: B2EB1CEC8A64B58C04299EE662514D17 Accuracy: -m8
  Conclusion: CDDA 100%
  Signature: F945CA24D8B13378C77BEF21E9C421F43BD27761
FILE: 08. Healing Sixes - Fine Time.flac
  Size: 37036336 Hash: 5FBDBFAA89C0F3E1C012C5A8BF8A3052 Accuracy: -m8
  Conclusion: CDDA 100%
  Signature: 142CD1680A39D9A97637F04508169CE17B623B2D
FILE: 07. Beth Hart & Joe Bonamassa - I Love You More Than You'll Ever Know.flac
  Size: 47371678 Hash: B835B74390EF11532CB15ADFDA2C6FE9 Accuracy: -m8
  Conclusion: CDDA 100%
  Signature: 1345B31F22F7D172F753D38EC01E70A84C5E8F65
FILE: 06. Gov't Mule - Railroad Boy.flac
  Size: 34139915 Hash: EC406059A066C6A3A67BC9CCA8136A55 Accuracy: -m8
  Conclusion: CDDA 100%
  Signature: 9E2A151B70CD705903AD6769EC8F6EFE7321894B
FILE: 05. Don Airey - People in Your Head.flac
  Size: 38026194 Hash: F87818CA9E2E7BE6C0C732FA6B2B4ACD Accuracy: -m8
  Conclusion: CDDA 100%
  Signature: 49D88CE8E117C98507BFC70FD241C5C5DBF01FA4
FILE: 04. Walter Trout - Lonely.flac
  Size: 34703994 Hash: 8C528F1794F2F890081EA83E6B2DC278 Accuracy: -m8
  Conclusion: CDDA 100%
  Signature: E6EEA753D6E7C067B1F155A4E6A155A7551F4F79
FILE: 03. Europe - Bag of Bones.flac
  Size: 37738724 Hash: 63377417D327AEDEAC563CB384CDAE86 Accuracy: -m8
  Conclusion: MPEG 95%
  Signature: 9ACB163AF736925E053AE67652C2CAC35FBC3936
FILE: 02. Leslie West - Third Degree.flac
  Size: 39513344 Hash: 23740BD87678D11ED7B555BFDE1EFAED Accuracy: -m8
  Conclusion: CDDA 100%
  Signature: FAD97BCE3670381D2165DD5A2FB5B91110D4CAB9
FILE: 01. Devon Allman's Honeytribe - Mercy Mercy.flac
  Size: 19993506 Hash: C54BCC710E446501A4175523D205CC65 Accuracy: -m8
  Conclusion: CDDA 100%
  Signature: B9C9CA9F6D5391F319E9E4911C1819CD76967340
#777
Правила, инструкции, FAQ!!!
Торрент  Добавлен [16 мар 2014, 00:13] Скачать торрент Магнет ссылка
Скачать торрент
[ Размер 12.65 КБ / Просмотров 20 ]

Статус  
 
Размер  534.71 МБ
Приватный: Нет (DHT включён)
.torrent скачан  0
 


     Отправить личное сообщение
   
Страница 1 из 1
Показать сообщения за:  Поле сортировки  
Начать новую тему Ответить на тему


Сейчас этот форум просматривают: нет зарегистрированных пользователей и гости: 0


Вы не можете начинать темы
Вы не можете отвечать на сообщения
Вы не можете редактировать свои сообщения
Вы не можете удалять свои сообщения
Вы не можете добавлять вложения

Перейти:  
cron