Начать новую тему Ответить на тему
Статистика раздачи
Размер: 456.86 МБ | Добавлен: 16 мар 2014, 00:13 | Скачали: 0
Сидеров: 0  [0 байт/сек]    Личеров: 0  [0 байт/сек]
Пред. тема | След. тема 

Автор
Сообщение

СообщениеДобавлено: 16 мар 2014, 00:13 

Ответить с цитатой 

VA - Classic Rock #180: Ones to Watch (2013)

Год: 2013
Страна-производитель диска: EU
Издатель (лейбл): Future Publishing
Номер по каталогу #: ROC180-02-13
Жанр: Alternative Rock, Hard Rock, Electric Blues, Texas Blues
Продолжительность: 01:08:32

Кодек: FLAC (*.flac)
Битрейт: Lossless
Тип рипа: tracks+.cue
Спасибо: kirjakach

Треклист:
01. Gary Clark Jr. - Bright Lights
02. Big Wreck - Albatross
03. The Temperance Movement - Only Friend
04. Shovels & Rope - Hail Hail
05. Black Drawing Chalks - Cut Myself in 2
06. RNDM - Williamsburg
07. Crippled Black Phoenix - Hold On (So Goodbye to All of That)
08. Diagonal - Capsizing
09. The Virginmarys - Taking the Blame
10. Goldsboro - Great White Buffalo
11. Crowns - Stitches in the Flag
12. Spirit Family Reunion - I'll Find a Way
13. The Union - You're My Jesus
14. Lord Huron - Time to Run
15. Alfa 9 - Old Man Blues
Код:
Код:
Exact Audio Copy V1.0 beta 3 from 29. August 2011

EAC extraction logfile from 30. May 2013, 17:55

VA / Classic Rock #180: Ones to Watch 2013

Used drive  : ATAPI   iHAS120   X   Adapter: 6  ID: 0

Read mode               : Secure
Utilize accurate stream : Yes
Defeat audio cache      : Yes
Make use of C2 pointers : No

Read offset correction                      : 48
Overread into Lead-In and Lead-Out          : No
Fill up missing offset samples with silence : Yes
Delete leading and trailing silent blocks   : No
Null samples used in CRC calculations       : Yes
Used interface                              : Native Win32 interface for Win NT & 2000
Gap handling                                : Appended to previous track

Used output format              : User Defined Encoder
Selected bitrate                : 128 kBit/s
Quality                         : High
Add ID3 tag                     : No
Command line compressor         : C:\Program Files\Exact Audio Copy\Flac\flac.exe
Additional command line options : -V -8 -T "Genre=%genre%" -T "Artist=%artist%" -T "Title=%title%" -T "Album=%albumtitle%" -T "Date=%year%" -T "Tracknumber=%tracknr%" -T "Comment=%comment%" %source%

TOC of the extracted CD

     Track |   Start  |  Length  | Start sector | End sector
    ---------------------------------------------------------
        1  |  0:00.00 |  5:24.59 |         0    |    24358
        2  |  5:24.59 |  4:14.65 |     24359    |    43473
        3  |  9:39.49 |  4:32.29 |     43474    |    63902
        4  | 14:12.03 |  3:46.63 |     63903    |    80915
        5  | 17:58.66 |  3:37.56 |     80916    |    97246
        6  | 21:36.47 |  4:14.53 |     97247    |   116349
        7  | 25:51.25 |  6:54.20 |    116350    |   147419
        8  | 32:45.45 |  9:08.70 |    147420    |   188589
        9  | 41:54.40 |  3:33.68 |    188590    |   204632
       10  | 45:28.33 |  3:29.14 |    204633    |   220321
       11  | 48:57.47 |  2:10.02 |    220322    |   230073
       12  | 51:07.49 |  4:05.42 |    230074    |   248490
       13  | 55:13.16 |  4:13.53 |    248491    |   267518
       14  | 59:26.69 |  5:23.73 |    267519    |   291816
       15  | 64:50.67 |  3:41.56 |    291817    |   308447

Track  1

     Filename B:\Classic Rock #180- Ones to Watch 2013\01. Gary Clark Jr. - Bright Lights.wav

     Pre-gap length  0:00:02.00

     Peak level 99.6 %
     Extraction speed 2.4 X
     Track quality 100.0 %
     Test CRC 3C0AB76E
     Copy CRC 3C0AB76E
     Accurately ripped (confidence 2)  [6888B79C]  (AR v2)
     Copy OK

Track  2

     Filename B:\Classic Rock #180- Ones to Watch 2013\02. Big Wreck - Albatross.wav

     Peak level 99.6 %
     Extraction speed 2.6 X
     Track quality 100.0 %
     Test CRC A77384FB
     Copy CRC A77384FB
     Accurately ripped (confidence 2)  [0B03B20F]  (AR v2)
     Copy OK

Track  3

     Filename B:\Classic Rock #180- Ones to Watch 2013\03. The Temperance Movement - Only Friend.wav

     Peak level 99.6 %
     Extraction speed 2.9 X
     Track quality 100.0 %
     Test CRC FAE2FD85
     Copy CRC FAE2FD85
     Accurately ripped (confidence 2)  [92116E1D]  (AR v2)
     Copy OK

Track  4

     Filename B:\Classic Rock #180- Ones to Watch 2013\04. Shovels & Rope - Hail Hail.wav

     Peak level 99.6 %
     Extraction speed 3.0 X
     Track quality 100.0 %
     Test CRC B54165D2
     Copy CRC B54165D2
     Accurately ripped (confidence 2)  [1D845DB2]  (AR v2)
     Copy OK

Track  5

     Filename B:\Classic Rock #180- Ones to Watch 2013\05. Black Drawing Chalks - Cut Myself in 2.wav

     Peak level 99.6 %
     Extraction speed 3.2 X
     Track quality 100.0 %
     Test CRC 9BD207ED
     Copy CRC 9BD207ED
     Accurately ripped (confidence 2)  [3770A2DA]  (AR v2)
     Copy OK

Track  6

     Filename B:\Classic Rock #180- Ones to Watch 2013\06. RNDM - Williamsburg.wav

     Peak level 99.6 %
     Extraction speed 3.4 X
     Track quality 100.0 %
     Test CRC DD0385D1
     Copy CRC DD0385D1
     Accurately ripped (confidence 2)  [5460186D]  (AR v2)
     Copy OK

Track  7

     Filename B:\Classic Rock #180- Ones to Watch 2013\07. Crippled Black Phoenix - Hold On (So Goodbye to All of That).wav

     Peak level 99.6 %
     Extraction speed 3.8 X
     Track quality 100.0 %
     Test CRC ECEA69C7
     Copy CRC ECEA69C7
     Accurately ripped (confidence 2)  [44C07E47]  (AR v2)
     Copy OK

Track  8

     Filename B:\Classic Rock #180- Ones to Watch 2013\08. Diagonal - Capsizing.wav

     Peak level 99.6 %
     Extraction speed 4.2 X
     Track quality 100.0 %
     Test CRC 21BD5799
     Copy CRC 21BD5799
     Accurately ripped (confidence 2)  [C2F16FBB]  (AR v2)
     Copy OK

Track  9

     Filename B:\Classic Rock #180- Ones to Watch 2013\09. The Virginmarys - Taking the Blame.wav

     Peak level 100.0 %
     Extraction speed 4.1 X
     Track quality 100.0 %
     Test CRC 130EC0B6
     Copy CRC 130EC0B6
     Accurately ripped (confidence 2)  [4F09736D]  (AR v2)
     Copy OK

Track 10

     Filename B:\Classic Rock #180- Ones to Watch 2013\10. Goldsboro - Great White Buffalo.wav

     Peak level 99.6 %
     Extraction speed 4.2 X
     Track quality 100.0 %
     Test CRC BD047AC0
     Copy CRC BD047AC0
     Accurately ripped (confidence 2)  [FDE647C6]  (AR v2)
     Copy OK

Track 11

     Filename B:\Classic Rock #180- Ones to Watch 2013\11. Crowns - Stitches in the Flag.wav

     Peak level 99.6 %
     Extraction speed 3.9 X
     Track quality 100.0 %
     Test CRC 36239A6C
     Copy CRC 36239A6C
     Accurately ripped (confidence 2)  [E96DC25A]  (AR v2)
     Copy OK

Track 12

     Filename B:\Classic Rock #180- Ones to Watch 2013\12. Spirit Family Reunion - I'll Find a Way.wav

     Peak level 99.6 %
     Extraction speed 4.5 X
     Track quality 100.0 %
     Test CRC 82C6F253
     Copy CRC 82C6F253
     Accurately ripped (confidence 2)  [8846110D]  (AR v2)
     Copy OK

Track 13

     Filename B:\Classic Rock #180- Ones to Watch 2013\13. The Union - You're My Jesus.wav

     Peak level 99.6 %
     Extraction speed 4.6 X
     Track quality 100.0 %
     Test CRC 344D62D4
     Copy CRC 344D62D4
     Accurately ripped (confidence 2)  [933326A4]  (AR v2)
     Copy OK

Track 14

     Filename B:\Classic Rock #180- Ones to Watch 2013\14. Lord Huron - Time to Run.wav

     Peak level 99.6 %
     Extraction speed 4.9 X
     Track quality 100.0 %
     Test CRC 8C0D9B97
     Copy CRC 8C0D9B97
     Accurately ripped (confidence 2)  [048A2ADE]  (AR v2)
     Copy OK

Track 15

     Filename B:\Classic Rock #180- Ones to Watch 2013\15. Alfa 9 - Old Man Blues.wav

     Peak level 99.6 %
     Extraction speed 4.2 X
     Track quality 99.9 %
     Test CRC CBB2E02B
     Copy CRC CBB2E02B
     Accurately ripped (confidence 2)  [FA49D935]  (AR v2)
     Copy OK

All tracks accurately ripped

No errors occurred

End of status report

---- CUETools DB Plugin V2.1.3

[CTDB TOCID: ypYVfS38EcPUAIGM7jyY5JLYQsA-] found, Submit result: ypYVfS38EcPUAIGM7jyY5JLYQsA- has been confirmed
[205fe760] (1/1) Accurately ripped

==== Log checksum C40EE176B846F259F1107FBAA2A16C552F006608CC6A3FA3D44146C063EB49C5 ====
Код:
Код:
-----------------------

DON'T MODIFY THIS FILE

-----------------------

PERFORMER: auCDtect Task Manager, ver. 1.6.0 RC1 build 1.6.0.1
Copyright (c) 2008-2010 y-soft. All rights reserved
http:/y-soft.org

ANALYZER: auCDtect: CD records authenticity detector, version 0.8.2
Copyright (c) 2004 Oleg Berngardt. All rights reserved.
Copyright (c) 2004 Alexander Djourik. All rights reserved.

FILE: 15. Alfa 9 - Old Man Blues.flac
  Size: 26781381 Hash: F9EA250D2130EAA63C82A99D00F3CB4D Accuracy: -m0
  Conclusion: CDDA 100%
  Signature: CFB41811D833FBF48D32A821471D60A0B8011620
FILE: 14. Lord Huron - Time to Run.flac
  Size: 33760384 Hash: 35DFBDF4A4989426C3DE51D8AC8BBB09 Accuracy: -m0
  Conclusion: CDDA 100%
  Signature: 2CCFDC61A7F063745E2819892347AEB1195E3610
FILE: 13. The Union - You're My Jesus.flac
  Size: 27674004 Hash: 80293F0E0A0602C85905C6961C4DAA84 Accuracy: -m0
  Conclusion: CDDA 100%
  Signature: 60933A3C901CF62A47632E1D5082B2FB678C6ABD
FILE: 12. Spirit Family Reunion - I'll Find a Way.flac
  Size: 24502071 Hash: FF5CE138F892BB7CE66F96029C997FD5 Accuracy: -m0
  Conclusion: CDDA 100%
  Signature: 22A20EEE1071E3FF20B3F4401B50CB752EA0D21E
FILE: 11. Crowns - Stitches in the Flag.flac
  Size: 16487326 Hash: 5F3D84923E947F6D4A3C1A1450AF2619 Accuracy: -m0
  Conclusion: CDDA 100%
  Signature: D3FFBDE8FDFE4DFC4C5FFE130CAAD0239BDE523A
FILE: 10. Goldsboro - Great White Buffalo.flac
  Size: 25801322 Hash: 4C9AE8BB4B8E427A70C1AB5A17E8069D Accuracy: -m0
  Conclusion: CDDA 100%
  Signature: 9F0384171D5832F5C385590796AF7E92EBB87227
FILE: 09. The Virginmarys - Taking the Blame.flac
  Size: 26115026 Hash: FB802EFF92A95D1AB5F3FF82ECAAF3FE Accuracy: -m0
  Conclusion: CDDA 99%
  Signature: FD1E916877D7945C98D8E551A92723E6340DBD3D
FILE: 08. Diagonal - Capsizing.flac
  Size: 57748357 Hash: 6965FEC6BE597C36A72612C39DB0E884 Accuracy: -m0
  Conclusion: MPEG 95%
  Signature: 0A51C4124A49E178B22C204D61052F7FA0E448EB
FILE: 07. Crippled Black Phoenix - Hold On (So Goodbye to All of That).flac
  Size: 45441914 Hash: 4CDF7779545568132BD0B7346F84D692 Accuracy: -m0
  Conclusion: CDDA 100%
  Signature: EB1DE7D0D6003AFBECFA9551BD2EE141B8ECECE1
FILE: 06. RNDM - Williamsburg.flac
  Size: 25850635 Hash: F0BF7B2A0C7AB41ED33D42F0286C3CBA Accuracy: -m0
  Conclusion: CDDA 100%
  Signature: DC46CCAA8F49A296A6D71EAB71FAA89665567451
FILE: 05. Black Drawing Chalks - Cut Myself in 2.flac
  Size: 26607283 Hash: A3201F811F59A058AFC8F7D932FDF041 Accuracy: -m0
  Conclusion: CDDA 100%
  Signature: F2915FB1116D4BC4F171B1DC4BDA4AF15FE22E68
FILE: 04. Shovels & Rope - Hail Hail.flac
  Size: 28075540 Hash: AFF1069CF751E53F6A450800F323815C Accuracy: -m0
  Conclusion: CDDA 100%
  Signature: F44FADD05C84AA7C64035FC56118E501BB478ADC
FILE: 03. The Temperance Movement - Only Friend.flac
  Size: 29184616 Hash: 781936CCB95B3C96357A52B981C4D95C Accuracy: -m0
  Conclusion: CDDA 100%
  Signature: 8673AEF12A57F47F9D21012A403077CE70DF967F
FILE: 02. Big Wreck - Albatross.flac
  Size: 31340687 Hash: 7E9B57C168ED8AC95A98009A7F2875A1 Accuracy: -m0
  Conclusion: CDDA 100%
  Signature: DFB28DD9D5F2CF8713902B29EC0C26B446108525
FILE: 01. Gary Clark Jr. - Bright Lights.flac
  Size: 40694450 Hash: 19119B4731C7B2BAEEC01D739DAE14E6 Accuracy: -m0
  Conclusion: CDDA 100%
  Signature: 2145D31ADE923F4D9DD58DF1DDCB44353E788120
Правила, инструкции, FAQ!!!
Торрент  Добавлен [16 мар 2014, 00:13] Скачать торрент Магнет ссылка
Скачать торрент
[ Размер 20.02 КБ / Просмотров 32 ]

Статус  
 
Размер  456.86 МБ
Приватный: Нет (DHT включён)
.torrent скачан  0
 


     Отправить личное сообщение
   
Страница 1 из 1
Показать сообщения за:  Поле сортировки  
Начать новую тему Ответить на тему


Сейчас этот форум просматривают: нет зарегистрированных пользователей и гости: 0


Вы не можете начинать темы
Вы не можете отвечать на сообщения
Вы не можете редактировать свои сообщения
Вы не можете удалять свои сообщения
Вы не можете добавлять вложения

Перейти:  
cron
cron