Начать новую тему Ответить на тему
Статистика раздачи
Размер: 348.2 МБ | Добавлен: 16 мар 2014, 00:04 | Скачали: 0
Сидеров: 1  [0 байт/сек]    Личеров: 0  [0 байт/сек]
Пред. тема | След. тема 

Автор
Сообщение

СообщениеДобавлено: 16 мар 2014, 00:04 

Ответить с цитатой 

VA - A Tribute to Queen - Tie Your Mix Down (2000)

Год: 2000
Жанр: Rock
Продолжительность: 00:50:06
Лейбл: Cleopatra
Каталог: CLP0790-2

Кодек: APE (image+.cue + log)
Битрейт: Lossless

Треклист:
01. Lemmy/Ted Nugent - Tie Your Mother Down (Die Krupps Remix) (3:44)
02. James LaBrie/Marty Friedman - Sheer Heart Attack (Chemical Whore Remix) (3:43)
03. Adam Paskowitz/Doug Aldrich - Another One Bites The Dust (Meeks Remix) (3:48)
04. Red Beach/Mark Boals - eep Yourself Alive (Sigue Sigue Sputnik Remix) (4:42)
05. Jeff Scott Soto/Bruce Kulick - Save Me (Interface Remix) (4:12)
06. Glenn Hughes/Jake E. Lee/Bob Kulick - Get Down Make Love (Die Krupps Remix) (3:52)
07. Paul Shortino/Robby Krieger - We Are The Champions (Rosetta Stone Remix) (4:01)
08. Robin McAuley/Mitch Perry - I Want It All (Julian Beeston Remix) (4:51)
09. Paul Shortino/Bob Kulick - We Will Rock You (KMFDM Remix) (4:59)
10. John Bush/Scott Ian/Zachary Throne - It's Late (Sheep On Drugs Remix) (4:03)
11. James LaBrie/Bruce Bouillet/Bob Kulick - One Vision (Spahn Ranch Remix) (4:23)
12. Bang Tango - Killer Queen (System Effect Remix) (3:51)
Код:
Код:
Exact Audio Copy V0.99 prebeta 4 from 23. January 2008

EAC extraction logfile from 19. April 2009, 16:12

Various / A Tribute to Queen: Tie Your Mix Down

Used drive  : Optiarc DVD RW AD-7173A   Adapter: 3  ID: 0

Read mode               : Secure
Utilize accurate stream : Yes
Defeat audio cache      : Yes
Make use of C2 pointers : No

Read offset correction                      : 48
Overread into Lead-In and Lead-Out          : No
Fill up missing offset samples with silence : Yes
Delete leading and trailing silent blocks   : No
Null samples used in CRC calculations       : Yes
Used interface                              : Native Win32 interface for Win NT & 2000

Used output format : Internal WAV Routines
Sample format      : 44.100 Hz; 16 Bit; Stereo

TOC of the extracted CD

     Track |   Start  |  Length  | Start sector | End sector
    ---------------------------------------------------------
        1  |  0:00.00 |  3:43.40 |         0    |    16764
        2  |  3:43.40 |  3:42.48 |     16765    |    33462
        3  |  7:26.13 |  3:47.41 |     33463    |    50528
        4  | 11:13.54 |  4:41.50 |     50529    |    71653
        5  | 15:55.29 |  4:11.39 |     71654    |    90517
        6  | 20:06.68 |  3:52.13 |     90518    |   107930
        7  | 23:59.06 |  4:01.24 |    107931    |   126029
        8  | 28:00.30 |  4:50.39 |    126030    |   147818
        9  | 32:50.69 |  4:58.38 |    147819    |   170206
       10  | 37:49.32 |  4:02.47 |    170207    |   188403
       11  | 41:52.04 |  4:22.45 |    188404    |   208098
       12  | 46:14.49 |  3:51.12 |    208099    |   225435

Range status and errors

Selected range

     Filename C:\Documents and Settings\Юрий\Рабочий стол\Новая папка 1\Various Artistds -A Tribute to Queen Tie Your Mix Down\Various - A Tribute to Queen  Tie Your Mix Down.wav

     Peak level 99.8 %
     Range quality 100.0 %
     Copy CRC 5131261B
     Copy OK

No errors occurred

AccurateRip summary

Track  1  cannot be verified as accurate (confidence 1)  [BE284944], AccurateRip returned [48A8F82B]
Track  2  cannot be verified as accurate (confidence 1)  [3A6856EB], AccurateRip returned [DD4930F7]
Track  3  cannot be verified as accurate (confidence 1)  [7EA9F3C4], AccurateRip returned [CDFB4609]
Track  4  cannot be verified as accurate (confidence 1)  [5996EB69], AccurateRip returned [F144FD8B]
Track  5  cannot be verified as accurate (confidence 1)  [F44BB814], AccurateRip returned [BBB43D1C]
Track  6  cannot be verified as accurate (confidence 1)  [AF43081C], AccurateRip returned [8C2E2806]
Track  7  cannot be verified as accurate (confidence 1)  [41290185], AccurateRip returned [588E18BA]
Track  8  cannot be verified as accurate (confidence 1)  [5009A477], AccurateRip returned [02326CB5]
Track  9  cannot be verified as accurate (confidence 1)  [24B880E8], AccurateRip returned [716A677F]
Track 10  cannot be verified as accurate (confidence 1)  [1159BA8A], AccurateRip returned [AFD3F466]
Track 11  cannot be verified as accurate (confidence 1)  [544BC53D], AccurateRip returned [CE5FD2A2]
Track 12  cannot be verified as accurate (confidence 1)  [CE91F77E], AccurateRip returned [7719A009]

No tracks could be verified as accurate
You may have a different pressing from the one(s) in the database

End of status report
Код:
Код:
-----------------------

DON'T MODIFY THIS FILE

-----------------------

PERFORMER: auCDtect Task Manager, ver. 1.5.1RC6 build 1.5.1.7
Copyright (c) 2008-2010 y-soft. All rights reserved
http:/y-soft.org

ANALYZER: auCDtect: CD records authenticity detector, version 0.8.2
Copyright (c) 2004 Oleg Berngardt. All rights reserved.
Copyright (c) 2004 Alexander Djourik. All rights reserved.

FILE: Various - A Tribute to Queen  Tie Your Mix Down.ape
  Size: 360083968 Hash: D4DBA780B14438DBB6653DF1CE34AC52 Accuracy: -m8
  Conclusion: CDDA 100%
  Signature: DF8076C1BDE27EAAB2FAF8743DB75E230B9CA274
Правила, инструкции, FAQ!!!
Торрент  Добавлен [16 мар 2014, 00:04] Скачать торрент Магнет ссылка
Скачать торрент
[ Размер 14.84 КБ / Просмотров 23 ]

Статус  
 
Размер  348.2 МБ
Приватный: Нет (DHT включён)
.torrent скачан  0
 


     Отправить личное сообщение
   
Страница 1 из 1
Показать сообщения за:  Поле сортировки  
Начать новую тему Ответить на тему


Сейчас этот форум просматривают: нет зарегистрированных пользователей и гости: 0


Вы не можете начинать темы
Вы не можете отвечать на сообщения
Вы не можете редактировать свои сообщения
Вы не можете удалять свои сообщения
Вы не можете добавлять вложения

Перейти:  
cron