Начать новую тему Ответить на тему
Статистика раздачи
Размер: 269.75 МБ | Добавлен: 16 мар 2014, 00:20 | Скачали: 4
Сидеров: 5  [0 байт/сек]    Личеров: 2  [0 байт/сек]
Пред. тема | След. тема 

Автор
Сообщение

СообщениеДобавлено: 16 мар 2014, 00:20 

Ответить с цитатой 

V.A. - Beatles Meets Queen (2012)

Лейбл: Ultra-Vybe, Inc.
Каталог: OTCD-2840
Год: 2012
Жанр: Indie Rock, Pop Rock
Продолжительность: 00:39:05

Кодек: FLAC (image+.cue)
Битрейт: Lossless

Треклист:
01. Bohemian Rhapsody
02. We Will Rock You
03. Don't Stop Me Now
04. Radio Ga Ga
05. We Are The Champions
06. Killer Queen
07. Crazy Little Thing Called Love
08. Bicycle Race
09. You're My Best Friend
10. These Are The Days Of Our Lives
11. Somebody To Love
Bass - Steve Pettinger
Drums - Danny Morgan
Guitar - James Fairchild, Leland Orr
Keyboards - Miles Davenport
Lead Vocals - James Fairchild
Vocals - Leland Orr, Miles Davenport, Steve Pettinger
Код:
Код:
Exact Audio Copy V1.0 beta 3 from 29. August 2011

Отчёт EAC об извлечении, выполненном 6. декабря 2013, 22:39

Various Artists / Beatles meets Queen

Дисковод: Optiarc DVD RW AD-7260S   Adapter: 3  ID: 0

Режим чтения                 : Достоверность
Использование точного потока : Да
Отключение кэша аудио        : Да
Использование указателей C2  : Нет

Коррекция смещения при чтении                     : 48
Способность читать области Lead-in и Lead-out     : Нет
Заполнение пропущенных сэмплов тишиной            : Да
Удаление блоков с тишиной в начале и конце        : Нет
При вычислениях CRC использовались нулевые сэмплы : Да
Интерфейс                                         : Встроенный Win32-интерфейс для Win NT/2000

Выходной формат          : Пользовательский кодировщик
Выбранный битрейт        : 896 kBit/s
Качество                 : Высокий
Добавление ID3-тега      : Да
Утилита сжатия           : C:\Program Files\Exact Audio Copy\Flac\flac.exe
Дополнительные параметры : -V -8 -T "Genre=%genre%" -T "Artist=%artist%" -T "Title=%title%" -T "Album=%albumtitle%" -T "Date=%year%" -T "Tracknumber=%tracknr%" -T "Comment=%comment%" %source%

TOC извлечённого CD

     Трек |   Старт  | Длительность | Начальный сектор | Конечный сектор
    ---------------------------------------------------------------------
       1  |  0:00.00 |    5:19.24   |           0      |      23948
       2  |  5:19.24 |    2:19.42   |       23949      |      34415
       3  |  7:38.66 |    3:27.37   |       34416      |      49977
       4  | 11:06.28 |    4:13.22   |       49978      |      68974
       5  | 15:19.50 |    2:57.30   |       68975      |      82279
       6  | 18:17.05 |    3:31.70   |       82280      |      98174
       7  | 21:49.00 |    2:43.58   |       98175      |     110457
       8  | 24:32.58 |    3:13.25   |      110458      |     124957
       9  | 27:46.08 |    3:24.22   |      124958      |     140279
      10  | 31:10.30 |    4:04.50   |      140280      |     158629
      11  | 35:15.05 |    3:49.55   |      158630      |     175859

Характеристики диапазона извлечения и сообщения об ошибках

Выбранный диапазон

     Имя файла M:\Раздачи\Beatles meets Queen - 2012 Flac\Various Artists - Beatles meets Queen.wav

     Пиковый уровень 98.4 %
     Скорость извлечения 3.6 X
     Качество диапазона 100.0 %
     CRC теста CF68BBEF
     CRC копии CF68BBEF
     Копирование... OK

Ошибок не произошло

AccurateRip: сводка

Трек  1  : извлечено точно (доверие 1)  [F0E4F00F]  (AR v2)
Трек  2  : извлечено точно (доверие 1)  [26DA8F81]  (AR v2)
Трек  3  : извлечено точно (доверие 1)  [1A5E109F]  (AR v2)
Трек  4  : извлечено точно (доверие 1)  [E0271196]  (AR v2)
Трек  5  : извлечено точно (доверие 1)  [5D891552]  (AR v2)
Трек  6  : извлечено точно (доверие 1)  [58E2C7BC]  (AR v2)
Трек  7  : извлечено точно (доверие 1)  [564551A6]  (AR v2)
Трек  8  : извлечено точно (доверие 1)  [FD8E66B5]  (AR v2)
Трек  9  : извлечено точно (доверие 1)  [64918518]  (AR v2)
Трек 10  : извлечено точно (доверие 1)  [F7A212ED]  (AR v2)
Трек 11  : извлечено точно (доверие 1)  [06A27198]  (AR v2)

Все треки извлечены точно

Конец отчёта
Код:
Код:
-----------------------

DON'T MODIFY THIS FILE

-----------------------

PERFORMER: auCDtect Task Manager, ver. 1.5.1RC4 build 1.5.1.5
Copyright (c) 2008-2010 y-soft. All rights reserved
http:/y-soft.org

ANALYZER: auCDtect: CD records authenticity detector, version 0.8.2
Copyright (c) 2004 Oleg Berngardt. All rights reserved.
Copyright (c) 2004 Alexander Djourik. All rights reserved.

FILE: Various Artists - Beatles meets Queen.flac
  Size: 282789064 Hash: 36A4E88B6D04D4FBDA4A4F871A570407 Accuracy: -m0
  Conclusion: MPEG 95%
  Signature: FBEFD80189D895C1AE6EDE36AD810908B6367EFC

Код:
Код:
REM GENRE Rock
REM DATE 2012
REM DISCID 8D09280B
REM COMMENT "ExactAudioCopy v1.0b3"
PERFORMER "Various Artists"
TITLE "Beatles meets Queen"
FILE "Various Artists - Beatles meets Queen.flac" WAVE
  TRACK 01 AUDIO
    TITLE "Bohemian Rhapsody"
    PERFORMER "Various Artists"
    INDEX 01 00:00:00
  TRACK 02 AUDIO
    TITLE "We Will Rock You"
    PERFORMER "Various Artists"
    INDEX 01 05:19:24
  TRACK 03 AUDIO
    TITLE "Don’t Stop Me Now"
    PERFORMER "Various Artists"
    INDEX 01 07:38:66
  TRACK 04 AUDIO
    TITLE "Radio Ga Ga"
    PERFORMER "Various Artists"
    INDEX 01 11:06:28
  TRACK 05 AUDIO
    TITLE "We Are The Champions"
    PERFORMER "Various Artists"
    INDEX 01 15:19:50
  TRACK 06 AUDIO
    TITLE "Killer Queen"
    PERFORMER "Various Artists"
    INDEX 01 18:17:05
  TRACK 07 AUDIO
    TITLE "Crazy Little Thing Called Love"
    PERFORMER "Various Artists"
    INDEX 01 21:49:00
  TRACK 08 AUDIO
    TITLE "Bicycle Race"
    PERFORMER "Various Artists"
    INDEX 01 24:32:58
  TRACK 09 AUDIO
    TITLE "You’re My Best Friend"
    PERFORMER "Various Artists"
    INDEX 01 27:46:08
  TRACK 10 AUDIO
    TITLE "These Are The Days Of Our Lives"
    PERFORMER "Various Artists"
    INDEX 01 31:10:30
  TRACK 11 AUDIO
    TITLE "Somebody To Love"
    PERFORMER "Various Artists"
    INDEX 01 35:15:05
Спасибо nik123456rrrrrrrrrrrrrrrr
Правила, инструкции, FAQ!!!
Торрент  Добавлен [16 мар 2014, 00:20] Скачать торрент Магнет ссылка
Скачать торрент
[ Размер 11.56 КБ / Просмотров 30 ]

Статус  
 
Размер  269.75 МБ
Приватный: Нет (DHT включён)
.torrent скачан  4
 


     Отправить личное сообщение
   
Страница 1 из 1
Показать сообщения за:  Поле сортировки  
Начать новую тему Ответить на тему


Сейчас этот форум просматривают: нет зарегистрированных пользователей и гости: 0


Вы не можете начинать темы
Вы не можете отвечать на сообщения
Вы не можете редактировать свои сообщения
Вы не можете удалять свои сообщения
Вы не можете добавлять вложения

Перейти:  
cron