Начать новую тему Ответить на тему
Статистика раздачи
Размер: 365.06 МБ | Добавлен: 18 апр 2019, 20:44 | Скачали: 1
Сидеров: 6  [0 байт/сек]    Личеров: 32  [0 байт/сек]
Пред. тема | След. тема 

Автор
Сообщение

СообщениеДобавлено: 18 апр 2019, 20:44 

Ответить с цитатой 

#777VA - Шлягери ХХ Століття - Пісні про кохання
Часть 1
Жанр: Украинская эстрада
Год выпуска диска: 2001
Производитель диска: Украина, NAC CD 051/1
Аудио кодек: mp3
Тип рипа: tracks (EAC - CUETools_2.0.2_x86)
Битрейт аудио: 320 kbps
Продолжительность: 1:13:01.066
#7771. Дмитро Гнатюк - Очі Волошкові (4:00)
2. Лілія Сандулеса - Білі Нарцизи (3:22)
3. Олег Москаленко, Руслан Квінта - А Ми У Двох (3:19)
4. Ольга Макаренко - Любов Останньою Ніколи Не Буває (5:15)
5. Віталій Білоножко - Половина Саду (3:02)
6. Ольга Полякова - Балада Про Мальви (4:27)
7. Алла Кудлай - Коханка (3:58)
8. Раїса Кириченко - Жіноча Доля (4:32)
9. Іво Бобул - Розмова З Тобою (3:28)
10. Тріо Маренич - Тиша Навкруги (2:50)
11. Тетянна Луканова - Нам Співає Весна (3:50)
12. Віктор Шпортько - Гуцулка Ксеня (3:26)
13. Лілія Сандулеса - Липи Цвітуть (3:46)
14. Павло Дворський - Нехай Тобі Розкаже Дощ (4:00)
15. Олександр Тищенко - Пріма-Балеріна (3:53)
16. Іван Попович - Розлук Не Буде (4:23)
17. Ауріка Ротару - Котики Вербові (3:18)
18. Роман Копов - Чорна Лебідь, Лебідь Біла (4:00)
19. Павло Зібров - Білий Цвіт На Калині (4:04)
#777#777
Код:
Код:
Exact Audio Copy V0.99 prebeta 5 from 4. May 2009
Отчёт EAC об извлечении, выполненном 13. июня 2009, 9:50
Шлягери ХХ Століття / Пісні про кохання ч.1
Дисковод: ASUS    CRW-5232AS   Adapter: 3  ID: 0
Режим чтения                 : Достоверность
Использование точного потока : Да
Отключение кэша аудио        : Да
Использование указателей C2  : Нет
Коррекция смещения при чтении                     : 6
Способность читать области Lead-in и Lead-out     : Нет
Заполнение пропущенных сэмплов тишиной            : Да
Удаление блоков с тишиной в начале и конце        : Нет
При вычислениях CRC использовались нулевые сэмплы : Да
Интерфейс                                         : Установленный внешний ASPI-интерфейс
Выходной формат          : Пользовательский кодировщик
Выбранный битрейт        : 1024 kBit/s
Качество                 : Высокий
Добавление ID3-тэга      : Нет
Утилита сжатия           : C:\Program Files\Exact Audio Copy-0.99pb5\wavpack.exe
Дополнительные параметры : -w "Track=%n" -w "Title=%t" -w "Artist=%a" -w "Album=%g" -w "Year=%y" -w "Genre=%m" -hh -m -x1 %s %d
TOC извлечённого CD
     Трек |   Старт  | Длительность | Начальный сектор | Конечный сектор
    ---------------------------------------------------------------------
       1  |  0:00.00 |    4:00.12   |           0      |      18011
       2  |  4:00.12 |    3:22.73   |       18012      |      33234
       3  |  7:23.10 |    3:19.09   |       33235      |      48168
       4  | 10:42.19 |    5:15.04   |       48169      |      71797
       5  | 15:57.23 |    3:02.31   |       71798      |      85478
       6  | 18:59.54 |    4:27.36   |       85479      |     105539
       7  | 23:27.15 |    3:58.10   |      105540      |     123399
       8  | 27:25.25 |    4:32.48   |      123400      |     143847
       9  | 31:57.73 |    3:28.41   |      143848      |     159488
      10  | 35:26.39 |    2:50.40   |      159489      |     172278
      11  | 38:17.04 |    3:50.04   |      172279      |     189532
      12  | 42:07.08 |    3:26.07   |      189533      |     204989
      13  | 45:33.15 |    3:46.38   |      204990      |     221977
      14  | 49:19.53 |    4:00.66   |      221978      |     240043
      15  | 53:20.44 |    3:53.50   |      240044      |     257568
      16  | 57:14.19 |    4:23.08   |      257569      |     277301
      17  | 61:37.27 |    3:18.48   |      277302      |     292199
      18  | 64:56.00 |    4:00.10   |      292200      |     310209
      19  | 68:56.10 |    4:04.70   |      310210      |     328579
Характеристики диапазона извлечения и сообщения об ошибках
Выбранный диапазон
     Имя файла N:\Шлягери ХХ Століття - Пісні про кохання\Шлягери ХХ Століття - Пісні про кохання ч.1\Шлягери ХХ Століття - Пісні про кохання ч.1.wav
     Пиковый уровень 100.0 %
     Качество диапазона 100.0 %
     CRC теста 5A2BA993
     CRC копии 5A2BA993
     Копирование... OK
Ошибок не произошло
AccurateRip: сводка
Трек  1  нет в базе данных
Трек  2  нет в базе данных
Трек  3  нет в базе данных
Трек  4  нет в базе данных
Трек  5  нет в базе данных
Трек  6  нет в базе данных
Трек  7  нет в базе данных
Трек  8  нет в базе данных
Трек  9  нет в базе данных
Трек 10  нет в базе данных
Трек 11  нет в базе данных
Трек 12  нет в базе данных
Трек 13  нет в базе данных
Трек 14  нет в базе данных
Трек 15  нет в базе данных
Трек 16  нет в базе данных
Трек 17  нет в базе данных
Трек 18  нет в базе данных
Трек 19  нет в базе данных
Ни одного трека нет в базе AccurateRip
Конец отчёта


#777Шлягери ХХ Століття - Пісні про кохання
Часть 2
Жанр: Украинская эстрада
Год выпуска диска: 2001
Производитель диска: Украина, NAC CD 051/2
Аудио кодек: mp3
Тип рипа: tracks (EAC - CUETools_2.0.2_x86)
Битрейт аудио: 320 kbps
Продолжительность: 1:14:37.746
#7771. Ніна Матвієнко - Чарівна Скрипка (5:07)
2. Лілія Сандулеса - Несу Свій Хрест (5:08)
3. Дмитро Гнатюк - Летять Ніби Чайки (3:37)
4. Павло Дворський - Срібні Очі (4:03)
5. Світлана Та Віталій Білоножки - Мелодія Двох Сердець (4:36)
6. Дмитро Гнатюк - Квітка З Полонини (6:02)
7. Ніна Шестакова - Коханий (3:58)
8. Люда Григоренко - Карпатські Квіти (3:51)
9. Віктор Шпортько - Впали Роси На Покоси (3:21)
10. Лілія Сандулеса, Іво Бобул - Берег Любові (4:55)
11. Вячеслав Хурсенко - Сповідь (3:58)
12. Алла Кудлай, Юрій Рибчинський - Три Поради (3:32)
13. Віктор Павлік - Ти Подобаєшся Мені (4:56)
14. Іво Бобул - Небеса Очей Твоїх (4:27)
15. Оксан Пекун - Попурі (5:26)
16. Дмитро Яремчук - Два Кольори (3:49)
17. Павло Мрежук - Якщо Поруч Ти (3:43)
#777#777
Код:
Код:
Exact Audio Copy V0.99 prebeta 5 from 4. May 2009
Отчёт EAC об извлечении, выполненном 13. июня 2009, 10:38
Шлагери ХХ Століття / Пісні про кохання - ч.2
Дисковод: ASUS    CRW-5232AS   Adapter: 3  ID: 0
Режим чтения                 : Достоверность
Использование точного потока : Да
Отключение кэша аудио        : Да
Использование указателей C2  : Нет
Коррекция смещения при чтении                     : 6
Способность читать области Lead-in и Lead-out     : Нет
Заполнение пропущенных сэмплов тишиной            : Да
Удаление блоков с тишиной в начале и конце        : Нет
При вычислениях CRC использовались нулевые сэмплы : Да
Интерфейс                                         : Установленный внешний ASPI-интерфейс
Выходной формат          : Пользовательский кодировщик
Выбранный битрейт        : 1024 kBit/s
Качество                 : Высокий
Добавление ID3-тэга      : Нет
Утилита сжатия           : C:\Program Files\Exact Audio Copy-0.99pb5\wavpack.exe
Дополнительные параметры : -w "Track=%n" -w "Title=%t" -w "Artist=%a" -w "Album=%g" -w "Year=%y" -w "Genre=%m" -hh -m -x1 %s %d
TOC извлечённого CD
     Трек |   Старт  | Длительность | Начальный сектор | Конечный сектор
    ---------------------------------------------------------------------
       1  |  0:00.00 |    5:07.47   |           0      |      23071
       2  |  5:07.47 |    5:08.28   |       23072      |      46199
       3  | 10:16.00 |    3:37.52   |       46200      |      62526
       4  | 13:53.52 |    4:03.18   |       62527      |      80769
       5  | 17:56.70 |    4:36.08   |       80770      |     101477
       6  | 22:33.03 |    6:02.22   |      101478      |     128649
       7  | 28:35.25 |    3:58.56   |      128650      |     146555
       8  | 32:34.06 |    3:51.03   |      146556      |     163883
       9  | 36:25.09 |    3:21.49   |      163884      |     179007
      10  | 39:46.58 |    4:55.65   |      179008      |     201197
      11  | 44:42.48 |    3:58.52   |      201198      |     219099
      12  | 48:41.25 |    3:32.60   |      219100      |     235059
      13  | 52:14.10 |    4:56.67   |      235060      |     257326
      14  | 57:11.02 |    4:27.23   |      257327      |     277374
      15  | 61:38.25 |    5:26.12   |      277375      |     301836
      16  | 67:04.37 |    3:49.26   |      301837      |     319037
      17  | 70:53.63 |    3:43.68   |      319038      |     335830
Характеристики диапазона извлечения и сообщения об ошибках
Выбранный диапазон
     Имя файла N:\Шлягери ХХ Століття - Пісні про кохання\Шлагери ХХ Століття - Пісні про кохання - ч.2\Шлагери ХХ Століття - Пісні про кохання - ч.2.wav
     Пиковый уровень 100.0 %
     Качество диапазона 100.0 %
     CRC теста 2F3B8A4E
     CRC копии 2F3B8A4E
     Копирование... OK
Ошибок не произошло
AccurateRip: сводка
Трек  1  нет в базе данных
Трек  2  нет в базе данных
Трек  3  нет в базе данных
Трек  4  нет в базе данных
Трек  5  нет в базе данных
Трек  6  нет в базе данных
Трек  7  нет в базе данных
Трек  8  нет в базе данных
Трек  9  нет в базе данных
Трек 10  нет в базе данных
Трек 11  нет в базе данных
Трек 12  нет в базе данных
Трек 13  нет в базе данных
Трек 14  нет в базе данных
Трек 15  нет в базе данных
Трек 16  нет в базе данных
Трек 17  нет в базе данных
Ни одного трека нет в базе AccurateRip
Конец отчёта


Открыто по просьбе
Україна - Шлягери ХХ Століття (2 CD) - 2001, WAVPack
Шлягери ХХ Століття - Пісні про кохання (2 CD) - 2001, WAVPack
Києве мiй - 2006, WAVPack
Правила, инструкции, FAQ!!!
Торрент  Добавлен [18 апр 2019, 20:44] Скачать торрент Магнет ссылка
Скачать торрент
[ Размер 20 КБ / Просмотров 16 ]

Статус
Проверен 
 
Размер  365.06 МБ
Приватный: Нет (DHT включён)
.torrent скачан  1
 


     Отправить личное сообщение
   
Страница 1 из 1
Показать сообщения за:  Поле сортировки  
Начать новую тему Ответить на тему


Сейчас этот форум просматривают: нет зарегистрированных пользователей и гости: 0


Вы не можете начинать темы
Вы не можете отвечать на сообщения
Вы не можете редактировать свои сообщения
Вы не можете удалять свои сообщения
Вы не можете добавлять вложения

Перейти:  
cron
cron