Начать новую тему Ответить на тему
Статистика раздачи
Размер: 1.04 ГБ | Добавлен: 16 мар 2014, 00:49 | Скачали: 5
Сидеров: 10  [0 байт/сек]    Личеров: 2  [0 байт/сек]
Пред. тема | След. тема 

Автор
Сообщение

СообщениеДобавлено: 16 мар 2014, 00:49 

Ответить с цитатой 

U2 - THE BEST OF 1990-2000 & B-SIDES (2CD) (2002)

Год: 2002
Жанр: Rock / Post-Punk / Alternative Rock
Продолжительность: 01:16:27 + 01:13:52
Издатель (Лейбл): Universal Music / ISLAND
Номер по каталогу: UICI-9003
Кодек: FLAC
Битрейт: Lossless
01. «Even Better Than the Real Thing» 03:42
02. «Mysterious Ways» 04:03
03. «Beautiful Day» 04:08
04. «Electrical Storm» (William Orbit Mix) – New Song 04:40
05. «One» 04:35
06. «Miss Sarajevo» 04:33
07. «Stay (Faraway, So Close!)» 04:59
08. «Stuck in a Moment You Can't Get Out Of» 04:35
09. «Gone» (New Mix) 04:34
10. «Until the End of the World» 04:41
11. «The Hands That Built America» (Theme from 'Gangs of New York') – New Song 04:59
12. «Discothèque» (New Mix) 04:42
13. «Hold Me, Thrill Me, Kiss Me, Kill Me» 04:45
14. «Staring at the Sun» (New Mix) 04:50
15. «Numb» (New Mix) 04:24
16. «The First Time» 03:50
17. «The Fly» 04:28
01. «Lady with the Spinning Head» (Extended Dance Mix) 06:08
02. «Dirty Day» (Junk Day Mix) 04:42
03. «Summer Rain» 04:08
04. «Electrical Storm» 04:26
05. «North and South of the River» 04:38
06. «Your Blue Room» 05:29
07. «Happiness Is a Warm Gun» (The Gun Mix) 04:48
08. «Salomé» (Zooromancer Remix) 05:52
09. «Even Better Than the Real Thing» (The Perfecto Mix) 06:40
10. «Numb» (Gimme Some More Dignity Mix) 05:51
11. «Mysterious Ways» (Solar Plexus Club Mix) 04:11
12. «If God Will Send His Angels» (Big Yam Mix) 05:43
13. «Lemon» (Jeep Mix) 05:31
14. «Discothèque» (Hexidecimal Mix) 05:45
Код:
Код:
Exact Audio Copy V1.0 beta 2 from 29. April 2011

EAC extraction logfile from 11. November 2011, 14:43

U2 / THE BEST OF 1990-2000

Used drive  : ASUS    DRW-1814BLT   Adapter: 0  ID: 1

Read mode               : Secure
Utilize accurate stream : Yes
Defeat audio cache      : Yes
Make use of C2 pointers : No

Read offset correction                      : 6
Overread into Lead-In and Lead-Out          : No
Fill up missing offset samples with silence : Yes
Delete leading and trailing silent blocks   : No
Null samples used in CRC calculations       : Yes
Used interface                              : Native Win32 interface for Win NT & 2000
Gap handling                                : Appended to previous track

Used output format              : User Defined Encoder
Selected bitrate                : 128 kBit/s
Quality                         : High
Add ID3 tag                     : No
Command line compressor         : C:\Program Files (x86)\Exact Audio Copy\Flac\flac.exe
Additional command line options : -V -8 -T "Genre=%genre%" -T "Artist=%artist%" -T "Title=%title%" -T "Album=%albumtitle%" -T "Date=%year%" -T "Tracknumber=%tracknr%" -T "Comment=%comment%" %source%

TOC of the extracted CD

     Track |   Start  |  Length  | Start sector | End sector
    ---------------------------------------------------------
        1  |  0:00.00 |  3:41.65 |         0    |    16639
        2  |  3:41.65 |  4:03.18 |     16640    |    34882
        3  |  7:45.08 |  4:08.02 |     34883    |    53484
        4  | 11:53.10 |  4:39.68 |     53485    |    74477
        5  | 16:33.03 |  4:35.32 |     74478    |    95134
        6  | 21:08.35 |  4:32.48 |     95135    |   115582
        7  | 25:41.08 |  4:59.05 |    115583    |   138012
        8  | 30:40.13 |  4:34.55 |    138013    |   158617
        9  | 35:14.68 |  4:34.20 |    158618    |   179187
       10  | 39:49.13 |  4:40.50 |    179188    |   200237
       11  | 44:29.63 |  4:58.67 |    200238    |   222654
       12  | 49:28.55 |  4:42.20 |    222655    |   243824
       13  | 54:11.00 |  4:45.13 |    243825    |   265212
       14  | 58:56.13 |  4:49.45 |    265213    |   286932
       15  | 63:45.58 |  4:23.40 |    286933    |   306697
       16  | 68:09.23 |  3:50.02 |    306698    |   323949
       17  | 71:59.25 |  4:28.10 |    323950    |   344059

Track  1

     Filename F:\=MUSIC=\U2 Discography\Albums Compilation\U2 - 2002 - THE BEST OF 1990-2000 & B-SIDES (2CD Japan)\CD1 (THE BEST OF)\01. Even Better Than The Real Thing.wav

     Pre-gap length  0:00:02.00

     Peak level 100.0 %
     Extraction speed 1.9 X
     Track quality 100.0 %
     Test CRC 8DEA3C17
     Copy CRC 8DEA3C17
     Accurately ripped (confidence 2)  [0618DCE7]  (AR v2)
     Copy OK

Track  2

     Filename F:\=MUSIC=\U2 Discography\Albums Compilation\U2 - 2002 - THE BEST OF 1990-2000 & B-SIDES (2CD Japan)\CD1 (THE BEST OF)\02. Mysterious Ways.wav

     Pre-gap length  0:00:02.15

     Peak level 100.0 %
     Extraction speed 2.1 X
     Track quality 100.0 %
     Test CRC B6F0CD65
     Copy CRC B6F0CD65
     Accurately ripped (confidence 2)  [BB36D9AA]  (AR v2)
     Copy OK

Track  3

     Filename F:\=MUSIC=\U2 Discography\Albums Compilation\U2 - 2002 - THE BEST OF 1990-2000 & B-SIDES (2CD Japan)\CD1 (THE BEST OF)\03. Beautiful Day.wav

     Pre-gap length  0:00:01.25

     Peak level 100.0 %
     Extraction speed 2.2 X
     Track quality 100.0 %
     Test CRC C14BF1E6
     Copy CRC C14BF1E6
     Accurately ripped (confidence 2)  [329CE089]  (AR v2)
     Copy OK

Track  4

     Filename F:\=MUSIC=\U2 Discography\Albums Compilation\U2 - 2002 - THE BEST OF 1990-2000 & B-SIDES (2CD Japan)\CD1 (THE BEST OF)\04. Electrical Storm (William Orbit Mix) (New Song).wav

     Pre-gap length  0:00:03.12

     Peak level 100.0 %
     Extraction speed 2.5 X
     Track quality 100.0 %
     Test CRC 5C0BA1DC
     Copy CRC 5C0BA1DC
     Accurately ripped (confidence 2)  [23CABB1C]  (AR v2)
     Copy OK

Track  5

     Filename F:\=MUSIC=\U2 Discography\Albums Compilation\U2 - 2002 - THE BEST OF 1990-2000 & B-SIDES (2CD Japan)\CD1 (THE BEST OF)\05. One.wav

     Pre-gap length  0:00:02.33

     Peak level 100.0 %
     Extraction speed 2.6 X
     Track quality 100.0 %
     Test CRC 8AE79B48
     Copy CRC 8AE79B48
     Accurately ripped (confidence 2)  [1FCC61F3]  (AR v2)
     Copy OK

Track  6

     Filename F:\=MUSIC=\U2 Discography\Albums Compilation\U2 - 2002 - THE BEST OF 1990-2000 & B-SIDES (2CD Japan)\CD1 (THE BEST OF)\06. Miss Sarajevo.wav

     Peak level 85.7 %
     Extraction speed 2.8 X
     Track quality 100.0 %
     Test CRC A2528E2B
     Copy CRC A2528E2B
     Accurately ripped (confidence 2)  [71B9FD13]  (AR v2)
     Copy OK

Track  7

     Filename F:\=MUSIC=\U2 Discography\Albums Compilation\U2 - 2002 - THE BEST OF 1990-2000 & B-SIDES (2CD Japan)\CD1 (THE BEST OF)\07. Stay (Faraway, So Close!).wav

     Pre-gap length  0:00:01.68

     Peak level 100.0 %
     Extraction speed 3.0 X
     Track quality 100.0 %
     Test CRC DAEEF330
     Copy CRC DAEEF330
     Accurately ripped (confidence 2)  [5D277E17]  (AR v2)
     Copy OK

Track  8

     Filename F:\=MUSIC=\U2 Discography\Albums Compilation\U2 - 2002 - THE BEST OF 1990-2000 & B-SIDES (2CD Japan)\CD1 (THE BEST OF)\08. Stuck In A Moment You Can't Get Out Of.wav

     Pre-gap length  0:00:01.08

     Peak level 100.0 %
     Extraction speed 3.1 X
     Track quality 100.0 %
     Test CRC D306CCF3
     Copy CRC D306CCF3
     Accurately ripped (confidence 2)  [70FE8A52]  (AR v2)
     Copy OK

Track  9

     Filename F:\=MUSIC=\U2 Discography\Albums Compilation\U2 - 2002 - THE BEST OF 1990-2000 & B-SIDES (2CD Japan)\CD1 (THE BEST OF)\09. Gone (New Mix).wav

     Pre-gap length  0:00:03.48

     Peak level 100.0 %
     Extraction speed 3.2 X
     Track quality 100.0 %
     Test CRC AADC71B9
     Copy CRC AADC71B9
     Accurately ripped (confidence 2)  [3F88BE47]  (AR v2)
     Copy OK

Track 10

     Filename F:\=MUSIC=\U2 Discography\Albums Compilation\U2 - 2002 - THE BEST OF 1990-2000 & B-SIDES (2CD Japan)\CD1 (THE BEST OF)\10. Until The End Of The World.wav

     Pre-gap length  0:00:01.30

     Peak level 100.0 %
     Extraction speed 3.3 X
     Track quality 100.0 %
     Test CRC 8123596C
     Copy CRC 8123596C
     Accurately ripped (confidence 2)  [B2316251]  (AR v2)
     Copy OK

Track 11

     Filename F:\=MUSIC=\U2 Discography\Albums Compilation\U2 - 2002 - THE BEST OF 1990-2000 & B-SIDES (2CD Japan)\CD1 (THE BEST OF)\11. The Hands That Build America (Theme From 'Gangs Of New York') (New Song).wav

     Pre-gap length  0:00:02.03

     Peak level 100.0 %
     Extraction speed 3.5 X
     Track quality 100.0 %
     Test CRC 77F407CE
     Copy CRC 77F407CE
     Accurately ripped (confidence 2)  [712C6EFE]  (AR v2)
     Copy OK

Track 12

     Filename F:\=MUSIC=\U2 Discography\Albums Compilation\U2 - 2002 - THE BEST OF 1990-2000 & B-SIDES (2CD Japan)\CD1 (THE BEST OF)\12. Discotheque (New Mix).wav

     Pre-gap length  0:00:02.17

     Peak level 100.0 %
     Extraction speed 3.6 X
     Track quality 100.0 %
     Test CRC CBDDCDEA
     Copy CRC CBDDCDEA
     Accurately ripped (confidence 2)  [437953A6]  (AR v2)
     Copy OK

Track 13

     Filename F:\=MUSIC=\U2 Discography\Albums Compilation\U2 - 2002 - THE BEST OF 1990-2000 & B-SIDES (2CD Japan)\CD1 (THE BEST OF)\13. Hold Me, Thrill Me, Kiss Me, Kill Me.wav

     Pre-gap length  0:00:02.17

     Peak level 100.0 %
     Extraction speed 3.3 X
     Track quality 99.9 %
     Test CRC 2156DD87
     Copy CRC 2156DD87
     Accurately ripped (confidence 2)  [1CB00178]  (AR v2)
     Copy OK

Track 14

     Filename F:\=MUSIC=\U2 Discography\Albums Compilation\U2 - 2002 - THE BEST OF 1990-2000 & B-SIDES (2CD Japan)\CD1 (THE BEST OF)\14. Staring At The Sun (New Mix).wav

     Pre-gap length  0:00:00.43

     Peak level 100.0 %
     Extraction speed 3.9 X
     Track quality 100.0 %
     Test CRC 2F8E5034
     Copy CRC 2F8E5034
     Accurately ripped (confidence 2)  [F4856C07]  (AR v2)
     Copy OK

Track 15

     Filename F:\=MUSIC=\U2 Discography\Albums Compilation\U2 - 2002 - THE BEST OF 1990-2000 & B-SIDES (2CD Japan)\CD1 (THE BEST OF)\15. Numb (New Mix).wav

     Pre-gap length  0:00:01.20

     Peak level 100.0 %
     Extraction speed 3.9 X
     Track quality 100.0 %
     Test CRC 5B708E48
     Copy CRC 5B708E48
     Accurately ripped (confidence 2)  [DB9A4BA1]  (AR v2)
     Copy OK

Track 16

     Filename F:\=MUSIC=\U2 Discography\Albums Compilation\U2 - 2002 - THE BEST OF 1990-2000 & B-SIDES (2CD Japan)\CD1 (THE BEST OF)\16. The First Time.wav

     Pre-gap length  0:00:02.00

     Peak level 100.0 %
     Extraction speed 3.9 X
     Track quality 100.0 %
     Test CRC 4388B026
     Copy CRC 4388B026
     Accurately ripped (confidence 2)  [046590FB]  (AR v2)
     Copy OK

Track 17

     Filename F:\=MUSIC=\U2 Discography\Albums Compilation\U2 - 2002 - THE BEST OF 1990-2000 & B-SIDES (2CD Japan)\CD1 (THE BEST OF)\17. The Fly.wav

     Pre-gap length  0:00:05.07

     Peak level 100.0 %
     Extraction speed 4.1 X
     Track quality 100.0 %
     Test CRC C7220C50
     Copy CRC C7220C50
     Accurately ripped (confidence 4)  [85307FF4]  (AR v1)
     Copy OK

All tracks accurately ripped

No errors occurred

End of status report

==== Log checksum 7987B700426CC9862996D9C25B031127A4C0023AC74A94959039488459984D33 ====
Код:
Код:
Exact Audio Copy V1.0 beta 2 from 29. April 2011

EAC extraction logfile from 11. November 2011, 18:44

U2 / THE B-SIDES

Used drive  : ASUS    DRW-1814BLT   Adapter: 0  ID: 1

Read mode               : Secure
Utilize accurate stream : Yes
Defeat audio cache      : Yes
Make use of C2 pointers : No

Read offset correction                      : 6
Overread into Lead-In and Lead-Out          : No
Fill up missing offset samples with silence : Yes
Delete leading and trailing silent blocks   : No
Null samples used in CRC calculations       : Yes
Used interface                              : Native Win32 interface for Win NT & 2000
Gap handling                                : Appended to previous track

Used output format              : User Defined Encoder
Selected bitrate                : 128 kBit/s
Quality                         : High
Add ID3 tag                     : No
Command line compressor         : C:\Program Files (x86)\Exact Audio Copy\Flac\flac.exe
Additional command line options : -V -8 -T "Genre=%genre%" -T "Artist=%artist%" -T "Title=%title%" -T "Album=%albumtitle%" -T "Date=%year%" -T "Tracknumber=%tracknr%" -T "Comment=%comment%" %source%

TOC of the extracted CD

     Track |   Start  |  Length  | Start sector | End sector
    ---------------------------------------------------------
        1  |  0:00.00 |  6:08.12 |         0    |    27611
        2  |  6:08.12 |  4:42.20 |     27612    |    48781
        3  | 10:50.32 |  4:08.18 |     48782    |    67399
        4  | 14:58.50 |  4:25.60 |     67400    |    87334
        5  | 19:24.35 |  4:38.37 |     87335    |   108221
        6  | 24:02.72 |  5:29.15 |    108222    |   132911
        7  | 29:32.12 |  4:47.68 |    132912    |   154504
        8  | 34:20.05 |  5:52.00 |    154505    |   180904
        9  | 40:12.05 |  6:39.45 |    180905    |   210874
       10  | 46:51.50 |  5:51.22 |    210875    |   237221
       11  | 52:42.72 |  4:10.43 |    237222    |   256014
       12  | 56:53.40 |  5:42.60 |    256015    |   281724
       13  | 62:36.25 |  5:30.40 |    281725    |   306514
       14  | 68:06.65 |  5:44.72 |    306515    |   332386

Track  1

     Filename F:\=MUSIC=\U2 Discography\Albums Compilation\U2 - 2002 - THE BEST OF 1990-2000 & B-SIDES (2CD + DVD Japan)\CD2 (THE B-SIDES)\01. Lady With The Spinning Head (Extended Dance Mix).wav

     Pre-gap length  0:00:02.00

     Peak level 100.0 %
     Extraction speed 2.8 X
     Track quality 99.9 %
     Test CRC 0BFA8ED6
     Copy CRC 0BFA8ED6
     Accurately ripped (confidence 3)  [47B102F4]  (AR v2)
     Copy OK

Track  2

     Filename F:\=MUSIC=\U2 Discography\Albums Compilation\U2 - 2002 - THE BEST OF 1990-2000 & B-SIDES (2CD + DVD Japan)\CD2 (THE B-SIDES)\02. Dirty Day (Junk Day Mix).wav

     Pre-gap length  0:00:00.62

     Peak level 99.9 %
     Extraction speed 3.3 X
     Track quality 100.0 %
     Test CRC 110B4943
     Copy CRC 110B4943
     Accurately ripped (confidence 3)  [FDA91C6C]  (AR v2)
     Copy OK

Track  3

     Filename F:\=MUSIC=\U2 Discography\Albums Compilation\U2 - 2002 - THE BEST OF 1990-2000 & B-SIDES (2CD + DVD Japan)\CD2 (THE B-SIDES)\03. Summer Rain.wav

     Pre-gap length  0:00:01.37

     Peak level 100.0 %
     Extraction speed 3.5 X
     Track quality 100.0 %
     Test CRC 93004E96
     Copy CRC 93004E96
     Accurately ripped (confidence 3)  [A002B3ED]  (AR v2)
     Copy OK

Track  4

     Filename F:\=MUSIC=\U2 Discography\Albums Compilation\U2 - 2002 - THE BEST OF 1990-2000 & B-SIDES (2CD + DVD Japan)\CD2 (THE B-SIDES)\04. Electrical Storm.wav

     Pre-gap length  0:00:01.60

     Peak level 100.0 %
     Extraction speed 3.8 X
     Track quality 100.0 %
     Test CRC 623A863C
     Copy CRC 623A863C
     Accurately ripped (confidence 3)  [99C87D8A]  (AR v2)
     Copy OK

Track  5

     Filename F:\=MUSIC=\U2 Discography\Albums Compilation\U2 - 2002 - THE BEST OF 1990-2000 & B-SIDES (2CD + DVD Japan)\CD2 (THE B-SIDES)\05. North And South Of The River.wav

     Pre-gap length  0:00:02.03

     Peak level 100.0 %
     Extraction speed 4.0 X
     Track quality 100.0 %
     Test CRC 0A2A0A43
     Copy CRC 0A2A0A43
     Accurately ripped (confidence 3)  [6139F0E0]  (AR v2)
     Copy OK

Track  6

     Filename F:\=MUSIC=\U2 Discography\Albums Compilation\U2 - 2002 - THE BEST OF 1990-2000 & B-SIDES (2CD + DVD Japan)\CD2 (THE B-SIDES)\06. Your Blue Room.wav

     Pre-gap length  0:00:01.67

     Peak level 100.0 %
     Extraction speed 4.3 X
     Track quality 100.0 %
     Test CRC 23E94319
     Copy CRC 23E94319
     Accurately ripped (confidence 3)  [02A7B224]  (AR v2)
     Copy OK

Track  7

     Filename F:\=MUSIC=\U2 Discography\Albums Compilation\U2 - 2002 - THE BEST OF 1990-2000 & B-SIDES (2CD + DVD Japan)\CD2 (THE B-SIDES)\07. Happiness Is A Warm Gun (The Gun Mix).wav

     Pre-gap length  0:00:02.17

     Peak level 99.9 %
     Extraction speed 4.5 X
     Track quality 100.0 %
     Test CRC B3D53197
     Copy CRC B3D53197
     Accurately ripped (confidence 3)  [DDAD008A]  (AR v2)
     Copy OK

Track  8

     Filename F:\=MUSIC=\U2 Discography\Albums Compilation\U2 - 2002 - THE BEST OF 1990-2000 & B-SIDES (2CD + DVD Japan)\CD2 (THE B-SIDES)\08. Salome (Zooromancer Remix).wav

     Pre-gap length  0:00:02.45

     Peak level 100.0 %
     Extraction speed 4.9 X
     Track quality 100.0 %
     Test CRC 80AA05DC
     Copy CRC 80AA05DC
     Accurately ripped (confidence 3)  [EDFE7653]  (AR v2)
     Copy OK

Track  9

     Filename F:\=MUSIC=\U2 Discography\Albums Compilation\U2 - 2002 - THE BEST OF 1990-2000 & B-SIDES (2CD + DVD Japan)\CD2 (THE B-SIDES)\09. Even Better Than The Real Thing (The Perfecto Mix).wav

     Pre-gap length  0:00:01.43

     Peak level 100.0 %
     Extraction speed 5.1 X
     Track quality 100.0 %
     Test CRC 023CD231
     Copy CRC 023CD231
     Accurately ripped (confidence 3)  [FFE9D783]  (AR v2)
     Copy OK

Track 10

     Filename F:\=MUSIC=\U2 Discography\Albums Compilation\U2 - 2002 - THE BEST OF 1990-2000 & B-SIDES (2CD + DVD Japan)\CD2 (THE B-SIDES)\10. Numb (Gimme Some More Dignity Mix).wav

     Pre-gap length  0:00:01.48

     Peak level 100.0 %
     Extraction speed 5.3 X
     Track quality 100.0 %
     Test CRC D41904A3
     Copy CRC D41904A3
     Accurately ripped (confidence 3)  [93B269F9]  (AR v2)
     Copy OK

Track 11

     Filename F:\=MUSIC=\U2 Discography\Albums Compilation\U2 - 2002 - THE BEST OF 1990-2000 & B-SIDES (2CD + DVD Japan)\CD2 (THE B-SIDES)\11. Mysterious Ways (Solar Plexus Club Mix).wav

     Pre-gap length  0:00:01.40

     Peak level 100.0 %
     Extraction speed 5.2 X
     Track quality 100.0 %
     Test CRC B492D0C6
     Copy CRC B492D0C6
     Accurately ripped (confidence 3)  [ED21528E]  (AR v2)
     Copy OK

Track 12

     Filename F:\=MUSIC=\U2 Discography\Albums Compilation\U2 - 2002 - THE BEST OF 1990-2000 & B-SIDES (2CD + DVD Japan)\CD2 (THE B-SIDES)\12. If God Will Send His Angels (Big Yam Mix).wav

     Pre-gap length  0:00:02.05

     Peak level 100.0 %
     Extraction speed 5.6 X
     Track quality 100.0 %
     Test CRC BB2D5F90
     Copy CRC BB2D5F90
     Accurately ripped (confidence 3)  [F0E171AE]  (AR v2)
     Copy OK

Track 13

     Filename F:\=MUSIC=\U2 Discography\Albums Compilation\U2 - 2002 - THE BEST OF 1990-2000 & B-SIDES (2CD + DVD Japan)\CD2 (THE B-SIDES)\13. Lemon (Jeep Mix).wav

     Pre-gap length  0:00:01.60

     Peak level 100.0 %
     Extraction speed 5.8 X
     Track quality 100.0 %
     Test CRC A9E2E60A
     Copy CRC A9E2E60A
     Accurately ripped (confidence 3)  [5E19E757]  (AR v2)
     Copy OK

Track 14

     Filename F:\=MUSIC=\U2 Discography\Albums Compilation\U2 - 2002 - THE BEST OF 1990-2000 & B-SIDES (2CD + DVD Japan)\CD2 (THE B-SIDES)\14. Discotheque (Hexidecimal Mix).wav

     Pre-gap length  0:00:01.18

     Peak level 100.0 %
     Extraction speed 0.5 X
     Track quality 99.1 %
     Test CRC 08FA6615
     Copy CRC 08FA6615
     Accurately ripped (confidence 3)  [496B0FB7]  (AR v2)
     Copy OK

All tracks accurately ripped

No errors occurred

End of status report

==== Log checksum 68BD2FDF2BFA0E3EE967D9625B22813104A5F14B8726F6767D1F273EBF8DB751 ====
Код:
Код:
-----------------------

DON'T MODIFY THIS FILE

-----------------------

PERFORMER: auCDtect Task Manager, ver. 1.6.0 RC1 build 1.6.0.1
Copyright (c) 2008-2010 y-soft. All rights reserved
http:/y-soft.org

ANALYZER: auCDtect: CD records authenticity detector, version 0.8.2
Copyright (c) 2004 Oleg Berngardt. All rights reserved.
Copyright (c) 2004 Alexander Djourik. All rights reserved.

FILE: 17. The Fly.flac
  Size: 32872531 Hash: 816CED9952F40887939B8188848D9005 Accuracy: -m0
  Conclusion: CDDA 100%
  Signature: 88C60CCA8225272502C072756EA1B11E043FB11C
FILE: 16. The First Time.flac
  Size: 19195693 Hash: DA9FB2FDCD12B5CA5D54D9220CADB1A2 Accuracy: -m0
  Conclusion: CDDA 100%
  Signature: 94CE89204E05ADD7DE173E59139F31EEAC6E231A
FILE: 15. Numb (New Mix).flac
  Size: 31705184 Hash: 4F748B9EF3C77EC1A498DE8C83658E01 Accuracy: -m0
  Conclusion: CDDA 100%
  Signature: 4DB584714577912E5073CA5AE4B25C8BA496FEA7
FILE: 14. Staring At The Sun (New Mix).flac
  Size: 33113050 Hash: A7898C74D62C3A1D0E5B04FB2099945C Accuracy: -m0
  Conclusion: CDDA 100%
  Signature: 3A23B69F5A2A976F6376A7ABED2EE877714E420F
FILE: 13. Hold Me, Thrill Me, Kiss Me, Kill Me.flac
  Size: 36707203 Hash: 64959DE878B3D09AA36EF6E55EACB6CB Accuracy: -m0
  Conclusion: CDDA 100%
  Signature: 6C223B921428245FDC144B5C5A3C7A6CB61B963D
FILE: 12. Discotheque (New Mix).flac
  Size: 32632125 Hash: F7F2026D80B1575D7AD0E17BB6FFFA5C Accuracy: -m0
  Conclusion: CDDA 100%
  Signature: F7DAA00072E7D0F1302B15E3B39C3229CD5C3B3A
FILE: 11. The Hands That Build America (Theme From 'Gangs Of New York') (New Song).flac
  Size: 30099084 Hash: 637CF6B77212CAE531EB99682A9CCCBE Accuracy: -m0
  Conclusion: CDDA 100%
  Signature: 510C875734EF205047B2C9C6C3D5D96471E48833
FILE: 10. Until The End Of The World.flac
  Size: 31729701 Hash: 23BC276F96D05CDE63D7A836733F0E95 Accuracy: -m0
  Conclusion: CDDA 100%
  Signature: FFA675D62D81F182B063B3F43CC76AC8053E1C86
FILE: 09. Gone (New Mix).flac
  Size: 33322017 Hash: 6E2FBF06940A66D7AAA11B177537D5C8 Accuracy: -m0
  Conclusion: CDDA 99%
  Signature: F403E60E1DF956B181CB1EEC97008875ADC01882
FILE: 08. Stuck In A Moment You Can't Get Out Of.flac
  Size: 34234371 Hash: E45D2BFE6EED140FE7B4A19F7F375C18 Accuracy: -m0
  Conclusion: CDDA 100%
  Signature: 7EF3B9164E4BEE62EC6EE2D12F06BC287E2944ED
FILE: 07. Stay (Faraway, So Close!).flac
  Size: 32512287 Hash: 90B390E405FD431A0B5865664CB34FF4 Accuracy: -m0
  Conclusion: CDDA 99%
  Signature: E78CC090F0074F3A50964256300A9478787D20AA
FILE: 06. Miss Sarajevo.flac
  Size: 25152688 Hash: 5BC94E0820FFDA78FF487521E182C8E3 Accuracy: -m0
  Conclusion: CDDA 100%
  Signature: D4C2C216247E9A12C2E9B4A3F823E0F327EDD740
FILE: 05. One.flac
  Size: 32123668 Hash: 1A372DE9E4E9650DFF6C29CF7C9875E7 Accuracy: -m0
  Conclusion: CDDA 100%
  Signature: BC8C57C0931CDC04353BACE527EA6A872161B078
FILE: 04. Electrical Storm (William Orbit Mix) (New Song).flac
  Size: 29888656 Hash: D1DF7C79A68A3425F2EC206B28E6BBEA Accuracy: -m0
  Conclusion: CDDA 100%
  Signature: 79A3B7E1201448544CE8289275D2D0979A7129CB
FILE: 03. Beautiful Day.flac
  Size: 28398728 Hash: 256DED79D549EAA676D6C8C10D4EAA8A Accuracy: -m0
  Conclusion: CDDA 99%
  Signature: 48D20693768522330A93F7DC42AE29168FEB9C4E
FILE: 02. Mysterious Ways.flac
  Size: 28643331 Hash: DD0D559F80FBC5FAEA99F3C7CDBC20B2 Accuracy: -m0
  Conclusion: CDDA 100%
  Signature: D09BC5189572D03C676A3B26807E092A674BD282
FILE: 01. Even Better Than The Real Thing.flac
  Size: 28827888 Hash: B2B2CC1EB2DAF06AC69E95EAA5D0F22C Accuracy: -m0
  Conclusion: CDDA 100%
  Signature: DD2DF739730FCB901D998C4066F4D93254245E70
Код:
Код:
-----------------------

DON'T MODIFY THIS FILE

-----------------------

PERFORMER: auCDtect Task Manager, ver. 1.6.0 RC1 build 1.6.0.1
Copyright (c) 2008-2010 y-soft. All rights reserved
http:/y-soft.org

ANALYZER: auCDtect: CD records authenticity detector, version 0.8.2
Copyright (c) 2004 Oleg Berngardt. All rights reserved.
Copyright (c) 2004 Alexander Djourik. All rights reserved.

FILE: 14. Discotheque (Hexidecimal Mix).flac
  Size: 43005934 Hash: EA86D4A2177A3652386D8D4448CE0CF6 Accuracy: -m0
  Conclusion: CDDA 100%
  Signature: 4784B9B45224C964F744A9F39386CB5E9CB36542
FILE: 13. Lemon (Jeep Mix).flac
  Size: 36117949 Hash: 13EBF2B2D6CFB09B877D2AF91887F447 Accuracy: -m0
  Conclusion: CDDA 100%
  Signature: 05E82743316171F970EA374D322DC089582CC2F7
FILE: 12. If God Will Send His Angels (Big Yam Mix).flac
  Size: 41247686 Hash: 497FB31D0196D3E4DF8321CCA7BD019D Accuracy: -m0
  Conclusion: CDDA 100%
  Signature: 2F349CB88771953FD16F8D13E01D3C255CADE4CC
FILE: 11. Mysterious Ways (Solar Plexus Club Mix).flac
  Size: 28579142 Hash: E632853C015DD506A61BF82D59667997 Accuracy: -m0
  Conclusion: CDDA 100%
  Signature: 8F9620F932C63569C3D22B9E3AB6A9E09895DCE9
FILE: 10. Numb (Gimme Some More Dignity Mix).flac
  Size: 37430722 Hash: 4C8CEE91F19041615E3371DC7CCAA2D4 Accuracy: -m0
  Conclusion: CDDA 100%
  Signature: 0DE395C85BAEF914AA95B8908F26AB157D0906C6
FILE: 09. Even Better Than The Real Thing (The Perfecto Mix).flac
  Size: 52163746 Hash: 5D47B78E7F5F55AD6F2A61EEF5D4D507 Accuracy: -m0
  Conclusion: CDDA 100%
  Signature: CC66F4B972F3835A5166F8D792799DB96B69DB7A
FILE: 08. Salome (Zooromancer Remix).flac
  Size: 43951461 Hash: 251F3F8BEBA2F24959C2F9E4D4CC60AF Accuracy: -m0
  Conclusion: CDDA 100%
  Signature: 0912CFC682C681413D7161BFCE7DD808C4B11BC7
FILE: 07. Happiness Is A Warm Gun (The Gun Mix).flac
  Size: 36104381 Hash: 52AC542A72B43D765FFC37F93E386A5A Accuracy: -m0
  Conclusion: CDDA 100%
  Signature: F1F66801B28F7637555E084EDD2B7CA921A2953A
FILE: 06. Your Blue Room.flac
  Size: 34872950 Hash: CA4558A48391B243A4F8BA6EC9BE843F Accuracy: -m0
  Conclusion: CDDA 100%
  Signature: 2ADF0C3265C382624838C6822B054F259EC6574B
FILE: 05. North And South Of The River.flac
  Size: 27660062 Hash: 6C9EB2FD97772CABEC6CC41DE4B0563A Accuracy: -m0
  Conclusion: CDDA 100%
  Signature: 99F6A4B1DEBF4A75FC13DD170EB19415E2081EEF
FILE: 04. Electrical Storm.flac
  Size: 32458334 Hash: 833FA4AE7ADBF7A5E72D6DF620AB7EF8 Accuracy: -m0
  Conclusion: CDDA 100%
  Signature: B1A56F20931FACBF49037A56031F3E3C709649A7
FILE: 03. Summer Rain.flac
  Size: 29029618 Hash: CFFC74BF61CD887CA959AD5D8EDD8A51 Accuracy: -m0
  Conclusion: CDDA 100%
  Signature: 2DCADB8721F3D183FD36BDB4DC81E4E96DB20648
FILE: 02. Dirty Day (Junk Day Mix).flac
  Size: 33412619 Hash: 814A83EF89DE2F47B442D983A6B5BB0C Accuracy: -m0
  Conclusion: CDDA 100%
  Signature: 1220ABEAAB4F0C19A74E9F21FFCD1069281E27E4
FILE: 01. Lady With The Spinning Head (Extended Dance Mix).flac
  Size: 47606181 Hash: 134701D944A3ABBE5B80565905D54CC1 Accuracy: -m0
  Conclusion: CDDA 100%
  Signature: DB4EB1DC04D52FCDC8579CA2B150277072691259
Правила, инструкции, FAQ!!!
Торрент  Добавлен [16 мар 2014, 00:49] Скачать торрент Магнет ссылка
Скачать торрент
[ Размер 16.38 КБ / Просмотров 123 ]

Статус  
 
Размер  1.04 ГБ
Приватный: Нет (DHT включён)
.torrent скачан  5
 


     Отправить личное сообщение
   
Страница 1 из 1
Показать сообщения за:  Поле сортировки  
Начать новую тему Ответить на тему


Сейчас этот форум просматривают: нет зарегистрированных пользователей и гости: 0


Вы не можете начинать темы
Вы не можете отвечать на сообщения
Вы не можете редактировать свои сообщения
Вы не можете удалять свои сообщения
Вы не можете добавлять вложения

Перейти:  
cron
cron