Начать новую тему Ответить на тему
Статистика раздачи
Размер: 237.96 МБ | Добавлен: 16 мар 2014, 00:02 | Скачали: 0
Сидеров: 1  [0 байт/сек]    Личеров: 60  [0 байт/сек]
Пред. тема | След. тема 

Автор
Сообщение

СообщениеДобавлено: 16 мар 2014, 00:02 

Ответить с цитатой 

Twink - Think Pink (1970) Reissue 1991

Жанр: Rock/Experimental
Год: 1970
Страна: UK
Released: 1991/Germany
Label: World Wide Records
Catalog#: SPM-WWR-CD-0031
Аудио кодек: FLAC
Тип рипа: image+.cue
Битрейт аудио: lossless
Продолжительность: 00:37:11
Источник-релизер: Torturegarden
Треклист:
01. The Coming of the One (3:40)
02. Ten Thousand Words in a Cardboard Box (4:29)
03. Dawn of Majic (1:44)
04. Tiptoe on the Highest Hill (5:19)
05. Fluid (4:03)
06. Mexican Grass War (5:28)
07. Rock and Roll the Joint (2:30)
08. Suicide (4:23)
09. Three Little Piggies (3:12)
10. The Sparrow is a Sign (2:22)
Код:
Код:
Exact Audio Copy V0.99 prebeta 4 from 23. January 2008

Отчёт EAC об извлечении, выполненном 17. октября 2008, 8:54

Twink / Think Pink

Дисковод: Optiarc DVD RW AD-7170A   Adapter: 0  ID: 1

Режим чтения                 : Достоверность
Использование точного потока : Да
Отключение кэша аудио        : Да
Использование указателей C2  : Нет

Коррекция смещения при чтении                     : 48
Способность читать области Lead-in и Lead-out     : Нет
Заполнение пропущенных сэмплов тишиной            : Да
Удаление блоков с тишиной в начале и конце        : Нет
При вычислениях CRC использовались нулевые сэмплы : Да
Интерфейс                                         : Встроенный Win32-интерфейс для Win NT/2000

Выходной формат          : Пользовательский кодировщик
Выбранный битрейт        : 768 kBit/s
Качество                 : Высокий
Добавление ID3-тэга      : Нет
Утилита сжатия           : D:\Program Files\Exact Audio Copy\FLAC\FLAC.EXE
Дополнительные параметры : -6 -V -T "ARTIST=%a" -T "TITLE=%t" -T "ALBUM=%g" -T "DATE=%y" -T "TRACKNUMBER=%n" -T "GENRE=%m" -T "COMMENT=%e" %s -o %d

TOC извлечённого CD

     Трек |   Старт  | Длительность | Начальный сектор | Конечный сектор
    ---------------------------------------------------------------------
       1  |  0:00.00 |    3:39.60   |           0      |      16484
       2  |  3:39.60 |    4:29.37   |       16485      |      36696
       3  |  8:09.22 |    1:44.35   |       36697      |      44531
       4  |  9:53.57 |    5:18.58   |       44532      |      68439
       5  | 15:12.40 |    4:03.20   |       68440      |      86684
       6  | 19:15.60 |    5:28.12   |       86685      |     111296
       7  | 24:43.72 |    2:29.60   |      111297      |     122531
       8  | 27:13.57 |    4:23.30   |      122532      |     142286
       9  | 31:37.12 |    3:12.03   |      142287      |     156689
      10  | 34:49.15 |    2:22.05   |      156690      |     167344

Характеристики диапазона извлечения и сообщения об ошибках

Выбранный диапазон

     Имя файла D:\EAC\Twink - Think Pink.wav

     Пиковый уровень 99.9 %
     Качество диапазона 100.0 %
     CRC копии E77FEDA2
     Копирование... OK

Ошибок не произошло

AccurateRip: сводка

Трек  1  нет в базе данных
Трек  2  нет в базе данных
Трек  3  нет в базе данных
Трек  4  нет в базе данных
Трек  5  нет в базе данных
Трек  6  нет в базе данных
Трек  7  нет в базе данных
Трек  8  нет в базе данных
Трек  9  нет в базе данных
Трек 10  нет в базе данных

Ни одного трека нет в базе AccurateRip

Конец отчёта
Код:
Код:
-----------------------

DON'T MODIFY THIS FILE

-----------------------

PERFORMER: auCDtect Task Manager, ver. 1.6.0 RC1 build 1.6.0.1
Copyright (c) 2008-2010 y-soft. All rights reserved
http:/y-soft.org

ANALYZER: auCDtect: CD records authenticity detector, version 0.8.2
Copyright (c) 2004 Oleg Berngardt. All rights reserved.
Copyright (c) 2004 Alexander Djourik. All rights reserved.

FILE: Twink - Think Pink.flac
  Size: 249176032 Hash: 89BA3202B0E168EA65820946C58E9361 Accuracy: -m0
  Conclusion: CDDA 100%
  Signature: F32E650D6974CD3D401ABAE864A0FC4DB9A1AB02
#777
Мистер Джон Чарльз Эдвард Элдер (John Charles Edward Alder) в свое время был одной из центральных фигур британской психоделии. Этого барабанщика, певца и автора песен, естественно, по имени никто не называл, поэтому музыкальной общественности он известен под псевдонимом Твинк (Twink).
Родился Твинк в 1944 году, и как это было практически со всеми молодыми людьми того периода, увлекся рок-н-роллом. Играя в различных, никому не известных группах, Джон отрастил длинные волосы. Друзья в шутку постоянно дарили ему лосьон фирмы «Twink» для завивки и без того вьющихся волос музыканта. С этого началась вся история с прозвищем, прикрепившимся на всю жизнь.
В 1965 году Твинк переезжает в Лондон и становится активным деятелем столичного андеграунда, участником одной из первых психоделических групп Англии Tomorrow, параллельно пробуя играть в Santa Barbara Machine Head. В 1968 году Твинка приглашают в Pretty Things, где он принимает участие в создании замечательного альбома «S.F. Sorrow».
Свой первый сольный альбом «Think Pink» Твинк выпустил в 1970 году. В записи приняла участие целая плеяда лондонских музыкантов. Гитаристом Твинк пригласил бывшего члена Deviants Пола Рудольфа, способного создавать сочный мощный фуззовый саунд. Вместе со всеми в составе оказался и небезызвестный Стив Перегрин Тук (Steve Peregrin Took) из Tyrannosaurus Rex. Все вместе они создали шедевр британской психоделии, ни в чем не уступающий первым работам Pink Floyd.
Think Pink, странный, мечтательный, разноплановый альбом, ни одна из песен которого не похожа на остальные, включивший лучший материал Твинка, Стива Тука и Aquarian Age, он стал, возможно, последним артефактом романтизированной эры британской психоделики - и в то же время первым диском, показавшим единственно возможное направление дальнейшего развития этого стиля...

Musicians:
- Twink – Drums, Vocals
- Paul Rudolph – Guitar, Bass, Vocals
- John 'Junior' Wood – Bass
- Wally Allen – Piano
- John Povey – Sitar, Mellotron
- Steve Peregrin Took – Guitar, Percussion, Vocals
- Viv Prince – Drums
Правила, инструкции, FAQ!!!
Торрент  Добавлен [16 мар 2014, 00:02] Скачать торрент Магнет ссылка
Скачать торрент
[ Размер 19.68 КБ / Просмотров 41 ]

Статус  
 
Размер  237.96 МБ
Приватный: Нет (DHT включён)
.torrent скачан  0
 


     Отправить личное сообщение
   
Страница 1 из 1
Показать сообщения за:  Поле сортировки  
Начать новую тему Ответить на тему


Сейчас этот форум просматривают: нет зарегистрированных пользователей и гости: 0


Вы не можете начинать темы
Вы не можете отвечать на сообщения
Вы не можете редактировать свои сообщения
Вы не можете удалять свои сообщения
Вы не можете добавлять вложения

Перейти:  
cron
cron