Начать новую тему Ответить на тему
Статистика раздачи
Размер: 556.61 МБ | Добавлен: 16 мар 2014, 00:54 | Скачали: 1
Сидеров: 1  [0 байт/сек]    Личеров: 0  [0 байт/сек]
Пред. тема | След. тема 

Автор
Сообщение

СообщениеДобавлено: 16 мар 2014, 00:54 

Ответить с цитатой 

Tori Amos - Tales of a Librarian (2003)

Год: 2003
Жанр: Rock, Alternative Rock
Страна-производитель диска: UK
Издатель (лейбл): Atlantic
Номер по каталогу: 7567-83658-2
Наличие сканов в содержимом раздачи: да + буклет
Источник (релизер): caker
Продолжительность: 01:18:51

Кодек: WavPack
Битрейт: Lossless

Треклист:
01. Precious Things [4:30]
02. Angels [4:28]
03. Silent All These Years [4:11]
04. Cornflake Girl [5:06]
05. Mary [4:42]
06. God [3:54]
07. Winter [5:43]
08. Spark [4:13]
09. Way Down [1:51]
10. Professional Widow [3:48]
11. Mr. Zebra [1:06]
12. Crucify [5:01]
13. Me and a Gun [3:43]
14. Bliss [3:35]
15. Playboy Mommy [4:06]
16. Baker Baker [3:13]
17. Tear in Your Hand [4:39]
18. Sweet Dreams [3:40]
19. Jackie's Strength [4:26]
20. Snow Cherries from France [2:56]
Код:
Код:
Exact Audio Copy V0.99 prebeta 4 from 23. January 2008

EAC extraction logfile from 3. August 2008, 11:51

Tori Amos / Tales of a Librarian (Limited Deluxe Edition)

Used drive  : _NEC    DVD_RW ND-3550A   Adapter: 1  ID: 0

Read mode               : Secure
Utilize accurate stream : Yes
Defeat audio cache      : Yes
Make use of C2 pointers : No

Read offset correction                      : 48
Overread into Lead-In and Lead-Out          : No
Fill up missing offset samples with silence : Yes
Delete leading and trailing silent blocks   : No
Null samples used in CRC calculations       : Yes
Used interface                              : Installed external ASPI interface

Used output format : Monkey's Audio Lossless Encoder v3.99 DLL
Sample format      : Normal Lossless Compression

TOC of the extracted CD

     Track |   Start  |  Length  | Start sector | End sector
    ---------------------------------------------------------
        1  |  0:00.00 |  4:29.74 |         0    |    20248
        2  |  4:29.74 |  4:27.69 |     20249    |    40342
        3  |  8:57.68 |  4:10.63 |     40343    |    59155
        4  | 13:08.56 |  5:05.73 |     59156    |    82103
        5  | 18:14.54 |  4:42.33 |     82104    |   103286
        6  | 22:57.12 |  3:54.15 |    103287    |   120851
        7  | 26:51.27 |  5:43.00 |    120852    |   146576
        8  | 32:34.27 |  4:13.14 |    146577    |   165565
        9  | 36:47.41 |  1:50.61 |    165566    |   173876
       10  | 38:38.27 |  3:48.14 |    173877    |   190990
       11  | 42:26.41 |  1:05.51 |    190991    |   195916
       12  | 43:32.17 |  5:00.41 |    195917    |   218457
       13  | 48:32.58 |  3:43.19 |    218458    |   235201
       14  | 52:16.02 |  3:35.27 |    235202    |   251353
       15  | 55:51.29 |  4:06.23 |    251354    |   269826
       16  | 59:57.52 |  3:12.52 |    269827    |   284278
       17  | 63:10.29 |  4:38.61 |    284279    |   305189
       18  | 67:49.15 |  3:39.62 |    305190    |   321676
       19  | 71:29.02 |  4:25.64 |    321677    |   341615
       20  | 75:54.66 |  2:56.02 |    341616    |   354817

Range status and errors

Selected range

     Filename E:\!tracker\TORIGRAPHY\2003(11) - (Compilation) - Tales of a Librarian (Limited Deluxe Edition)\Tori Amos - Tales of a Librarian (Limited Deluxe Edition).ape

     Peak level 99.8 %
     Range quality 99.9 %
     Test CRC AA1680A6
     Copy CRC AA1680A6
     Copy OK

No errors occurred

AccurateRip summary

Track  1  accurately ripped (confidence 67)  [B85B00B6]
Track  2  accurately ripped (confidence 68)  [34C4D3B8]
Track  3  accurately ripped (confidence 65)  [1A8DFF1C]
Track  4  accurately ripped (confidence 66)  [9C105A18]
Track  5  accurately ripped (confidence 67)  [C76A4583]
Track  6  accurately ripped (confidence 66)  [71A28D69]
Track  7  accurately ripped (confidence 67)  [387CFADA]
Track  8  accurately ripped (confidence 67)  [A1BC9073]
Track  9  accurately ripped (confidence 67)  [89881DEE]
Track 10  accurately ripped (confidence 68)  [7F4DEB12]
Track 11  accurately ripped (confidence 66)  [F238865D]
Track 12  accurately ripped (confidence 64)  [3AAA590F]
Track 13  accurately ripped (confidence 63)  [6EC8EFF9]
Track 14  accurately ripped (confidence 66)  [63725040]
Track 15  accurately ripped (confidence 66)  [6DB604CB]
Track 16  accurately ripped (confidence 67)  [484C2C89]
Track 17  accurately ripped (confidence 67)  [68207482]
Track 18  accurately ripped (confidence 64)  [C05D75CE]
Track 19  accurately ripped (confidence 67)  [CAF3CB07]
Track 20  accurately ripped (confidence 65)  [D35FD47E]

All tracks accurately ripped

End of status report

Код:
Код:
-----------------------

DON'T MODIFY THIS FILE

-----------------------

PERFORMER: auCDtect Task Manager, ver. 1.6.0 RC1 build 1.6.0.1
Copyright (c) 2008-2010 y-soft. All rights reserved
http:/y-soft.org

ANALYZER: auCDtect: CD records authenticity detector, version 0.8.2
Copyright (c) 2004 Oleg Berngardt. All rights reserved.
Copyright (c) 2004 Alexander Djourik. All rights reserved.

FILE: tori.amos.2003.tales.of.a.librarian.deluxe.edition.(by.caker).eac.cue.log.tags.covers.wv.iso.wv
  Size: 583625576 Hash: 69341BBE311238BE68293C42CB1AB79F Accuracy: -m0
  Conclusion: CDDA 100%
  Signature: 32FD2974AA7E646C017B5A3E70ECC4772363F315

Правила, инструкции, FAQ!!!
Торрент  Добавлен [16 мар 2014, 00:54] Скачать торрент Магнет ссылка
Скачать торрент
[ Размер 11.77 КБ / Просмотров 26 ]

Статус  
 
Размер  556.61 МБ
Приватный: Нет (DHT включён)
.torrent скачан  1
 


     Отправить личное сообщение
   
Страница 1 из 1
Показать сообщения за:  Поле сортировки  
Начать новую тему Ответить на тему


Сейчас этот форум просматривают: нет зарегистрированных пользователей и гости: 0


Вы не можете начинать темы
Вы не можете отвечать на сообщения
Вы не можете редактировать свои сообщения
Вы не можете удалять свои сообщения
Вы не можете добавлять вложения

Перейти:  
cron