Начать новую тему Ответить на тему
Статистика раздачи
Размер: 1.22 ГБ | Добавлен: 16 мар 2014, 00:52 | Скачали: 1
Сидеров: 1  [0 байт/сек]    Личеров: 0  [0 байт/сек]
Пред. тема | След. тема 

Автор
Сообщение

СообщениеДобавлено: 16 мар 2014, 00:52 

Ответить с цитатой 

Tori Amos - 2 альбома (1998-1999)



Год: 1998-1999 | Жанр: Alternative Rock, Pop Rock | Продолжительность: 02:57:31
Кодек: FLAC | Битрейт: Lossless | Источник: Web
Издатель: Atlatic
Номер по каталогу: 83095 2
Страна изготовитель: USA

Трек лист:

01. Spark [04:14]
02. Cruel [04:07]
03. Black-Dove (January) [04:39]
04. Raspberry Swirl [03:58]
05. Jackie's Strength [04:27]
06. i i e e e [04:08]
07. Liquid Diamonds [06:22]
08. She's Your Cocaine [03:42]
09. Northern Lad [04:19]
10. Hotel [05:20]
11. Playboy Mommy [04:09]
12. Pandora's Aquarium [04:45]

Продолжительность: 00:54:10
Код:
Код:
Exact Audio Copy V0.99 prebeta 4 from 23. January 2008

EAC extraction logfile from 10. December 2008, 19:47

Tori Amos / From The Choirgirl Hotel

Used drive  : PIONEER DVD-RW  DVR-216   Adapter: 1  ID: 0

Read mode               : Secure
Utilize accurate stream : Yes
Defeat audio cache      : Yes
Make use of C2 pointers : No

Read offset correction                      : 96
Overread into Lead-In and Lead-Out          : No
Fill up missing offset samples with silence : Yes
Delete leading and trailing silent blocks   : No
Null samples used in CRC calculations       : Yes
Used interface                              : Installed external ASPI interface
Gap handling                                : Appended to previous track

Used output format              : User Defined Encoder
Selected bitrate                : 128 kBit/s
Quality                         : High
Add ID3 tag                     : No
Command line compressor         : C:\Programmi\Exact Audio Copy\Flac\flac.exe
Additional command line options : -8 -V -T "ARTIST=%a" -T "TITLE=%t" -T "ALBUM=%g" -T "DATE=%y" -T "TRACKNUMBER=%n" -T "GENRE=%m" -T "COMMENT=EAC FLAC -8" %s

TOC of the extracted CD

     Track |   Start  |  Length  | Start sector | End sector
    ---------------------------------------------------------
        1  |  0:00.32 |  4:13.43 |        32    |    19049
        2  |  4:14.00 |  4:07.30 |     19050    |    37604
        3  |  8:21.30 |  4:38.45 |     37605    |    58499
        4  | 13:00.00 |  3:58.37 |     58500    |    76386
        5  | 16:58.37 |  4:26.60 |     76387    |    96396
        6  | 21:25.22 |  4:07.63 |     96397    |   114984
        7  | 25:33.10 |  6:21.52 |    114985    |   143611
        8  | 31:54.62 |  3:42.03 |    143612    |   160264
        9  | 35:36.65 |  4:19.07 |    160265    |   179696
       10  | 39:55.72 |  5:19.73 |    179697    |   203694
       11  | 45:15.70 |  4:08.67 |    203695    |   222361
       12  | 49:24.62 |  4:45.28 |    222362    |   243764

Track  1

     Filename E:\CDRip\01 - Spark.wav

     Pre-gap length  0:00:02.32

     Peak level 94.6 %
     Track quality 100.0 %
     Test CRC 4581FDF4
     Copy CRC 4581FDF4
     Accurately ripped (confidence 35)  [8FD89E64]
     Copy OK

Track  2

     Filename E:\CDRip\02 - Cruel.wav

     Pre-gap length  0:00:01.05

     Peak level 96.5 %
     Track quality 99.9 %
     Test CRC 0E3420B9
     Copy CRC 0E3420B9
     Accurately ripped (confidence 34)  [E0FAE299]
     Copy OK

Track  3

     Filename E:\CDRip\03 - Black-Dove (January).wav

     Pre-gap length  0:00:01.73

     Peak level 98.1 %
     Track quality 99.9 %
     Test CRC 49325BE7
     Copy CRC 49325BE7
     Accurately ripped (confidence 35)  [D2C08998]
     Copy OK

Track  4

     Filename E:\CDRip\04 - Raspberry Swirl.wav

     Pre-gap length  0:00:02.58

     Peak level 93.4 %
     Track quality 100.0 %
     Test CRC 0E2C641D
     Copy CRC 0E2C641D
     Accurately ripped (confidence 35)  [A0A9BEDD]
     Copy OK

Track  5

     Filename E:\CDRip\05 - Jackie's Strength.wav

     Pre-gap length  0:00:01.22

     Peak level 96.2 %
     Track quality 100.0 %
     Test CRC 3D94F4FE
     Copy CRC 3D94F4FE
     Accurately ripped (confidence 35)  [CA3FFC37]
     Copy OK

Track  6

     Filename E:\CDRip\06 - i i e e e.wav

     Peak level 94.0 %
     Track quality 100.0 %
     Test CRC 787F0E6C
     Copy CRC 787F0E6C
     Accurately ripped (confidence 35)  [67BC3CD7]
     Copy OK

Track  7

     Filename E:\CDRip\07 - Liquid Diamonds.wav

     Peak level 95.5 %
     Track quality 100.0 %
     Test CRC 8702A908
     Copy CRC 8702A908
     Accurately ripped (confidence 33)  [C4B7E688]
     Copy OK

Track  8

     Filename E:\CDRip\08 - She's Your Cocaine.wav

     Pre-gap length  0:00:01.25

     Peak level 100.0 %
     Track quality 100.0 %
     Test CRC 9570D580
     Copy CRC 9570D580
     Accurately ripped (confidence 34)  [6F9AD7F6]
     Copy OK

Track  9

     Filename E:\CDRip\09 - Northern Lad.wav

     Pre-gap length  0:00:00.58

     Peak level 98.0 %
     Track quality 100.0 %
     Test CRC F52F06FD
     Copy CRC F52F06FD
     Accurately ripped (confidence 34)  [0720D110]
     Copy OK

Track 10

     Filename E:\CDRip\10 - Hotel.wav

     Pre-gap length  0:00:01.20

     Peak level 96.6 %
     Track quality 100.0 %
     Test CRC 86D94CB6
     Copy CRC 86D94CB6
     Accurately ripped (confidence 35)  [9B0471FD]
     Copy OK

Track 11

     Filename E:\CDRip\11 - Playboy Mommy.wav

     Pre-gap length  0:00:01.33

     Peak level 100.0 %
     Track quality 100.0 %
     Test CRC 6632F7B2
     Copy CRC 6632F7B2
     Accurately ripped (confidence 35)  [1135FA04]
     Copy OK

Track 12

     Filename E:\CDRip\12 - Pandora's Aquarium.wav

     Pre-gap length  0:00:00.37

     Peak level 95.5 %
     Track quality 100.0 %
     Test CRC 9262FF44
     Copy CRC 9262FF44
     Accurately ripped (confidence 35)  [393C8941]
     Copy OK

All tracks accurately ripped

No errors occurred

End of status report
Код:
Код:
-----------------------

DON'T MODIFY THIS FILE

-----------------------

PERFORMER: auCDtect Task Manager, ver. 1.6.0 RC1 build 1.6.0.1
Copyright (c) 2008-2010 y-soft. All rights reserved
http:/y-soft.org

ANALYZER: auCDtect: CD records authenticity detector, version 0.8.2
Copyright (c) 2004 Oleg Berngardt. All rights reserved.
Copyright (c) 2004 Alexander Djourik. All rights reserved.

FILE: 12 - Pandora's Aquarium.flac
  Size: 27919931 Hash: D59C958535C79DF95FFC2F55F1A84150 Accuracy: -m0
  Conclusion: CDDA 100%
  Signature: A366FE7FA7835004E0B1B8476FC083D869A471EF
FILE: 11 - Playboy Mommy.flac
  Size: 29812421 Hash: E0B570608F9E41D714B12EB2D0E41812 Accuracy: -m0
  Conclusion: CDDA 100%
  Signature: EB351D20123CAFEE82CAAC4CB1291BF4A6A4812D
FILE: 10 - Hotel.flac
  Size: 38057461 Hash: FBA640CD268D1A1B8A995FB9B69172A5 Accuracy: -m0
  Conclusion: CDDA 99%
  Signature: 68796A1C452E0C6DB6502BA0D56A786854744B46
FILE: 09 - Northern Lad.flac
  Size: 30816061 Hash: 1AE9C61F2351F474A06AB04F113387F6 Accuracy: -m0
  Conclusion: CDDA 99%
  Signature: 23BEF684976D0ABFA6FA7D5A54A99DD23D88051D
FILE: 08 - She's Your Cocaine.flac
  Size: 26775156 Hash: 846E2A86066B48E3DE886B7333F6BC3B Accuracy: -m0
  Conclusion: CDDA 100%
  Signature: 1B6ACBB6BEEE3329AF16975490CCB18BDE455B9F
FILE: 07 - Liquid Diamonds.flac
  Size: 45608990 Hash: 5FB34E621242864CE2D1203DEB44B700 Accuracy: -m0
  Conclusion: CDDA 100%
  Signature: 7436ED0C176DDB871988884205FBBC2AE7A434DE
FILE: 06 - i i e e e.flac
  Size: 30207970 Hash: 6E860FC2B8F989D76BE1A68FAE73686C Accuracy: -m0
  Conclusion: CDDA 100%
  Signature: 197C6B054614A8EEFFA152A657EB38695ED16FCE
FILE: 05 - Jackie's Strength.flac
  Size: 30115724 Hash: 3D8A925E78A63AC268627EF896A51430 Accuracy: -m0
  Conclusion: CDDA 100%
  Signature: 961EA2A65589306BDDA6802C4B27385D0D1A55B8
FILE: 04 - Raspberry Swirl.flac
  Size: 32607109 Hash: 198C8ECB9EB5A3B77E749304371678F1 Accuracy: -m0
  Conclusion: CDDA 100%
  Signature: A129E7FFE24BAEB78309D8222002A9EA2F97BFC3
FILE: 03 - Black-Dove (January).flac
  Size: 32073163 Hash: 00EE22DA272CE889DED1F16099BC717D Accuracy: -m0
  Conclusion: CDDA 100%
  Signature: FD008FB3CDD6F701E18AF6520EC896202219D8D0
FILE: 02 - Cruel.flac
  Size: 30640120 Hash: 73D26BC30D62D66E64CE51269AFA8268 Accuracy: -m0
  Conclusion: CDDA 100%
  Signature: 5A1A30E39A83E7055FE5A9D18EB4F544EC9CFAE6
FILE: 01 - Spark.flac
  Size: 30688481 Hash: 353A856A044C5E2A2F0196B6629C2932 Accuracy: -m0
  Conclusion: CDDA 100%
  Signature: 5C5312267AE55FCC3946FAB87D344F48D1BB5DD6
#777Издатель: Atlantic
Номер по каталогу: 7567 83242 2
Страна изготовитель: Europe
Продолжительность: 02:03:21

CD01 - Venus Orbiting

Трек лист:

01. Bliss [03:43]
02. Juarez [03:48]
03. Concertina [03:56]
04. Glory of the 80's [04:03]
05. Lust [03:54]
06. Suede [04:58]
07. Josephine [02:30]
08. Riot Poof [03:28]
09. Datura [08:25]
10. Spring Haze [04:45]
11. 1000 Oceans [04:19]

Продолжительность: 00:47:49
Код:
Код:
Exact Audio Copy V0.99 prebeta 4 from 23. January 2008

EAC extraction logfile from 25. November 2008, 14:54

Tori Amos / To Venus and Back - Venus Orbiting

Used drive  : HL-DT-STDVDRAM GSA-4163B   Adapter: 1  ID: 0

Read mode               : Secure
Utilize accurate stream : Yes
Defeat audio cache      : Yes
Make use of C2 pointers : No

Read offset correction                      : 667
Overread into Lead-In and Lead-Out          : No
Fill up missing offset samples with silence : Yes
Delete leading and trailing silent blocks   : No
Null samples used in CRC calculations       : Yes
Used interface                              : Installed external ASPI interface
Gap handling                                : Appended to previous track

Used output format              : User Defined Encoder
Selected bitrate                : 128 kBit/s
Quality                         : High
Add ID3 tag                     : No
Command line compressor         : C:\Programmi\Codec Audio\FLAC\flac.exe
Additional command line options : -8 -V -T "artist=%a" -T "title=%t" -T "album=%g" -T "date=%y" -T "tracknumber=%n" -T "genre=%m" %s

TOC of the extracted CD

     Track |   Start  |  Length  | Start sector | End sector
    ---------------------------------------------------------
        1  |  0:00.00 |  3:42.65 |         0    |    16714
        2  |  3:42.65 |  3:48.05 |     16715    |    33819
        3  |  7:30.70 |  3:56.17 |     33820    |    51536
        4  | 11:27.12 |  4:03.23 |     51537    |    69784
        5  | 15:30.35 |  3:53.62 |     69785    |    87321
        6  | 19:24.22 |  4:58.18 |     87322    |   109689
        7  | 24:22.40 |  2:29.62 |    109690    |   120926
        8  | 26:52.27 |  3:28.33 |    120927    |   136559
        9  | 30:20.60 |  8:25.32 |    136560    |   174466
       10  | 38:46.17 |  4:44.55 |    174467    |   195821
       11  | 43:30.72 |  4:19.03 |    195822    |   215249

Track  1

     Filename E:\CDRip\01 - Bliss.wav

     Pre-gap length  0:00:02.00

     Peak level 99.8 %
     Track quality 100.0 %
     Test CRC F8AD8D82
     Copy CRC F8AD8D82
     Accurately ripped (confidence 85)  [863402F6]
     Copy OK

Track  2

     Filename E:\CDRip\02 - Juarez.wav

     Pre-gap length  0:00:01.65

     Peak level 99.8 %
     Track quality 100.0 %
     Test CRC 30324355
     Copy CRC 30324355
     Accurately ripped (confidence 84)  [3F408914]
     Copy OK

Track  3

     Filename E:\CDRip\03 - Concertina.wav

     Pre-gap length  0:00:01.23

     Peak level 98.7 %
     Track quality 100.0 %
     Test CRC 02933054
     Copy CRC 02933054
     Accurately ripped (confidence 84)  [8F68498A]
     Copy OK

Track  4

     Filename E:\CDRip\04 - Glory of the 80's.wav

     Pre-gap length  0:00:00.40

     Peak level 99.9 %
     Track quality 100.0 %
     Test CRC DAC02805
     Copy CRC DAC02805
     Accurately ripped (confidence 84)  [CE434432]
     Copy OK

Track  5

     Filename E:\CDRip\05 - Lust.wav

     Pre-gap length  0:00:01.05

     Peak level 97.7 %
     Track quality 100.0 %
     Test CRC 6347068C
     Copy CRC 6347068C
     Accurately ripped (confidence 84)  [4D65C400]
     Copy OK

Track  6

     Filename E:\CDRip\06 - Suede.wav

     Pre-gap length  0:00:00.72

     Peak level 97.5 %
     Track quality 100.0 %
     Test CRC CC30624E
     Copy CRC CC30624E
     Accurately ripped (confidence 84)  [F7170B8F]
     Copy OK

Track  7

     Filename E:\CDRip\07 - Josephine.wav

     Pre-gap length  0:00:01.30

     Peak level 96.8 %
     Track quality 100.0 %
     Test CRC 9A73AE55
     Copy CRC 9A73AE55
     Accurately ripped (confidence 84)  [58E4AF95]
     Copy OK

Track  8

     Filename E:\CDRip\08 - Riot Poof.wav

     Peak level 98.3 %
     Track quality 100.0 %
     Test CRC 3E3AA068
     Copy CRC 3E3AA068
     Accurately ripped (confidence 84)  [EBE375C7]
     Copy OK

Track  9

     Filename E:\CDRip\09 - Datura.wav

     Pre-gap length  0:00:00.30

     Peak level 99.8 %
     Track quality 100.0 %
     Test CRC E5EAA9DC
     Copy CRC E5EAA9DC
     Accurately ripped (confidence 83)  [CB99E063]
     Copy OK

Track 10

     Filename E:\CDRip\10 - Spring Haze.wav

     Peak level 99.8 %
     Track quality 100.0 %
     Test CRC 17247610
     Copy CRC 17247610
     Accurately ripped (confidence 86)  [10E1E6AA]
     Copy OK

Track 11

     Filename E:\CDRip\11 - 1000 Oceans.wav

     Pre-gap length  0:00:01.52

     Peak level 98.8 %
     Track quality 99.9 %
     Test CRC 2D6F34A2
     Copy CRC 2D6F34A2
     Accurately ripped (confidence 84)  [24EC5381]
     Copy OK

All tracks accurately ripped

No errors occurred

End of status report
Код:
Код:
-----------------------

DON'T MODIFY THIS FILE

-----------------------

PERFORMER: auCDtect Task Manager, ver. 1.6.0 RC1 build 1.6.0.1
Copyright (c) 2008-2010 y-soft. All rights reserved
http:/y-soft.org

ANALYZER: auCDtect: CD records authenticity detector, version 0.8.2
Copyright (c) 2004 Oleg Berngardt. All rights reserved.
Copyright (c) 2004 Alexander Djourik. All rights reserved.

FILE: 11 - 1000 Oceans.flac
  Size: 29248327 Hash: AE4C3535E5080116CECF3B5235D22C84 Accuracy: -m0
  Conclusion: CDDA 100%
  Signature: BBEDCCC6B1EAA4DEAAA772EE1064712DCC45F9FD
FILE: 10 - Spring Haze.flac
  Size: 29667884 Hash: F0156E20C81DDDA6A6F2EE8853EC1860 Accuracy: -m0
  Conclusion: CDDA 100%
  Signature: 8CB8C06B36248FAB84E578D5E7840960C2452132
FILE: 09 - Datura.flac
  Size: 55774712 Hash: 48838E5357BDCE791705856C6C3FF766 Accuracy: -m0
  Conclusion: CDDA 100%
  Signature: DAECA1F7B1BE7D1B496339D32BBAACDF99442283
FILE: 08 - Riot Poof.flac
  Size: 25457966 Hash: 86ACEE01C4F69E1ACFCD3333E4DD55E0 Accuracy: -m0
  Conclusion: CDDA 100%
  Signature: 27061766CD782D91F4E5AEB1E727E41BFCD23A8E
FILE: 07 - Josephine.flac
  Size: 15352989 Hash: A949F459A5DEEA49708441190543E445 Accuracy: -m0
  Conclusion: CDDA 100%
  Signature: 939F17F0F8B19EC6D4DA9CC167D0A88856207392
FILE: 06 - Suede.flac
  Size: 31920394 Hash: 04AC9DC70633F51EF13338C1060C20EA Accuracy: -m0
  Conclusion: CDDA 100%
  Signature: 78F7F5F53B69CBF451EEBF78DB0D3805121A64FD
FILE: 05 - Lust.flac
  Size: 24135769 Hash: 817A6274FA0B9E3214D0A1BC5B0A707C Accuracy: -m0
  Conclusion: CDDA 100%
  Signature: 594E2C99E5F1944856ABDF3245ACA746CE1B9957
FILE: 04 - Glory of the 80's.flac
  Size: 32243123 Hash: C07E1B0EE1588407B8D2C5151000461B Accuracy: -m0
  Conclusion: CDDA 100%
  Signature: B755AAB7DF13DBE23CD8638B849C7A70E8D3C796
FILE: 03 - Concertina.flac
  Size: 27315017 Hash: 4CFF795BC1606AFEDB82E5DD52561967 Accuracy: -m0
  Conclusion: CDDA 100%
  Signature: C57C735F285FD525699FEC52261CBAB826BAF8D0
FILE: 02 - Juarez.flac
  Size: 27277766 Hash: 602206013B176C6B015A9703C930CCE1 Accuracy: -m0
  Conclusion: CDDA 100%
  Signature: 7AA65FD197301B6C109DA67525619BD00F44A1F3
FILE: 01 - Bliss.flac
  Size: 24077996 Hash: 25D39EF67CC43184F16A36CA48E89731 Accuracy: -m0
  Conclusion: CDDA 99%
  Signature: E2555038B2E23C3E3F8E3F58ECEEDC64F96DA4CA
Трек лист:

01. Precious Things [07:38]
02. Cruel [06:48]
03. Cornflake Girl [06:32]
04. Bells for Her [05:43]
05. Girl [04:15]
06. Cooling [05:09]
07. Mr. Zebra [01:18]
08. Cloud on My Tongue [04:59]
09. Sugar [05:10]
10. Little Earthquakes [07:38]
11. Space Dog [05:47]
12. Waitress [10:24]
13. Purple People [04:11]

Продолжительность: 01:15:32
Код:
Код:
Exact Audio Copy V0.99 prebeta 4 from 23. January 2008

EAC extraction logfile from 25. November 2008, 15:33

Tori Amos / To Venus and Back - Venus Live, Still Orbiting

Used drive  : HL-DT-STDVDRAM GSA-4163B   Adapter: 1  ID: 0

Read mode               : Secure
Utilize accurate stream : Yes
Defeat audio cache      : Yes
Make use of C2 pointers : No

Read offset correction                      : 667
Overread into Lead-In and Lead-Out          : No
Fill up missing offset samples with silence : Yes
Delete leading and trailing silent blocks   : No
Null samples used in CRC calculations       : Yes
Used interface                              : Installed external ASPI interface
Gap handling                                : Appended to previous track

Used output format              : User Defined Encoder
Selected bitrate                : 128 kBit/s
Quality                         : High
Add ID3 tag                     : No
Command line compressor         : C:\Programmi\Codec Audio\FLAC\flac.exe
Additional command line options : -8 -V -T "artist=%a" -T "title=%t" -T "album=%g" -T "date=%y" -T "tracknumber=%n" -T "genre=%m" %s

TOC of the extracted CD

     Track |   Start  |  Length  | Start sector | End sector
    ---------------------------------------------------------
        1  |  0:00.00 |  7:38.05 |         0    |    34354
        2  |  7:38.05 |  6:47.67 |     34355    |    64946
        3  | 14:25.72 |  6:31.73 |     64947    |    94344
        4  | 20:57.70 |  5:42.65 |     94345    |   120059
        5  | 26:40.60 |  4:15.35 |    120060    |   139219
        6  | 30:56.20 |  5:09.10 |    139220    |   162404
        7  | 36:05.30 |  1:17.60 |    162405    |   168239
        8  | 37:23.15 |  4:58.57 |    168240    |   190646
        9  | 42:21.72 |  5:10.05 |    190647    |   213901
       10  | 47:32.02 |  7:37.58 |    213902    |   248234
       11  | 55:09.60 |  5:46.67 |    248235    |   274251
       12  | 60:56.52 | 10:24.05 |    274252    |   321056
       13  | 71:20.57 |  4:11.33 |    321057    |   339914

Track  1

     Filename E:\CDRip\01 - Precious Things.wav

     Pre-gap length  0:00:02.00

     Peak level 98.8 %
     Track quality 100.0 %
     Test CRC 63A091EA
     Copy CRC 63A091EA
     Accurately ripped (confidence 77)  [BC71F045]
     Copy OK

Track  2

     Filename E:\CDRip\02 - Cruel.wav

     Peak level 99.8 %
     Track quality 100.0 %
     Test CRC C6962D27
     Copy CRC C6962D27
     Accurately ripped (confidence 76)  [186973F5]
     Copy OK

Track  3

     Filename E:\CDRip\03 - Cornflake Girl.wav

     Peak level 99.9 %
     Track quality 100.0 %
     Test CRC F7407A24
     Copy CRC F7407A24
     Accurately ripped (confidence 77)  [C264FD90]
     Copy OK

Track  4

     Filename E:\CDRip\04 - Bells for Her.wav

     Peak level 97.8 %
     Track quality 100.0 %
     Test CRC 6402794D
     Copy CRC 6402794D
     Accurately ripped (confidence 77)  [EB9E8CCB]
     Copy OK

Track  5

     Filename E:\CDRip\05 - Girl.wav

     Peak level 99.8 %
     Track quality 100.0 %
     Test CRC 3E15369A
     Copy CRC 3E15369A
     Accurately ripped (confidence 76)  [C8D8EF94]
     Copy OK

Track  6

     Filename E:\CDRip\06 - Cooling.wav

     Peak level 96.9 %
     Track quality 99.9 %
     Test CRC 36D86309
     Copy CRC 36D86309
     Accurately ripped (confidence 76)  [C3E11B46]
     Copy OK

Track  7

     Filename E:\CDRip\07 - Mr. Zebra.wav

     Peak level 80.1 %
     Track quality 100.0 %
     Test CRC B311EF7F
     Copy CRC B311EF7F
     Accurately ripped (confidence 77)  [EF2BE89F]
     Copy OK

Track  8

     Filename E:\CDRip\08 - Cloud on My Tongue.wav

     Peak level 97.2 %
     Track quality 100.0 %
     Test CRC ACF75F12
     Copy CRC ACF75F12
     Accurately ripped (confidence 74)  [B124E2C8]
     Copy OK

Track  9

     Filename E:\CDRip\09 - Sugar.wav

     Pre-gap length  0:00:00.32

     Peak level 99.8 %
     Track quality 100.0 %
     Test CRC 315D0BEF
     Copy CRC 315D0BEF
     Accurately ripped (confidence 77)  [3E2E0A58]
     Copy OK

Track 10

     Filename E:\CDRip\10 - Little Earthquakes.wav

     Peak level 95.8 %
     Track quality 100.0 %
     Test CRC B0851E1A
     Copy CRC B0851E1A
     Accurately ripped (confidence 76)  [D0CB7823]
     Copy OK

Track 11

     Filename E:\CDRip\11 - Space Dog.wav

     Peak level 99.8 %
     Track quality 100.0 %
     Test CRC FB6EC2E2
     Copy CRC FB6EC2E2
     Accurately ripped (confidence 75)  [32C04089]
     Copy OK

Track 12

     Filename E:\CDRip\12 - Waitress.wav

     Peak level 99.8 %
     Track quality 100.0 %
     Test CRC 367B6A2A
     Copy CRC 367B6A2A
     Accurately ripped (confidence 76)  [5DE5A18E]
     Copy OK

Track 13

     Filename E:\CDRip\13 - Purple People.wav

     Peak level 98.2 %
     Track quality 100.0 %
     Test CRC 3C8AD660
     Copy CRC 3C8AD660
     Accurately ripped (confidence 73)  [5B9B6B7D]
     Copy OK

All tracks accurately ripped

No errors occurred

End of status report
Код:
Код:
-----------------------

DON'T MODIFY THIS FILE

-----------------------

PERFORMER: auCDtect Task Manager, ver. 1.6.0 RC1 build 1.6.0.1
Copyright (c) 2008-2010 y-soft. All rights reserved
http:/y-soft.org

ANALYZER: auCDtect: CD records authenticity detector, version 0.8.2
Copyright (c) 2004 Oleg Berngardt. All rights reserved.
Copyright (c) 2004 Alexander Djourik. All rights reserved.

FILE: 13 - Purple People.flac
  Size: 26976010 Hash: 2485A2DB8407CC5B526046B313BB9095 Accuracy: -m0
  Conclusion: CDDA 100%
  Signature: 4EB8C2AAB8CDAC9554C6886A9BDFBAAA2CE68848
FILE: 12 - Waitress.flac
  Size: 73242507 Hash: 6A27648FDFEA85E3883F3EF5EB94DCC5 Accuracy: -m0
  Conclusion: CDDA 100%
  Signature: BE9D8D76483F090C9AA3CE3DFE470E4503E08D81
FILE: 11 - Space Dog.flac
  Size: 40677928 Hash: 9DE5AEBC132BCEFD34417568D65AAF11 Accuracy: -m0
  Conclusion: CDDA 100%
  Signature: 459A3AB88D18044C8A1F86859F8334DD63DCC5FD
FILE: 10 - Little Earthquakes.flac
  Size: 46184543 Hash: 9225DC05C4C229BF4454A42A5E0953CC Accuracy: -m0
  Conclusion: CDDA 100%
  Signature: 7E3D45837FB15683E5C4BA64C5D78BE32E133B7C
FILE: 09 - Sugar.flac
  Size: 36999964 Hash: A8DFD37088DBA79C9ACC1D2C9438E75A Accuracy: -m0
  Conclusion: CDDA 100%
  Signature: 7CBE9FE845B488A40A73BE33FD578FDBB3EDA9BA
FILE: 08 - Cloud on My Tongue.flac
  Size: 30855099 Hash: 0B0B262E74AAB504DB2E9B2B036C127B Accuracy: -m0
  Conclusion: CDDA 100%
  Signature: BEA56113150646F94BAC2372439873621FC9A686
FILE: 07 - Mr. Zebra.flac
  Size: 8280542 Hash: FA92FB73B38F2B72088957AC67610F0B Accuracy: -m0
  Conclusion: CDDA 100%
  Signature: 70A5F97B0E80A207176DFA5FD33442FE5C5CEB52
FILE: 06 - Cooling.flac
  Size: 29998456 Hash: C134B39BBC7C6942AB1E0F663E3DE950 Accuracy: -m0
  Conclusion: CDDA 100%
  Signature: 68E280AE6D00EF9DCA050DA3E370B82884C69819
FILE: 05 - Girl.flac
  Size: 29417379 Hash: 964B9591AF26889121DE9F08185D4BFB Accuracy: -m0
  Conclusion: CDDA 100%
  Signature: DB98C01DF583B8A95E8D719AEB23C5A25F0D20CF
FILE: 04 - Bells for Her.flac
  Size: 36277216 Hash: 867F3D69F1C09BC1C7727C564540666C Accuracy: -m0
  Conclusion: CDDA 100%
  Signature: 6F43CFD6923EB3F3FAE10A15D55579632EE3D990
FILE: 03 - Cornflake Girl.flac
  Size: 48008134 Hash: 59CF9C65B231F7075DFCCE7FB30AC9EC Accuracy: -m0
  Conclusion: CDDA 100%
  Signature: B51B09582FE76DEFE7FE0F5B31257ACF1E83C335
FILE: 02 - Cruel.flac
  Size: 51628647 Hash: 3798FB2FE82F2049F6F37734391B6CBC Accuracy: -m0
  Conclusion: CDDA 100%
  Signature: 229DDE3146A61DA46B24C4ED28C87B4E9504DA67
FILE: 01 - Precious Things.flac
  Size: 52704173 Hash: F42879CEA5966988AE81449DA047B22B Accuracy: -m0
  Conclusion: CDDA 100%
  Signature: B6050673EF4C4D5F3C041A72BC014F1009564E7E
Правила, инструкции, FAQ!!!
Торрент  Добавлен [16 мар 2014, 00:52] Скачать торрент Магнет ссылка
Скачать торрент
[ Размер 20.1 КБ / Просмотров 37 ]

Статус  
 
Размер  1.22 ГБ
Приватный: Нет (DHT включён)
.torrent скачан  1
 


     Отправить личное сообщение
   
Страница 1 из 1
Показать сообщения за:  Поле сортировки  
Начать новую тему Ответить на тему


Сейчас этот форум просматривают: нет зарегистрированных пользователей и гости: 0


Вы не можете начинать темы
Вы не можете отвечать на сообщения
Вы не можете редактировать свои сообщения
Вы не можете удалять свои сообщения
Вы не можете добавлять вложения

Перейти:  
cron