Начать новую тему Ответить на тему
Статистика раздачи
Размер: 1.11 ГБ | Добавлен: 16 мар 2014, 00:52 | Скачали: 3
Сидеров: 4  [0 байт/сек]    Личеров: 1  [0 байт/сек]
Пред. тема | След. тема 

Автор
Сообщение

СообщениеДобавлено: 16 мар 2014, 00:52 

Ответить с цитатой 


Tonight Alive
- Дискография





Год выпуска: 2010-2013
Жанр: Alternative Rock | Pop Punk | Female Vocal
Продолжительность: 02:24:53
Тип издания: Дискография
Страна: Австралия



Треклист:

01. To Die For
02. Invincible
03. Wasting Away
04. Closer
05. My Favourite Thing
06. Ten Times Better
07. Rooftop To The Street
08. In My Eyes
09. Revenge And Its Thrills
10. 5 Years
11. Thank You And Goodnight
12. Invincible (Acoustic)

Продолжительность: 00:36:16

Код:
Код:
X Lossless Decoder version 20101010 (123.3)

XLD extraction logfile from 2010-10-11 20:20:54 +1100

Tonight Alive / All Shapes & Disguises (Japan)

Used drive : MATSHITA DVD-R   UJ-898 (revision HC09)

Use cdparanoia mode     : YES (CDParanoia III 10.2 engine)
Disable audio cache     : OK for the drive with cache less than 2750KB
Make use of C2 pointers : NO
Read offset correction  : 102
Max retry count         : 100
Gap status              : Analyzed, Appended

TOC of the extracted CD
     Track |   Start  |  Length  | Start sector | End sector
    ---------------------------------------------------------
        1  | 00:00:00 | 03:26:12 |         0    |    15461
        2  | 03:26:12 | 02:30:05 |     15462    |    26716
        3  | 05:56:17 | 02:52:56 |     26717    |    39672
        4  | 08:48:73 | 02:58:51 |     39673    |    53073
        5  | 11:47:49 | 03:10:06 |     53074    |    67329
        6  | 14:57:55 | 02:57:62 |     67330    |    80666
        7  | 17:55:42 | 03:35:65 |     80667    |    96856
        8  | 21:31:32 | 03:06:57 |     96857    |   110863
        9  | 24:38:14 | 02:50:33 |    110864    |   123646
       10  | 27:28:47 | 02:51:66 |    123647    |   136537
       11  | 30:20:38 | 03:17:21 |    136538    |   151333
       12  | 33:37:59 | 02:38:48 |    151334    |   163231
       13  | 38:48:32 | 19:38:66 |    174632    |   263047

All Tracks
    Album gain             : -10.10 dB
    Peak                   : 1.000000

Track 01
    Filename : /Users/Simon/Desktop/Tonight Alive - ASAD (Japan) - 2010 (FLAC)/01 - To Die For.flac
               /Users/Simon/Desktop/Tonight Alive - ASAD (Japan) - 2010 (FLAC)/01 - To Die For.mp3
    Pre-gap length : 00:02:00

    Track gain             : -10.10 dB
    Peak                   : 1.000000
    CRC32 hash (test run)  : 7E67FDC1
    CRC32 hash             : 7E67FDC1
    CRC32 hash (skip zero) : 521DF528
    AccurateRip signature  : 83AD610C
        ->Track not present in AccurateRip database.
    Statistics
        Read error                           : 0
        Skipped (treated as error)           : 0
        Edge jitter error (maybe fixed)      : 0
        Atom jitter error (maybe fixed)      : 0
        Drift error (maybe fixed)            : 0
        Dropped bytes error (maybe fixed)    : 0
        Duplicated bytes error (maybe fixed) : 0
        Inconsistency in error sectors       : 0

Track 02
    Filename : /Users/Simon/Desktop/Tonight Alive - ASAD (Japan) - 2010 (FLAC)/02 - Invincible.flac
               /Users/Simon/Desktop/Tonight Alive - ASAD (Japan) - 2010 (FLAC)/02 - Invincible.mp3
    Pre-gap length : 00:02:00

    Track gain             : -10.66 dB
    Peak                   : 0.997528
    CRC32 hash (test run)  : F6F7A30D
    CRC32 hash             : F6F7A30D
    CRC32 hash (skip zero) : 9172FB75
    AccurateRip signature  : A9823E10
        ->Track not present in AccurateRip database.
    Statistics
        Read error                           : 0
        Skipped (treated as error)           : 0
        Edge jitter error (maybe fixed)      : 0
        Atom jitter error (maybe fixed)      : 0
        Drift error (maybe fixed)            : 0
        Dropped bytes error (maybe fixed)    : 0
        Duplicated bytes error (maybe fixed) : 0
        Inconsistency in error sectors       : 0

Track 03
    Filename : /Users/Simon/Desktop/Tonight Alive - ASAD (Japan) - 2010 (FLAC)/03 - Wasting Away.flac
               /Users/Simon/Desktop/Tonight Alive - ASAD (Japan) - 2010 (FLAC)/03 - Wasting Away.mp3
    Pre-gap length : 00:02:00

    Track gain             : -8.70 dB
    Peak                   : 0.839294
    CRC32 hash (test run)  : 2A840C21
    CRC32 hash             : 2A840C21
    CRC32 hash (skip zero) : 6395322D
    AccurateRip signature  : 66C11254
        ->Track not present in AccurateRip database.
    Statistics
        Read error                           : 0
        Skipped (treated as error)           : 0
        Edge jitter error (maybe fixed)      : 0
        Atom jitter error (maybe fixed)      : 0
        Drift error (maybe fixed)            : 0
        Dropped bytes error (maybe fixed)    : 0
        Duplicated bytes error (maybe fixed) : 0
        Inconsistency in error sectors       : 0

Track 04
    Filename : /Users/Simon/Desktop/Tonight Alive - ASAD (Japan) - 2010 (FLAC)/04 - Closer.flac
               /Users/Simon/Desktop/Tonight Alive - ASAD (Japan) - 2010 (FLAC)/04 - Closer.mp3
    Pre-gap length : 00:02:00

    Track gain             : -9.24 dB
    Peak                   : 0.973663
    CRC32 hash (test run)  : 4EF27B3F
    CRC32 hash             : 4EF27B3F
    CRC32 hash (skip zero) : 7971446C
    AccurateRip signature  : 90615CA9
        ->Track not present in AccurateRip database.
    Statistics
        Read error                           : 0
        Skipped (treated as error)           : 0
        Edge jitter error (maybe fixed)      : 0
        Atom jitter error (maybe fixed)      : 0
        Drift error (maybe fixed)            : 0
        Dropped bytes error (maybe fixed)    : 0
        Duplicated bytes error (maybe fixed) : 0
        Inconsistency in error sectors       : 0

Track 05
    Filename : /Users/Simon/Desktop/Tonight Alive - ASAD (Japan) - 2010 (FLAC)/05 - My Favourite Thing.flac
               /Users/Simon/Desktop/Tonight Alive - ASAD (Japan) - 2010 (FLAC)/05 - My Favourite Thing.mp3
    Pre-gap length : 00:02:00

    Track gain             : -9.32 dB
    Peak                   : 0.997498
    CRC32 hash (test run)  : E9D494A6
    CRC32 hash             : E9D494A6
    CRC32 hash (skip zero) : 7F8600A1
    AccurateRip signature  : 831C3202
        ->Track not present in AccurateRip database.
    Statistics
        Read error                           : 0
        Skipped (treated as error)           : 0
        Edge jitter error (maybe fixed)      : 0
        Atom jitter error (maybe fixed)      : 0
        Drift error (maybe fixed)            : 0
        Dropped bytes error (maybe fixed)    : 0
        Duplicated bytes error (maybe fixed) : 0
        Inconsistency in error sectors       : 0

Track 06
    Filename : /Users/Simon/Desktop/Tonight Alive - ASAD (Japan) - 2010 (FLAC)/06 - Ten Times Better.flac
               /Users/Simon/Desktop/Tonight Alive - ASAD (Japan) - 2010 (FLAC)/06 - Ten Times Better.mp3
    Pre-gap length : 00:02:00

    Track gain             : -9.73 dB
    Peak                   : 0.996704
    CRC32 hash (test run)  : 1C085A9A
    CRC32 hash             : 1C085A9A
    CRC32 hash (skip zero) : C876FC13
    AccurateRip signature  : 77CB09DF
        ->Track not present in AccurateRip database.
    Statistics
        Read error                           : 0
        Skipped (treated as error)           : 0
        Edge jitter error (maybe fixed)      : 0
        Atom jitter error (maybe fixed)      : 0
        Drift error (maybe fixed)            : 0
        Dropped bytes error (maybe fixed)    : 0
        Duplicated bytes error (maybe fixed) : 0
        Inconsistency in error sectors       : 0

Track 07
    Filename : /Users/Simon/Desktop/Tonight Alive - ASAD (Japan) - 2010 (FLAC)/07 - Rooftop To The Street.flac
               /Users/Simon/Desktop/Tonight Alive - ASAD (Japan) - 2010 (FLAC)/07 - Rooftop To The Street.mp3
    Pre-gap length : 00:02:00

    Track gain             : -8.68 dB
    Peak                   : 0.998596
    CRC32 hash (test run)  : 7CDBA80B
    CRC32 hash             : 7CDBA80B
    CRC32 hash (skip zero) : AE502B84
    AccurateRip signature  : E4C26D8B
        ->Track not present in AccurateRip database.
    Statistics
        Read error                           : 0
        Skipped (treated as error)           : 0
        Edge jitter error (maybe fixed)      : 0
        Atom jitter error (maybe fixed)      : 0
        Drift error (maybe fixed)            : 0
        Dropped bytes error (maybe fixed)    : 0
        Duplicated bytes error (maybe fixed) : 0
        Inconsistency in error sectors       : 0

Track 08
    Filename : /Users/Simon/Desktop/Tonight Alive - ASAD (Japan) - 2010 (FLAC)/08 - In My Eyes.flac
               /Users/Simon/Desktop/Tonight Alive - ASAD (Japan) - 2010 (FLAC)/08 - In My Eyes.mp3
    Pre-gap length : 00:02:00

    Track gain             : -9.02 dB
    Peak                   : 0.997498
    CRC32 hash (test run)  : 48DF3632
    CRC32 hash             : 48DF3632
    CRC32 hash (skip zero) : 20552AD8
    AccurateRip signature  : 0370946F
        ->Track not present in AccurateRip database.
    Statistics
        Read error                           : 0
        Skipped (treated as error)           : 0
        Edge jitter error (maybe fixed)      : 0
        Atom jitter error (maybe fixed)      : 0
        Drift error (maybe fixed)            : 0
        Dropped bytes error (maybe fixed)    : 0
        Duplicated bytes error (maybe fixed) : 0
        Inconsistency in error sectors       : 0

Track 09
    Filename : /Users/Simon/Desktop/Tonight Alive - ASAD (Japan) - 2010 (FLAC)/09 - Revenge And Its Thrills.flac
               /Users/Simon/Desktop/Tonight Alive - ASAD (Japan) - 2010 (FLAC)/09 - Revenge And Its Thrills.mp3
    Pre-gap length : 00:02:00

    Track gain             : -11.01 dB
    Peak                   : 1.000000
    CRC32 hash (test run)  : 7285E463
    CRC32 hash             : 7285E463
    CRC32 hash (skip zero) : 3A636ED0
    AccurateRip signature  : 10DEA854
        ->Track not present in AccurateRip database.
    Statistics
        Read error                           : 0
        Skipped (treated as error)           : 0
        Edge jitter error (maybe fixed)      : 0
        Atom jitter error (maybe fixed)      : 0
        Drift error (maybe fixed)            : 0
        Dropped bytes error (maybe fixed)    : 0
        Duplicated bytes error (maybe fixed) : 0
        Inconsistency in error sectors       : 0

Track 10
    Filename : /Users/Simon/Desktop/Tonight Alive - ASAD (Japan) - 2010 (FLAC)/10 - 5 Years.flac
               /Users/Simon/Desktop/Tonight Alive - ASAD (Japan) - 2010 (FLAC)/10 - 5 Years.mp3
    Pre-gap length : 00:02:00

    Track gain             : -10.69 dB
    Peak                   : 0.941711
    CRC32 hash (test run)  : 8D0ACD35
    CRC32 hash             : 8D0ACD35
    CRC32 hash (skip zero) : 94567D82
    AccurateRip signature  : 2A050EB4
        ->Track not present in AccurateRip database.
    Statistics
        Read error                           : 0
        Skipped (treated as error)           : 0
        Edge jitter error (maybe fixed)      : 0
        Atom jitter error (maybe fixed)      : 0
        Drift error (maybe fixed)            : 0
        Dropped bytes error (maybe fixed)    : 0
        Duplicated bytes error (maybe fixed) : 0
        Inconsistency in error sectors       : 0

Track 11
    Filename : /Users/Simon/Desktop/Tonight Alive - ASAD (Japan) - 2010 (FLAC)/11 - Thank You And Goodnight.flac
               /Users/Simon/Desktop/Tonight Alive - ASAD (Japan) - 2010 (FLAC)/11 - Thank You And Goodnight.mp3
    Pre-gap length : 00:02:00

    Track gain             : -10.19 dB
    Peak                   : 0.997498
    CRC32 hash (test run)  : 7666BADC
    CRC32 hash             : 7666BADC
    CRC32 hash (skip zero) : 3B305FFA
    AccurateRip signature  : 82B615B2
        ->Track not present in AccurateRip database.
    Statistics
        Read error                           : 0
        Skipped (treated as error)           : 0
        Edge jitter error (maybe fixed)      : 0
        Atom jitter error (maybe fixed)      : 0
        Drift error (maybe fixed)            : 0
        Dropped bytes error (maybe fixed)    : 0
        Duplicated bytes error (maybe fixed) : 0
        Inconsistency in error sectors       : 0

Track 12
    Filename : /Users/Simon/Desktop/Tonight Alive - ASAD (Japan) - 2010 (FLAC)/12 - Invincible (Acoustic).flac
               /Users/Simon/Desktop/Tonight Alive - ASAD (Japan) - 2010 (FLAC)/12 - Invincible (Acoustic).mp3
    Pre-gap length : 00:02:00

    Track gain             : -6.83 dB
    Peak                   : 0.839325
    CRC32 hash (test run)  : A3ED2284
    CRC32 hash             : A3ED2284
    CRC32 hash (skip zero) : CFCB1BF1
    AccurateRip signature  : E0B6E0E0
        ->Track not present in AccurateRip database.
    Statistics
        Read error                           : 0
        Skipped (treated as error)           : 0
        Edge jitter error (maybe fixed)      : 0
        Atom jitter error (maybe fixed)      : 0
        Drift error (maybe fixed)            : 0
        Dropped bytes error (maybe fixed)    : 0
        Duplicated bytes error (maybe fixed) : 0
        Inconsistency in error sectors       : 0

No errors occurred

End of status report

Код:
Код:
-----------------------

DON'T MODIFY THIS FILE

-----------------------

PERFORMER: auCDtect Task Manager, ver. 1.5.1RC6 build 1.5.1.7
Copyright (c) 2008-2010 y-soft. All rights reserved
http:/y-soft.org

ANALYZER: auCDtect: CD records authenticity detector, version 0.8.2
Copyright (c) 2004 Oleg Berngardt. All rights reserved.
Copyright (c) 2004 Alexander Djourik. All rights reserved.

FILE: 12. Tonight Alive - Invincible (Acoustic).flac
  Size: 19285883 Hash: DB7602A8106076912B5A3E21FD26F260 Accuracy: -m0
  Conclusion: CDDA 100%
  Signature: 9B465F526AC5701FC64A61E13C2D26DC5DB09135
FILE: 11. Tonight Alive - Thank You And Goodnight.flac
  Size: 26614712 Hash: 47D9971B18A02368EED1B97214B13B0F Accuracy: -m0
  Conclusion: CDDA 99%
  Signature: C477EC68BBB42C27162381EB0AB8096E50A00DAA
FILE: 10. Tonight Alive - 5 Years.flac
  Size: 23640750 Hash: A57AB64A86EA84BB1401287164C18D7E Accuracy: -m0
  Conclusion: CDDA 100%
  Signature: 91F2E6AEAD789163101E565A0706EB2124F7D1DC
FILE: 9. Tonight Alive - Revenge And Its Thrills.flac
  Size: 22494623 Hash: 893C32C4D6D801F342474287CB1C32CB Accuracy: -m0
  Conclusion: CDDA 100%
  Signature: B5381C498A7622F9BE12F99570F1F3628D533341
FILE: 8. Tonight Alive - In My Eyes.flac
  Size: 25279773 Hash: 8842AE144A64E222634A775EDC2A09D9 Accuracy: -m0
  Conclusion: CDDA 100%
  Signature: 7049C54C18881E193B80D7E95BECBEB302C79B4E
FILE: 7. Tonight Alive - Rooftop To The Street.flac
  Size: 27866272 Hash: 90716FCC8EC87D18D92DAEBB296EF2E5 Accuracy: -m0
  Conclusion: CDDA 100%
  Signature: 917A9F3D85B3596B341FF23CC7AC5BD8F56D2E3B
FILE: 6. Tonight Alive - Ten Times Better.flac
  Size: 24051032 Hash: 97A099CFF544EC0AF20936106D3BA8EA Accuracy: -m0
  Conclusion: CDDA 100%
  Signature: 01CE59B138CBFBE8428429BB7CA3856BC8DCF035
FILE: 5. Tonight Alive - My Favourite Thing.flac
  Size: 24463058 Hash: 4FCABE8DD54D32678698814135BAECF4 Accuracy: -m0
  Conclusion: CDDA 100%
  Signature: 9AC82CE676E07967D0F21EED92A8376BDB68884B
FILE: 4. Tonight Alive - Closer.flac
  Size: 24426667 Hash: 64C40242A3C6BD13248C744C2A36247B Accuracy: -m0
  Conclusion: CDDA 100%
  Signature: 0C9336FA3909B43D78AF4ADABDF4842CC7CACCC2
FILE: 3. Tonight Alive - Wasting Away.flac
  Size: 23186723 Hash: DCC3D360E9C3849A5B996341D19C02F8 Accuracy: -m0
  Conclusion: CDDA 100%
  Signature: 51B9C7B03127D2D10900CF23E743A72FAB94D003
FILE: 2. Tonight Alive - Invincible.flac
  Size: 20388926 Hash: B5CF0203995E38B0BA15BD7CCE433E81 Accuracy: -m0
  Conclusion: CDDA 100%
  Signature: 21BA5302862481557038AAF9DBD32769ABFD7187
FILE: 1. Tonight Alive - To Die For.flac
  Size: 27713600 Hash: 518E44534B2EA10851060FE1203138C5 Accuracy: -m0
  Conclusion: CDDA 100%
  Signature: 7C0246BDDB2F93C2FF3DF6040628B3CD46EC3108


#777Треклист:

01. Revenge & Its Thrills
02. 5 Years
03. Thank You & Goodnight

Продолжительность: 00:08:54


Код:
Код:
X Lossless Decoder version 20110821 (136.1)

XLD extraction logfile from 2011-09-23 17:42:38 -0700

Tonight Alive / Consider This EP

Used drive : HL-DT-ST DVDRW  GS23N (revision SB00)

Ripper mode             : XLD Secure Ripper
Disable audio cache     : OK for the drive with a cache less than 1375KiB
Make use of C2 pointers : NO
Read offset correction  : 667
Max retry count         : 100
Gap status              : Analyzed, Appended

TOC of the extracted CD
     Track |   Start  |  Length  | Start sector | End sector
    ---------------------------------------------------------
        1  | 00:01:00 | 02:48:35 |        75    |    12709
        2  | 02:49:35 | 02:49:64 |     12710    |    25448
        3  | 05:39:24 | 03:15:06 |     25449    |    40079

AccurateRip Summary
    Disc not found in AccurateRip DB.

All Tracks
    Album gain             : -10.71 dB
    Peak                   : 1.000000
    Statistics
        Read error                           : 0
        Jitter error (maybe fixed)           : 0
        Retry sector count                   : 0
        Damaged sector count                 : 0

Track 01
    Filename : /Users/tylermarsh/Music/XLD/01 - Revenge & Its Thrills.flac
               /Users/tylermarsh/Music/XLD/01 - Revenge & Its Thrills.mp3
               /Users/tylermarsh/Music/XLD/01 - Revenge & Its Thrills.m4a
    Pre-gap length : 00:03:00

    Track gain             : -11.04 dB
    Peak                   : 1.000000
    CRC32 hash (test run)  : 2D62B3BA
    CRC32 hash             : 2D62B3BA
    CRC32 hash (skip zero) : 946B26E3
    AccurateRip signature  : A4B73B65
        ->Track not present in AccurateRip database.
    Statistics
        Read error                           : 0
        Jitter error (maybe fixed)           : 0
        Retry sector count                   : 0
        Damaged sector count                 : 0

Track 02
    Filename : /Users/tylermarsh/Music/XLD/02 - 5 Years.flac
               /Users/tylermarsh/Music/XLD/02 - 5 Years.mp3
               /Users/tylermarsh/Music/XLD/02 - 5 Years.m4a

    Track gain             : -10.71 dB
    Peak                   : 0.941742
    CRC32 hash (test run)  : DF58D17B
    CRC32 hash             : DF58D17B
    CRC32 hash (skip zero) : 3B371EDE
    AccurateRip signature  : C0AC218A
        ->Track not present in AccurateRip database.
    Statistics
        Read error                           : 0
        Jitter error (maybe fixed)           : 0
        Retry sector count                   : 0
        Damaged sector count                 : 0

Track 03
    Filename : /Users/tylermarsh/Music/XLD/03 - Thank You & Goodnight.flac
               /Users/tylermarsh/Music/XLD/03 - Thank You & Goodnight.mp3
               /Users/tylermarsh/Music/XLD/03 - Thank You & Goodnight.m4a

    Track gain             : -10.16 dB
    Peak                   : 0.997498
    CRC32 hash (test run)  : 5AA7351B
    CRC32 hash             : 5AA7351B
    CRC32 hash (skip zero) : 96E67BB3
    AccurateRip signature  : 68A2AD3B
        ->Track not present in AccurateRip database.
    Statistics
        Read error                           : 0
        Jitter error (maybe fixed)           : 0
        Retry sector count                   : 0
        Damaged sector count                 : 0

No errors occurred

End of status report


Код:
Код:
-----------------------

DON'T MODIFY THIS FILE

-----------------------

PERFORMER: auCDtect Task Manager, ver. 1.5.1RC6 build 1.5.1.7
Copyright (c) 2008-2010 y-soft. All rights reserved
http:/y-soft.org

ANALYZER: auCDtect: CD records authenticity detector, version 0.8.2
Copyright (c) 2004 Oleg Berngardt. All rights reserved.
Copyright (c) 2004 Alexander Djourik. All rights reserved.

FILE: 03. Tonight Alive - Thank You & Goodnight.flac
  Size: 26554919 Hash: CB4AA3B174EBD61531358877005C26F2 Accuracy: -m0
  Conclusion: CDDA 99%
  Signature: F225CADAFCBCFF01F55D55802612F29BAFBEF265
FILE: 02. Tonight Alive - 5 Years.flac
  Size: 23589557 Hash: 52548DF69566302C75662CCDBA4E355A Accuracy: -m0
  Conclusion: CDDA 100%
  Signature: 4A5016934F195E0BE97BE9764D00B0060FC3E341
FILE: 01. Tonight Alive - Revenge & Its Thrills.flac
  Size: 22447943 Hash: 7DEB25E8C7AA25D0C59E72773540E6BD Accuracy: -m0
  Conclusion: CDDA 100%
  Signature: 23D1AC71AA07B36DA0E50A87F34724705E6B0DAA


#777Треклист:

01. Let It Land
02. Welcome
03. Fake It (Acoustic)
04. Listening (Acoustic)
05. Reason To Sing (Acoustic)

Продолжительность: 00:15:40


Код:
Код:
X Lossless Decoder version 20110821 (136.1)

XLD extraction logfile from 2011-10-20 16:57:02 +1100

Tonight Alive / Let It Land

Used drive : MATSHITA DVD-R   UJ-898 (revision HC09)

Ripper mode             : CDParanoia III 10.2
Disable audio cache     : OK for the drive with a cache less than 2750KiB
Make use of C2 pointers : NO
Read offset correction  : 102
Max retry count         : 100
Gap status              : Analyzed, Appended

TOC of the extracted CD
     Track |   Start  |  Length  | Start sector | End sector
    ---------------------------------------------------------
        1  | 00:00:00 | 03:33:73 |         0    |    16047
        2  | 03:33:73 | 02:53:74 |     16048    |    29096
        3  | 06:27:72 | 03:15:36 |     29097    |    43757
        4  | 09:43:33 | 02:54:66 |     43758    |    56873
        5  | 12:38:24 | 03:02:24 |     56874    |    70547

AccurateRip Summary
    Disc not found in AccurateRip DB.

All Tracks
    Album gain             : -10.42 dB
    Peak                   : 1.000000
    Statistics
        Read error                           : 0
        Skipped (treated as error)           : 0
        Edge jitter error (maybe fixed)      : 0
        Atom jitter error (maybe fixed)      : 0
        Drift error (maybe fixed)            : 0
        Dropped bytes error (maybe fixed)    : 0
        Duplicated bytes error (maybe fixed) : 0

Track 01
    Filename : /XLD/Tonight Alive - 2011 - Let It Land (FLAC)/01 - Let It Land.flac
               /XLD/Tonight Alive - 2011 - Let It Land (FLAC)/01 - Let It Land(LAME MP3 (VBR-new quality 0.0)).mp3
               /XLD/Tonight Alive - 2011 - Let It Land (FLAC)/01 - Let It Land(LAME MP3 (VBR-new quality 2.0)).mp3
               /XLD/Tonight Alive - 2011 - Let It Land (FLAC)/01 - Let It Land(LAME MP3 (CBR 320kbps)).mp3
    Pre-gap length : 00:02:00

    Track gain             : -9.51 dB
    Peak                   : 0.998871
    CRC32 hash (test run)  : E14E458A
    CRC32 hash             : E14E458A
    CRC32 hash (skip zero) : A9C67371
    AccurateRip signature  : 9A686714
        ->Track not present in AccurateRip database.
    Statistics
        Read error                           : 0
        Skipped (treated as error)           : 0
        Edge jitter error (maybe fixed)      : 0
        Atom jitter error (maybe fixed)      : 0
        Drift error (maybe fixed)            : 0
        Dropped bytes error (maybe fixed)    : 0
        Duplicated bytes error (maybe fixed) : 0
        Inconsistency in error sectors       : 0

Track 02
    Filename : /XLD/Tonight Alive - 2011 - Let It Land (FLAC)/02 - Welcome.flac
               /XLD/Tonight Alive - 2011 - Let It Land (FLAC)/02 - Welcome(LAME MP3 (VBR-new quality 0.0)).mp3
               /XLD/Tonight Alive - 2011 - Let It Land (FLAC)/02 - Welcome(LAME MP3 (VBR-new quality 2.0)).mp3
               /XLD/Tonight Alive - 2011 - Let It Land (FLAC)/02 - Welcome(LAME MP3 (CBR 320kbps)).mp3
    Pre-gap length : 00:02:42

    Track gain             : -8.63 dB
    Peak                   : 1.000000
    CRC32 hash (test run)  : 68E266D2
    CRC32 hash             : 68E266D2
    CRC32 hash (skip zero) : D89B544F
    AccurateRip signature  : 693325FF
        ->Track not present in AccurateRip database.
    Statistics
        Read error                           : 0
        Skipped (treated as error)           : 0
        Edge jitter error (maybe fixed)      : 0
        Atom jitter error (maybe fixed)      : 0
        Drift error (maybe fixed)            : 0
        Dropped bytes error (maybe fixed)    : 0
        Duplicated bytes error (maybe fixed) : 0
        Inconsistency in error sectors       : 0

Track 03
    Filename : /XLD/Tonight Alive - 2011 - Let It Land (FLAC)/03 - Fake It (Acoustic).flac
               /XLD/Tonight Alive - 2011 - Let It Land (FLAC)/03 - Fake It (Acoustic)(LAME MP3 (VBR-new quality 0.0)).mp3
               /XLD/Tonight Alive - 2011 - Let It Land (FLAC)/03 - Fake It (Acoustic)(LAME MP3 (VBR-new quality 2.0)).mp3
               /XLD/Tonight Alive - 2011 - Let It Land (FLAC)/03 - Fake It (Acoustic)(LAME MP3 (CBR 320kbps)).mp3
    Pre-gap length : 00:02:47

    Track gain             : -10.14 dB
    Peak                   : 1.000000
    CRC32 hash (test run)  : 42161668
    CRC32 hash             : 42161668
    CRC32 hash (skip zero) : D0AE3831
    AccurateRip signature  : C079F664
        ->Track not present in AccurateRip database.
    Statistics
        Read error                           : 0
        Skipped (treated as error)           : 0
        Edge jitter error (maybe fixed)      : 0
        Atom jitter error (maybe fixed)      : 0
        Drift error (maybe fixed)            : 0
        Dropped bytes error (maybe fixed)    : 0
        Duplicated bytes error (maybe fixed) : 0
        Inconsistency in error sectors       : 0

Track 04
    Filename : /XLD/Tonight Alive - 2011 - Let It Land (FLAC)/04 - Listening (Acoustic).flac
               /XLD/Tonight Alive - 2011 - Let It Land (FLAC)/04 - Listening (Acoustic)(LAME MP3 (VBR-new quality 0.0)).mp3
               /XLD/Tonight Alive - 2011 - Let It Land (FLAC)/04 - Listening (Acoustic)(LAME MP3 (VBR-new quality 2.0)).mp3
               /XLD/Tonight Alive - 2011 - Let It Land (FLAC)/04 - Listening (Acoustic)(LAME MP3 (CBR 320kbps)).mp3
    Pre-gap length : 00:02:33

    Track gain             : -10.95 dB
    Peak                   : 1.000000
    CRC32 hash (test run)  : 74B27E9A
    CRC32 hash             : 74B27E9A
    CRC32 hash (skip zero) : C8E76CEA
    AccurateRip signature  : 478CD41A
        ->Track not present in AccurateRip database.
    Statistics
        Read error                           : 0
        Skipped (treated as error)           : 0
        Edge jitter error (maybe fixed)      : 0
        Atom jitter error (maybe fixed)      : 0
        Drift error (maybe fixed)            : 0
        Dropped bytes error (maybe fixed)    : 0
        Duplicated bytes error (maybe fixed) : 0
        Inconsistency in error sectors       : 0

Track 05
    Filename : /XLD/Tonight Alive - 2011 - Let It Land (FLAC)/05 - Reason To Sing (Acoustic).flac
               /XLD/Tonight Alive - 2011 - Let It Land (FLAC)/05 - Reason To Sing (Acoustic)(LAME MP3 (VBR-new quality 0.0)).mp3
               /XLD/Tonight Alive - 2011 - Let It Land (FLAC)/05 - Reason To Sing (Acoustic)(LAME MP3 (VBR-new quality 2.0)).mp3
               /XLD/Tonight Alive - 2011 - Let It Land (FLAC)/05 - Reason To Sing (Acoustic)(LAME MP3 (CBR 320kbps)).mp3
    Pre-gap length : 00:02:47

    Track gain             : -10.91 dB
    Peak                   : 1.000000
    CRC32 hash (test run)  : 2B9CD196
    CRC32 hash             : 2B9CD196
    CRC32 hash (skip zero) : 35C08244
    AccurateRip signature  : 2EF83127
        ->Track not present in AccurateRip database.
    Statistics
        Read error                           : 0
        Skipped (treated as error)           : 0
        Edge jitter error (maybe fixed)      : 0
        Atom jitter error (maybe fixed)      : 0
        Drift error (maybe fixed)            : 0
        Dropped bytes error (maybe fixed)    : 0
        Duplicated bytes error (maybe fixed) : 0
        Inconsistency in error sectors       : 0

No errors occurred

End of status report


Код:
Код:
-----------------------

DON'T MODIFY THIS FILE

-----------------------

PERFORMER: auCDtect Task Manager, ver. 1.5.1RC6 build 1.5.1.7
Copyright (c) 2008-2010 y-soft. All rights reserved
http:/y-soft.org

ANALYZER: auCDtect: CD records authenticity detector, version 0.8.2
Copyright (c) 2004 Oleg Berngardt. All rights reserved.
Copyright (c) 2004 Alexander Djourik. All rights reserved.

FILE: 05. Tonight Alive - Reason To Sing (Acoustic).flac
  Size: 23644685 Hash: 6EF3BE9810368B24E7C47C3105B760D9 Accuracy: -m0
  Conclusion: CDDA 99%
  Signature: CB9515F9400DA6416CBE056DDEEA88C00060C489
FILE: 04. Tonight Alive - Listening (Acoustic).flac
  Size: 22091641 Hash: 75AF2F02C4E90AA5DD10506C16AF6FC5 Accuracy: -m0
  Conclusion: CDDA 100%
  Signature: D328405F62F5A05BF7AE9E3A4B9947828313050D
FILE: 03. Tonight Alive - Fake It (Acoustic).flac
  Size: 24882711 Hash: 10965619BC9673725D6EA4DA11427F3C Accuracy: -m0
  Conclusion: CDDA 100%
  Signature: EA7D44C59F72B558FE1CBE41A967D0010DE01639
FILE: 02. Tonight Alive - Welcome.flac
  Size: 21801909 Hash: 2C3E1688BE09B35C37A1331F4A8B65E6 Accuracy: -m0
  Conclusion: CDDA 100%
  Signature: 44A0F9C2E2136FFAB87980D36B0B38F20E1466AB
FILE: 01. Tonight Alive - Let It Land.flac
  Size: 26934449 Hash: AD9457F1A8BA60E6DE02BE930D6F9BFB Accuracy: -m0
  Conclusion: CDDA 100%
  Signature: 806733A34F86EABDAEDBD72FFC1C0A572EB6E95E


#777Треклист:

01. Eject, Eject, Eject!
02. Breaking And Entering
03. Starlight
04. Sure As Hell
05. Let It Land
06. Fake It
07. Listening
08. Reason To Sing
09. Safe And Sound
10. Thank You And Goodnight
11. Amelia
12. In The First Place
13. To Die For
14. What Are You So Scared Of?

Продолжительность: 00:44:05


Код:
Код:
Exact Audio Copy V1.0 beta 3 from 29. August 2011

EAC extraction logfile from 18. October 2011, 18:41

Tonight Alive / What Are You So Scared Of?

Used drive  : HL-DT-STDVDRWBD GBC-H20N   Adapter: 3  ID: 1

Read mode               : Secure
Utilize accurate stream : Yes
Defeat audio cache      : Yes
Make use of C2 pointers : No

Read offset correction                      : 667
Overread into Lead-In and Lead-Out          : No
Fill up missing offset samples with silence : Yes
Delete leading and trailing silent blocks   : No
Null samples used in CRC calculations       : Yes
Used interface                              : Native Win32 interface for Win NT & 2000
Gap handling                                : Appended to previous track

Used output format : Internal WAV Routines
Sample format      : 44.100 Hz; 16 Bit; Stereo

TOC of the extracted CD

     Track |   Start  |  Length  | Start sector | End sector
    ---------------------------------------------------------
        1  | 31:53.49 |  1:29.26 |    143524    |   150224
        2  | 33:23.00 |  3:32.45 |    150225    |   166169
        3  | 36:55.45 |  3:23.52 |    166170    |   181446
        4  | 40:19.22 |  3:06.71 |    181447    |   195467
        5  | 43:26.18 |  3:34.15 |    195468    |   211532
        6  | 47:00.33 |  3:16.57 |    211533    |   226289
        7  | 50:17.15 |  2:55.59 |    226290    |   239473
        8  | 53:12.74 |  3:04.04 |    239474    |   253277
        9  | 56:17.03 |  3:17.15 |    253278    |   268067
       10  | 59:34.18 |  3:04.18 |    268068    |   281885
       11  | 62:38.36 |  3:38.40 |    281886    |   298275
       12  | 66:17.01 |  2:41.20 |    298276    |   310370
       13  | 68:58.21 |  3:25.37 |    310371    |   325782
       14  | 72:23.58 |  3:34.73 |    325783    |   341905

Track  1

     Filename G:\FLAC\FLAC RIPS\Tonight Alive - What Are You So Scared Of (2011)\01 - Eject, Eject, Eject!.wav

     Pre-gap length  0:31:55.65

     Peak level 96.2 %
     Extraction speed 5.7 X
     Track quality 100.0 %
     Test CRC C54279A5
     Copy CRC C54279A5
     Track not present in AccurateRip database
     Copy OK

Track  2

     Filename G:\FLAC\FLAC RIPS\Tonight Alive - What Are You So Scared Of (2011)\02 - Breaking And Entering.wav

     Peak level 99.9 %
     Extraction speed 7.0 X
     Track quality 100.0 %
     Test CRC 01CAF4F2
     Copy CRC 01CAF4F2
     Track not present in AccurateRip database
     Copy OK

Track  3

     Filename G:\FLAC\FLAC RIPS\Tonight Alive - What Are You So Scared Of (2011)\03 - Starlight.wav

     Peak level 99.9 %
     Extraction speed 7.1 X
     Track quality 100.0 %
     Test CRC E4672EA8
     Copy CRC E4672EA8
     Track not present in AccurateRip database
     Copy OK

Track  4

     Filename G:\FLAC\FLAC RIPS\Tonight Alive - What Are You So Scared Of (2011)\04 - Sure As Hell.wav

     Peak level 99.8 %
     Extraction speed 7.1 X
     Track quality 100.0 %
     Test CRC C0BA5224
     Copy CRC C0BA5224
     Track not present in AccurateRip database
     Copy OK

Track  5

     Filename G:\FLAC\FLAC RIPS\Tonight Alive - What Are You So Scared Of (2011)\05 - Let It Land.wav

     Peak level 99.8 %
     Extraction speed 7.6 X
     Track quality 100.0 %
     Test CRC 2008F9D5
     Copy CRC 2008F9D5
     Track not present in AccurateRip database
     Copy OK

Track  6

     Filename G:\FLAC\FLAC RIPS\Tonight Alive - What Are You So Scared Of (2011)\06 - Fake It.wav

     Peak level 99.9 %
     Extraction speed 7.8 X
     Track quality 100.0 %
     Test CRC CB529C20
     Copy CRC CB529C20
     Track not present in AccurateRip database
     Copy OK

Track  7

     Filename G:\FLAC\FLAC RIPS\Tonight Alive - What Are You So Scared Of (2011)\07 - Listening.wav

     Peak level 99.9 %
     Extraction speed 7.8 X
     Track quality 100.0 %
     Test CRC 281BF121
     Copy CRC 281BF121
     Track not present in AccurateRip database
     Copy OK

Track  8

     Filename G:\FLAC\FLAC RIPS\Tonight Alive - What Are You So Scared Of (2011)\08 - Reason To Sing.wav

     Peak level 99.9 %
     Extraction speed 8.0 X
     Track quality 100.0 %
     Test CRC 647A478F
     Copy CRC 647A478F
     Track not present in AccurateRip database
     Copy OK

Track  9

     Filename G:\FLAC\FLAC RIPS\Tonight Alive - What Are You So Scared Of (2011)\09 - Safe And Sound.wav

     Peak level 99.9 %
     Extraction speed 6.6 X
     Track quality 99.9 %
     Test CRC F4C74FA7
     Copy CRC F4C74FA7
     Track not present in AccurateRip database
     Copy OK

Track 10

     Filename G:\FLAC\FLAC RIPS\Tonight Alive - What Are You So Scared Of (2011)\10 - Thank You And Goodnight.wav

     Peak level 99.9 %
     Extraction speed 6.4 X
     Track quality 99.9 %
     Test CRC 646128A5
     Copy CRC 646128A5
     Track not present in AccurateRip database
     Copy OK

Track 11

     Filename G:\FLAC\FLAC RIPS\Tonight Alive - What Are You So Scared Of (2011)\11 - Amelia.wav

     Peak level 99.9 %
     Extraction speed 8.5 X
     Track quality 100.0 %
     Test CRC 6F959CF8
     Copy CRC 6F959CF8
     Track not present in AccurateRip database
     Copy OK

Track 12

     Filename G:\FLAC\FLAC RIPS\Tonight Alive - What Are You So Scared Of (2011)\12 - In The First Place.wav

     Peak level 99.9 %
     Extraction speed 8.3 X
     Track quality 100.0 %
     Test CRC 7C334EF7
     Copy CRC 7C334EF7
     Track not present in AccurateRip database
     Copy OK

Track 13

     Filename G:\FLAC\FLAC RIPS\Tonight Alive - What Are You So Scared Of (2011)\13 - To Die For.wav

     Peak level 99.8 %
     Extraction speed 7.0 X
     Track quality 99.9 %
     Test CRC 2B655B5B
     Copy CRC 2B655B5B
     Track not present in AccurateRip database
     Copy OK

Track 14

     Filename G:\FLAC\FLAC RIPS\Tonight Alive - What Are You So Scared Of (2011)\14 - What Are You So Scared Of.wav

     Peak level 99.8 %
     Extraction speed 8.9 X
     Track quality 100.0 %
     Test CRC 0D084CD6
     Copy CRC 0D084CD6
     Track not present in AccurateRip database
     Copy OK

None of the tracks are present in the AccurateRip database

No errors occurred

End of status report

==== Log checksum A9E90F57A63C34579A1A73592B938466DDE628B52756DF192019778D3C741305 ====

Код:
Код:
-----------------------

DON'T MODIFY THIS FILE

-----------------------

PERFORMER: auCDtect Task Manager, ver. 1.5.1RC6 build 1.5.1.7
Copyright (c) 2008-2010 y-soft. All rights reserved
http:/y-soft.org

ANALYZER: auCDtect: CD records authenticity detector, version 0.8.2
Copyright (c) 2004 Oleg Berngardt. All rights reserved.
Copyright (c) 2004 Alexander Djourik. All rights reserved.

FILE: 14. Tonight Alive - What Are You So Scared Of_.flac
  Size: 29259684 Hash: 882CE642FBE5654B8AE3AE0476072F42 Accuracy: -m0
  Conclusion: CDDA 100%
  Signature: B79856A6A8E88E06A13120AB475B76F07D872E99
FILE: 13. Tonight Alive - To Die For.flac
  Size: 29034783 Hash: 6EF1A52D3CD485F710ECC17F6312AB98 Accuracy: -m0
  Conclusion: CDDA 100%
  Signature: 12ED65039528C9A7B66868434C0DC6CCEA454A45
FILE: 12. Tonight Alive - In The First Place.flac
  Size: 22823428 Hash: 48C1579EF37EBDB91E544E238E6F0301 Accuracy: -m0
  Conclusion: CDDA 100%
  Signature: 8EBCE479E219E184E70104B354A8B92AA06EBFBB
FILE: 11. Tonight Alive - Amelia.flac
  Size: 27608574 Hash: 0DA9408F84AAB0B79265287576E5B348 Accuracy: -m0
  Conclusion: CDDA 100%
  Signature: 98E2E0C428FF55D07C67502620901EC0C203D6AF
FILE: 10. Tonight Alive - Thank You And Goodnight.flac
  Size: 25510433 Hash: E95B9AA81A80295B3EE03B7542C30A74 Accuracy: -m0
  Conclusion: CDDA 100%
  Signature: 2B08EF7495F165B99C58BAC84B15B67224A8BAEF
FILE: 09. Tonight Alive - Safe And Sound.flac
  Size: 26218150 Hash: BE7909EC59AB8C1D7F12501F2C87D752 Accuracy: -m0
  Conclusion: CDDA 100%
  Signature: F2C8A9248BA647B9C070B3ABF4065682E7999DFD
FILE: 08. Tonight Alive - Reason To Sing.flac
  Size: 26030887 Hash: 7F19D0C7FE1FD66C0ADCFAD8A6AB5427 Accuracy: -m0
  Conclusion: CDDA 100%
  Signature: C4199E9568F564317EE219803B6198F2CCD4DA98
FILE: 07. Tonight Alive - Listening.flac
  Size: 24562366 Hash: B9416AAB7A12F8B5743EFC853BDBD820 Accuracy: -m0
  Conclusion: CDDA 100%
  Signature: 3C3BAA12EC3ECD99D99530735043D72F59A24E7A
FILE: 06. Tonight Alive - Fake It.flac
  Size: 27433728 Hash: 24B80F8D4E85A3C4D61111D2A21033AF Accuracy: -m0
  Conclusion: CDDA 100%
  Signature: 67D7A302547488B6815AD9C0D39EC385CE12C8D0
FILE: 05. Tonight Alive - Let It Land.flac
  Size: 29027842 Hash: 2F729DC6DB4D83A6F3663AF5F7C8630E Accuracy: -m0
  Conclusion: CDDA 100%
  Signature: C8F035F3649EAAD4FF3D2767C11D4907C929613D
FILE: 04. Tonight Alive - Sure As Hell.flac
  Size: 25195042 Hash: 6A05445BAB442CB1D0D1E4AC574971DE Accuracy: -m0
  Conclusion: CDDA 100%
  Signature: 257C952184017893EC93575496B66A3FEE10B814
FILE: 03. Tonight Alive - Starlight.flac
  Size: 28384033 Hash: 299774C3BDBD69D8CC41137F25BFD5FC Accuracy: -m0
  Conclusion: CDDA 100%
  Signature: 9A54C512684958587D204304BA3C3EA31D51E2D3
FILE: 02. Tonight Alive - Breaking And Entering.flac
  Size: 28506383 Hash: B3C84088BB30089ACE0B9EB2211A2D61 Accuracy: -m0
  Conclusion: CDDA 99%
  Signature: C46040B278710AF9298A93C89B849C394F27ACC9
FILE: 01. Tonight Alive - Eject, Eject, Eject!.flac
  Size: 10513658 Hash: A2DAC3F0F80712EF5B10D2140E9A57BF Accuracy: -m0
  Conclusion: CDDA 100%
  Signature: F3FE3BEF1D1115974CB33719DC73DA5CEE3E8AB7


#777Треклист:

01. The Ocean
02. Don't Wish
03. Lonely Girl
04. Hell and Back
05. The Other Side
06. The Fire
07. Complexes
08. Come Home
09. Bathwater
10. No Different
11. Say Please
12. You Don't Owe Me Anything

Продолжительность: 00:39:57


Код:
Код:
X Lossless Decoder version 20130720 (144.0)

XLD extraction logfile from 2013-09-07 09:20:40 +1000

Tonight Alive / The Other Side

Used drive : OPTIARC DVD RW AD-5690H (revision 4AH5)
Media type : Pressed CD

Ripper mode             : XLD Secure Ripper
Disable audio cache     : OK for the drive with a cache less than 1375KiB
Make use of C2 pointers : NO
Read offset correction  : 48
Max retry count         : 100
Gap status              : Analyzed, Appended (except HTOA)

TOC of the extracted CD
     Track |   Start  |  Length  | Start sector | End sector
    ---------------------------------------------------------
        1  | 00:00:00 | 03:01:11 |         0    |    13585
        2  | 03:01:11 | 03:51:36 |     13586    |    30946
        3  | 06:52:47 | 03:11:10 |     30947    |    45281
        4  | 10:03:57 | 03:24:66 |     45282    |    60647
        5  | 13:28:48 | 03:40:24 |     60648    |    77171
        6  | 17:08:72 | 02:47:31 |     77172    |    89727
        7  | 19:56:28 | 04:08:36 |     89728    |   108363
        8  | 24:04:64 | 03:27:52 |    108364    |   123940
        9  | 27:32:41 | 03:12:58 |    123941    |   138398
       10  | 30:45:24 | 02:37:53 |    138399    |   150226
       11  | 33:23:02 | 03:14:01 |    150227    |   164777
       12  | 36:37:03 | 03:20:02 |    164778    |   179779

AccurateRip Summary
    Disc not found in AccurateRip DB.

All Tracks
    Album gain               : -10.40 dB
    Peak                     : 0.966095
    Statistics
        Read error                           : 0
        Jitter error (maybe fixed)           : 0
        Retry sector count                   : 0
        Damaged sector count                 : 0

Track 01
    Filename : /Users/ev/Desktop/Torrent files/Tonight Alive - The Other Side (2013) [FLAC]/01 The Ocean.flac
    Pre-gap length : 00:02:00

    Track gain               : -10.45 dB
    Peak                     : 0.966095
    CRC32 hash (test run)    : 70EDD72A
    CRC32 hash               : 70EDD72A
    CRC32 hash (skip zero)   : C60B9341
    AccurateRip v1 signature : 418398C0
    AccurateRip v2 signature : 0F251E0B
        ->Track not present in AccurateRip database.
    Statistics
        Read error                           : 0
        Jitter error (maybe fixed)           : 0
        Retry sector count                   : 0
        Damaged sector count                 : 0

Track 02
    Filename : /Users/ev/Desktop/Torrent files/Tonight Alive - The Other Side (2013) [FLAC]/02 Don't Wish.flac

    Track gain               : -10.20 dB
    Peak                     : 0.966095
    CRC32 hash (test run)    : 6A34DC3E
    CRC32 hash               : 6A34DC3E
    CRC32 hash (skip zero)   : A9F03248
    AccurateRip v1 signature : F01BE0EA
    AccurateRip v2 signature : AC4BB88C
        ->Track not present in AccurateRip database.
    Statistics
        Read error                           : 0
        Jitter error (maybe fixed)           : 0
        Retry sector count                   : 0
        Damaged sector count                 : 0

Track 03
    Filename : /Users/ev/Desktop/Torrent files/Tonight Alive - The Other Side (2013) [FLAC]/03 Lonely Girl.flac

    Track gain               : -10.55 dB
    Peak                     : 0.966095
    CRC32 hash (test run)    : 39FBD9EA
    CRC32 hash               : 39FBD9EA
    CRC32 hash (skip zero)   : 290BA877
    AccurateRip v1 signature : CEE83EA8
    AccurateRip v2 signature : B9990A52
        ->Track not present in AccurateRip database.
    Statistics
        Read error                           : 0
        Jitter error (maybe fixed)           : 0
        Retry sector count                   : 0
        Damaged sector count                 : 0

Track 04
    Filename : /Users/ev/Desktop/Torrent files/Tonight Alive - The Other Side (2013) [FLAC]/04 Hell and Back.flac

    Track gain               : -10.34 dB
    Peak                     : 0.966095
    CRC32 hash (test run)    : 7364A0AB
    CRC32 hash               : 7364A0AB
    CRC32 hash (skip zero)   : 7F9005B1
    AccurateRip v1 signature : 25B4E0FF
    AccurateRip v2 signature : 89DF1A7F
        ->Track not present in AccurateRip database.
    Statistics
        Read error                           : 0
        Jitter error (maybe fixed)           : 0
        Retry sector count                   : 0
        Damaged sector count                 : 0

Track 05
    Filename : /Users/ev/Desktop/Torrent files/Tonight Alive - The Other Side (2013) [FLAC]/05 The Other Side.flac

    Track gain               : -9.54 dB
    Peak                     : 0.966095
    CRC32 hash (test run)    : 2F32FA8B
    CRC32 hash               : 2F32FA8B
    CRC32 hash (skip zero)   : 5CEF0B08
    AccurateRip v1 signature : 20C85EC7
    AccurateRip v2 signature : 4F0901C1
        ->Track not present in AccurateRip database.
    Statistics
        Read error                           : 0
        Jitter error (maybe fixed)           : 0
        Retry sector count                   : 0
        Damaged sector count                 : 0

Track 06
    Filename : /Users/ev/Desktop/Torrent files/Tonight Alive - The Other Side (2013) [FLAC]/06 The Fire.flac

    Track gain               : -10.42 dB
    Peak                     : 0.966095
    CRC32 hash (test run)    : 1FE80BA1
    CRC32 hash               : 1FE80BA1
    CRC32 hash (skip zero)   : F3FD41BC
    AccurateRip v1 signature : 73F9AD9F
    AccurateRip v2 signature : A8072874
        ->Track not present in AccurateRip database.
    Statistics
        Read error                           : 0
        Jitter error (maybe fixed)           : 0
        Retry sector count                   : 0
        Damaged sector count                 : 0

Track 07
    Filename : /Users/ev/Desktop/Torrent files/Tonight Alive - The Other Side (2013) [FLAC]/07 Complexes.flac

    Track gain               : -11.34 dB
    Peak                     : 0.966095
    CRC32 hash (test run)    : 185AE9F8
    CRC32 hash               : 185AE9F8
    CRC32 hash (skip zero)   : 8CA6BA39
    AccurateRip v1 signature : C46BFF78
    AccurateRip v2 signature : 30E1AC6A
        ->Track not present in AccurateRip database.
    Statistics
        Read error                           : 0
        Jitter error (maybe fixed)           : 0
        Retry sector count                   : 0
        Damaged sector count                 : 0

Track 08
    Filename : /Users/ev/Desktop/Torrent files/Tonight Alive - The Other Side (2013) [FLAC]/08 Come Home.flac

    Track gain               : -10.40 dB
    Peak                     : 0.966095
    CRC32 hash (test run)    : EF82DA7F
    CRC32 hash               : EF82DA7F
    CRC32 hash (skip zero)   : 7ACB2008
    AccurateRip v1 signature : BE393558
    AccurateRip v2 signature : B73AC76C
        ->Track not present in AccurateRip database.
    Statistics
        Read error                           : 0
        Jitter error (maybe fixed)           : 0
        Retry sector count                   : 0
        Damaged sector count                 : 0

Track 09
    Filename : /Users/ev/Desktop/Torrent files/Tonight Alive - The Other Side (2013) [FLAC]/09 Bathwater.flac

    Track gain               : -10.46 dB
    Peak                     : 0.966095
    CRC32 hash (test run)    : 3DC01697
    CRC32 hash               : 3DC01697
    CRC32 hash (skip zero)   : F6372304
    AccurateRip v1 signature : 6E807E37
    AccurateRip v2 signature : C07C5E1C
        ->Track not present in AccurateRip database.
    Statistics
        Read error                           : 0
        Jitter error (maybe fixed)           : 0
        Retry sector count                   : 0
        Damaged sector count                 : 0

Track 10
    Filename : /Users/ev/Desktop/Torrent files/Tonight Alive - The Other Side (2013) [FLAC]/10 No Different.flac

    Track gain               : -9.38 dB
    Peak                     : 0.966095
    CRC32 hash (test run)    : 7266AD87
    CRC32 hash               : 7266AD87
    CRC32 hash (skip zero)   : 3AAFA01F
    AccurateRip v1 signature : 9153FEE2
    AccurateRip v2 signature : 8A2F50CF
        ->Track not present in AccurateRip database.
    Statistics
        Read error                           : 0
        Jitter error (maybe fixed)           : 0
        Retry sector count                   : 0
        Damaged sector count                 : 0

Track 11
    Filename : /Users/ev/Desktop/Torrent files/Tonight Alive - The Other Side (2013) [FLAC]/11 Say Please.flac

    Track gain               : -9.33 dB
    Peak                     : 0.966095
    CRC32 hash (test run)    : 0BE8D71C
    CRC32 hash               : 0BE8D71C
    CRC32 hash (skip zero)   : F8096953
    AccurateRip v1 signature : E4CE4B42
    AccurateRip v2 signature : 8EC32317
        ->Track not present in AccurateRip database.
    Statistics
        Read error                           : 0
        Jitter error (maybe fixed)           : 0
        Retry sector count                   : 0
        Damaged sector count                 : 0

Track 12
    Filename : /Users/ev/Desktop/Torrent files/Tonight Alive - The Other Side (2013) [FLAC]/12 You Don't Owe Me Anything.flac

    Track gain               : -9.77 dB
    Peak                     : 0.966095
    CRC32 hash (test run)    : 8BF380F4
    CRC32 hash               : 8BF380F4
    CRC32 hash (skip zero)   : 03A0BF43
    AccurateRip v1 signature : D74D59E4
    AccurateRip v2 signature : 7E620CD3
        ->Track not present in AccurateRip database.
    Statistics
        Read error                           : 0
        Jitter error (maybe fixed)           : 0
        Retry sector count                   : 0
        Damaged sector count                 : 0

No errors occurred

End of status report


Код:
Код:
-----------------------

DON'T MODIFY THIS FILE

-----------------------

PERFORMER: auCDtect Task Manager, ver. 1.5.1RC6 build 1.5.1.7
Copyright (c) 2008-2010 y-soft. All rights reserved
http:/y-soft.org

ANALYZER: auCDtect: CD records authenticity detector, version 0.8.2
Copyright (c) 2004 Oleg Berngardt. All rights reserved.
Copyright (c) 2004 Alexander Djourik. All rights reserved.

FILE: 12. Tonight Alive - You Don't Owe Me Anything.flac
  Size: 25610624 Hash: D1461830693FF3BFABDD7D7382A56E10 Accuracy: -m0
  Conclusion: CDDA 99%
  Signature: E3A125509D692744A00E0B007C07EC042208DAD3
FILE: 11. Tonight Alive - Say Please.flac
  Size: 26777800 Hash: 9108E446A5AEA2568F9B87B0FF99E1D9 Accuracy: -m0
  Conclusion: CDDA 100%
  Signature: 9AD52C2B2D15950D59E92E2F2306A51D6EDF6165
FILE: 10. Tonight Alive - No Different.flac
  Size: 23878209 Hash: 09D8E52187842BA5AD7BD6461CFD7B84 Accuracy: -m0
  Conclusion: CDDA 100%
  Signature: D13040EDF4734FB9684854FAA3F40509F8136808
FILE: 09. Tonight Alive - Bathwater.flac
  Size: 26356876 Hash: E7C49ED6C49430720C71B7757476249D Accuracy: -m0
  Conclusion: CDDA 100%
  Signature: 07EC1648C4B2DE49F34435225BE9BB7FEE7788A1
FILE: 08. Tonight Alive - Come Home.flac
  Size: 29274401 Hash: 4312A0E6B6A96023D8D3B9925D1C307A Accuracy: -m0
  Conclusion: CDDA 100%
  Signature: A42EFEEF32D4498532C94C1D352DD0EA4C4C2C4A
FILE: 07. Tonight Alive - Complexes.flac
  Size: 34547609 Hash: 090AA34BDC2789EBEF36A36CF8B7208D Accuracy: -m0
  Conclusion: CDDA 100%
  Signature: 9A64C3705FEB09623081ED2E4322CCC267EC139F
FILE: 06. Tonight Alive - The Fire.flac
  Size: 25674217 Hash: F129CE5B843AB99ECA571E03D0393A52 Accuracy: -m0
  Conclusion: CDDA 100%
  Signature: CF20F212460893A66BF6F7A371B0AD27BDBB7561
FILE: 05. Tonight Alive - The Other Side.flac
  Size: 29502979 Hash: FB3B1615192CC4D978EEE95FCFE4AA5F Accuracy: -m0
  Conclusion: CDDA 100%
  Signature: FF7B7A3D6A30DFC25574D388D2DBB08DAB3086CE
FILE: 04. Tonight Alive - Hell and Back.flac
  Size: 29245338 Hash: 463987BB8DEBE9905D83B367B591A8E7 Accuracy: -m0
  Conclusion: CDDA 100%
  Signature: D67BDCC91F06B8DEE7D0D9244F77F2A11062EAF5
FILE: 03. Tonight Alive - Lonely Girl.flac
  Size: 27873610 Hash: F09ECED1C0CB3345B5C8A79615DA1F53 Accuracy: -m0
  Conclusion: CDDA 100%
  Signature: 2C55C5DE433E39C935ED91EDE20DF56EF4C0A776
FILE: 02. Tonight Alive - Don't Wish.flac
  Size: 30778113 Hash: ABC409D1B180360F83895BECBFF1917B Accuracy: -m0
  Conclusion: CDDA 100%
  Signature: 95A19F92E15FEB55BE35E5C0E00474F8F8931756
FILE: 01. Tonight Alive - The Ocean.flac
  Size: 26485965 Hash: 343DF7016A94A9A0A908E07DAC7C45F1 Accuracy: -m0
  Conclusion: CDDA 100%
  Signature: BBB8461D9FB75FA7754F5D991A9F1D51516DEE29




Тип рипа: Tracks+.cue
Аудиокодек: FLAC
Битрейт аудио: lossless
Правила, инструкции, FAQ!!!
Торрент  Добавлен [16 мар 2014, 00:52] Скачать торрент Магнет ссылка
Скачать торрент
[ Размер 18.41 КБ / Просмотров 98 ]

Статус  
 
Размер  1.11 ГБ
Приватный: Нет (DHT включён)
.torrent скачан  3
 


     Отправить личное сообщение
   
Страница 1 из 1
Показать сообщения за:  Поле сортировки  
Начать новую тему Ответить на тему


Сейчас этот форум просматривают: нет зарегистрированных пользователей и гости: 0


Вы не можете начинать темы
Вы не можете отвечать на сообщения
Вы не можете редактировать свои сообщения
Вы не можете удалять свои сообщения
Вы не можете добавлять вложения

Перейти:  
cron
cron