Начать новую тему Ответить на тему
Статистика раздачи
Размер: 570.06 МБ | Добавлен: 30 окт 2013, 12:29 | Скачали: 0
Сидеров: 1  [0 байт/сек]    Личеров: 0  [0 байт/сек]
Пред. тема | След. тема 

Автор
Сообщение

СообщениеДобавлено: 30 окт 2013, 12:29 

Ответить с цитатой 

Tommy Bolin - Whirlwind (2013) (2CD)

Год: 2013
Жанр: Hard Rock
Продолжительность: 01:39:28
Страна-производитель диска: USA
Год издания диска : 2013
Издатель (лейбл): Purple Pyramid
Номер по каталогу: CLP-CD-0631
Источник (релизер): rainbow.n
Наличие сканов в содержимом раздачи: Да
Кодек: FLAC
Тип рипа: image+.cue
Битрейт: Lossless
Треклист:

CD -1
Пpодолжительность: 00:52:15
Треклист:
01. Cucumber Jam
02. Heartlight
03. Hoka-Hay!
04. Don’t Worry ’Bout Cash (Acoustic Version)
05. San Francisco River
06. Rock-A-Bye
07. Dungeon
08. Alexis
09. Gotta Dance (Take 2)
10. Spanish Lover (Instrumental Version)
11. Sooner or Later
Код:
Код:
Exact Audio Copy V1.0 beta 3 from 29. August 2011

EAC extraction logfile from 20. October 2013, 16:58

Tommy Bolin / Whirlwind CD1 (CLP 0631)

Used drive : PLEXTOR DVDR PX-860A Adapter: 0 ID: 3

Read mode : Secure
Utilize accurate stream : Yes
Defeat audio cache : Yes
Make use of C2 pointers : No

Read offset correction : 96
Overread into Lead-In and Lead-Out : No
Fill up missing offset samples with silence : Yes
Delete leading and trailing silent blocks : No
Null samples used in CRC calculations : Yes
Used interface : Installed external ASPI interface

Used output format : User Defined Encoder
Selected bitrate : 1024 kBit/s
Quality : High
Add ID3 tag : Yes
Command line compressor : E:\Program Files (x86)\Exact Audio Copy\Flac\flac.exe
Additional command line options : -V -8 -T "Date=%year%" -T "Genre=%genre%" %source%

TOC of the extracted CD

Track | Start | Length | Start sector | End sector
---------------------------------------------------------
1 | 0:00.00 | 5:29.14 | 0 | 24688
2 | 5:29.14 | 4:26.21 | 24689 | 44659
3 | 9:55.35 | 7:01.20 | 44660 | 76254
4 | 16:56.55 | 3:22.45 | 76255 | 91449
5 | 20:19.25 | 2:47.59 | 91450 | 104033
6 | 23:07.09 | 3:33.45 | 104034 | 120053
7 | 26:40.54 | 7:34.00 | 120054 | 154103
8 | 34:14.54 | 5:04.29 | 154104 | 176932
9 | 39:19.08 | 4:51.63 | 176933 | 198820
10 | 44:10.71 | 3:44.57 | 198821 | 215677
11 | 47:55.53 | 4:19.55 | 215678 | 235157

Range status and errors

Selected range

Filename D:\MUSIC\Tommy Bolin - Whirlwind CD1 (CLP 0631).wav

Peak level 100.0 %
Extraction speed 7.6 X
Range quality 100.0 %
Test CRC 557F02F1
Copy CRC 557F02F1
Copy OK

No errors occurred

AccurateRip summary

Track 1 not present in database
Track 2 not present in database
Track 3 not present in database
Track 4 not present in database
Track 5 not present in database
Track 6 not present in database
Track 7 not present in database
Track 8 not present in database
Track 9 not present in database
Track 10 not present in database
Track 11 not present in database

None of the tracks are present in the AccurateRip database

End of status report

==== Log checksum B81905F7AC538E5C1DC54E6E9725A9D5EE3F94B0626723BB96D62C71E7BBF590 ====
Код:
Код:
----------------------

DON'T MODIFY THIS FILE

-----------------------

PERFORMER: auCDtect Task Manager, ver. 1.6.0 RC1 build 1.6.0.1
Copyright (c) 2008-2010 y-soft. All rights reserved
http:/y-soft.org

ANALYZER: auCDtect: CD records authenticity detector, version 0.8.2
Copyright (c) 2004 Oleg Berngardt. All rights reserved.
Copyright (c) 2004 Alexander Djourik. All rights reserved.

FILE: Tommy Bolin - Whirlwind CD1 (CLP 0631).flac
  Size: 306882163 Hash: 676CE4B29B34A6383B891BF533AE093F Accuracy: -m0
  Conclusion: CDDA 100%
  Signature: 5ED074C025463C972BE06CF0C537E20E13500569
Пpодолжительность: 00:47:54
Треклист:
1. Red Skies (Instrumental Version)
2. Way It s Always Been
3. Sleepwalker (Instrumental Version)
4. Leave Other People Alone
5. Marching Bag (26 Minute Original Version)
6. Wild Dogs (Acoustic Version)
7. From Another Time
Код:
Код:
Exact Audio Copy V1.0 beta 3 from 29. August 2011

EAC extraction logfile from 20. October 2013, 16:27

Tommy Bolin / Whirlwind CD2 (CLP 0631)

Used drive : PLEXTOR DVDR PX-860A Adapter: 0 ID: 3

Read mode : Secure
Utilize accurate stream : Yes
Defeat audio cache : Yes
Make use of C2 pointers : No

Read offset correction : 96
Overread into Lead-In and Lead-Out : No
Fill up missing offset samples with silence : Yes
Delete leading and trailing silent blocks : No
Null samples used in CRC calculations : Yes
Used interface : Installed external ASPI interface

Used output format : User Defined Encoder
Selected bitrate : 1024 kBit/s
Quality : High
Add ID3 tag : Yes
Command line compressor : E:\Program Files (x86)\Exact Audio Copy\Flac\flac.exe
Additional command line options : -V -8 -T "Date=%year%" -T "Genre=%genre%" %source%

TOC of the extracted CD

Track | Start | Length | Start sector | End sector
---------------------------------------------------------
1 | 0:00.00 | 3:28.40 | 0 | 15639
2 | 3:28.40 | 3:14.34 | 15640 | 30223
3 | 6:42.74 | 4:32.22 | 30224 | 50645
4 | 11:15.21 | 1:59.63 | 50646 | 59633
5 | 13:15.09 | 26:24.26 | 59634 | 178459
6 | 39:39.35 | 4:48.18 | 178460 | 200077
7 | 44:27.53 | 3:26.30 | 200078 | 215557

Range status and errors

Selected range

Filename D:\MUSIC\Tommy Bolin - Whirlwind CD2 (CLP 0631).wav

Peak level 100.0 %
Extraction speed 7.4 X
Range quality 99.9 %
Test CRC 9534520E
Copy CRC 9534520E
Copy OK

No errors occurred

AccurateRip summary

Track 1 not present in database
Track 2 not present in database
Track 3 not present in database
Track 4 not present in database
Track 5 not present in database
Track 6 not present in database
Track 7 not present in database

None of the tracks are present in the AccurateRip database

End of status report

==== Log checksum 0DEF9F42A609A081A2AFF73BBFE5670CD3B52F35C483CF57ED7FF59A985E02AE ====

Код:
Код:
----------------------

DON'T MODIFY THIS FILE

-----------------------

PERFORMER: auCDtect Task Manager, ver. 1.6.0 RC1 build 1.6.0.1
Copyright (c) 2008-2010 y-soft. All rights reserved
http:/y-soft.org

ANALYZER: auCDtect: CD records authenticity detector, version 0.8.2
Copyright (c) 2004 Oleg Berngardt. All rights reserved.
Copyright (c) 2004 Alexander Djourik. All rights reserved.

FILE: Tommy Bolin - Whirlwind CD2 (CLP 0631).flac
  Size: 282068916 Hash: 937544D80EA79910B84AD2D7415E16C8 Accuracy: -m0
  Conclusion: CDDA 100%
  Signature: C3368359903F1070F28C007F9B1C5D4DE9E46CEF
Правила, инструкции, FAQ!!!
Торрент  Добавлен [30 окт 2013, 12:29] Скачать торрент Магнет ссылка
Скачать торрент
[ Размер 12.85 КБ / Просмотров 36 ]

Статус  
 
Размер  570.06 МБ
Приватный: Нет (DHT включён)
.torrent скачан  0
 


     Отправить личное сообщение
   
Страница 1 из 1
Показать сообщения за:  Поле сортировки  
Начать новую тему Ответить на тему


Сейчас этот форум просматривают: нет зарегистрированных пользователей и гости: 0


Вы не можете начинать темы
Вы не можете отвечать на сообщения
Вы не можете редактировать свои сообщения
Вы не можете удалять свои сообщения
Вы не можете добавлять вложения

Перейти:  
cron
cron