Начать новую тему Ответить на тему
Статистика раздачи
Размер: 355.9 МБ | Добавлен: 16 мар 2014, 00:38 | Скачали: 0
Сидеров: 1  [0 байт/сек]    Личеров: 1  [0 байт/сек]
Пред. тема | След. тема 

Автор
Сообщение

СообщениеДобавлено: 16 мар 2014, 00:38 

Ответить с цитатой 

Tides of Man - Young and Courageous (2014)

Год: 2014
Издатель (лейбл): Tides of Man
Жанр: Post-Rock, Progressive, Indie, Alternative Rock
Продолжительность: 00:54:31

Кодек: FLAC
Битрейт: Lossless
Тип рипа: tracks +.cue

Треклист:
01. Desolate. Magnificent. (03:18)
02. Mountain House (02:52)
03. Drift (05:05)
04. Young and Courageous (05:39)
05. All the Years (02:07)
06. Eyes Like Strange Sins (07:50)
07. We Were Only Dreaming (04:49)
08. Hold Still (05:10)
09. Keep Me Safe (05:11)
10. Parallels (04:54)
11. Measure Your Breath (07:36)
Код:
Код:
Exact Audio Copy V1.0 beta 3 from 29. August 2011

EAC extraction logfile from 30. January 2014, 21:16

Tides of Man / Young and Courageous

Used drive  : HL-DT-STDVDRAM GH24NS90   Adapter: 0  ID: 0

Read mode               : Secure
Utilize accurate stream : Yes
Defeat audio cache      : Yes
Make use of C2 pointers : No

Read offset correction                      : 6
Overread into Lead-In and Lead-Out          : No
Fill up missing offset samples with silence : Yes
Delete leading and trailing silent blocks   : No
Null samples used in CRC calculations       : Yes
Used interface                              : Native Win32 interface for Win NT & 2000
Gap handling                                : Appended to previous track

Used output format              : User Defined Encoder
Selected bitrate                : 768 kBit/s
Quality                         : High
Add ID3 tag                     : No
Command line compressor         : C:\Program Files (x86)\Exact Audio Copy\FLAC\FLAC.EXE
Additional command line options : -6 -V -T "ARTIST=%artist%" -T "TITLE=%title%" -T "ALBUM=%albumtitle%" -T "DATE=%year%" -T "TRACKNUMBER=%tracknr%" -T "GENRE=%genre%" -T "COMMENT=%comment%" -T "BAND=%albuminterpret%" -T "ALBUMARTIST=%albuminterpret%" -T "COMPOSER=%composer%" %haslyrics%--tag-from-file=LYRICS="%lyricsfile%"%haslyrics% -T "DISCNUMBER=%cdnumber%" -T "TOTALDISCS=%totalcds%" -T "TOTALTRACKS=%numtracks%" %hascover%--picture="%coverfile%"%hascover% %source% -o %dest%

TOC of the extracted CD

     Track |   Start  |  Length  | Start sector | End sector
    ---------------------------------------------------------
        1  |  0:00.00 |  3:18.44 |         0    |    14893
        2  |  3:18.44 |  2:52.70 |     14894    |    27863
        3  |  6:11.39 |  5:05.10 |     27864    |    50748
        4  | 11:16.49 |  5:39.00 |     50749    |    76173
        5  | 16:55.49 |  2:07.04 |     76174    |    85702
        6  | 19:02.53 |  7:50.38 |     85703    |   120990
        7  | 26:53.16 |  4:49.05 |    120991    |   142670
        8  | 31:42.21 |  5:10.20 |    142671    |   165940
        9  | 36:52.41 |  5:11.67 |    165941    |   189332
       10  | 42:04.33 |  4:54.07 |    189333    |   211389
       11  | 46:58.40 |  7:36.16 |    211390    |   245605

Track  1

     Filename D:\Tides of Man\Young and Courageous (2014)\Tides of Man - Desolate. Magnificent..wav

     Pre-gap length  0:00:02.00

     Peak level 100.0 %
     Extraction speed 1.0 X
     Track quality 100.0 %
     Test CRC 5815643C
     Copy CRC 5815643C
     Track not present in AccurateRip database
     Copy OK

Track  2

     Filename D:\Tides of Man\Young and Courageous (2014)\Tides of Man - Mountain House.wav

     Peak level 100.0 %
     Extraction speed 1.0 X
     Track quality 100.0 %
     Test CRC 4692572E
     Copy CRC 4692572E
     Track not present in AccurateRip database
     Copy OK

Track  3

     Filename D:\Tides of Man\Young and Courageous (2014)\Tides of Man - Drift.wav

     Peak level 100.0 %
     Extraction speed 1.1 X
     Track quality 99.9 %
     Test CRC 8307B1E6
     Copy CRC 8307B1E6
     Track not present in AccurateRip database
     Copy OK

Track  4

     Filename D:\Tides of Man\Young and Courageous (2014)\Tides of Man - Young and Courageous.wav

     Peak level 100.0 %
     Extraction speed 1.3 X
     Track quality 99.9 %
     Test CRC 252DDD91
     Copy CRC 252DDD91
     Track not present in AccurateRip database
     Copy OK

Track  5

     Filename D:\Tides of Man\Young and Courageous (2014)\Tides of Man - All the Years.wav

     Peak level 100.0 %
     Extraction speed 1.2 X
     Track quality 100.0 %
     Test CRC 23EC66BD
     Copy CRC 23EC66BD
     Track not present in AccurateRip database
     Copy OK

Track  6

     Filename D:\Tides of Man\Young and Courageous (2014)\Tides of Man - Eyes Like Strange Sins.wav

     Peak level 100.0 %
     Extraction speed 1.6 X
     Track quality 100.0 %
     Test CRC 3B9230DE
     Copy CRC 3B9230DE
     Track not present in AccurateRip database
     Copy OK

Track  7

     Filename D:\Tides of Man\Young and Courageous (2014)\Tides of Man - We Were Only Dreaming.wav

     Peak level 100.0 %
     Extraction speed 1.7 X
     Track quality 100.0 %
     Test CRC 5429C972
     Copy CRC 5429C972
     Track not present in AccurateRip database
     Copy OK

Track  8

     Filename D:\Tides of Man\Young and Courageous (2014)\Tides of Man - Hold Still.wav

     Peak level 100.0 %
     Extraction speed 1.8 X
     Track quality 100.0 %
     Test CRC 9AD72AD5
     Copy CRC 9AD72AD5
     Track not present in AccurateRip database
     Copy OK

Track  9

     Filename D:\Tides of Man\Young and Courageous (2014)\Tides of Man - Keep Me Safe.wav

     Peak level 100.0 %
     Extraction speed 1.9 X
     Track quality 100.0 %
     Test CRC 383BE516
     Copy CRC 383BE516
     Track not present in AccurateRip database
     Copy OK

Track 10

     Filename D:\Tides of Man\Young and Courageous (2014)\Tides of Man - Parallels.wav

     Peak level 100.0 %
     Extraction speed 1.9 X
     Track quality 100.0 %
     Test CRC 55B625B4
     Copy CRC 55B625B4
     Track not present in AccurateRip database
     Copy OK

Track 11

     Filename D:\Tides of Man\Young and Courageous (2014)\Tides of Man - Measure Your Breath.wav

     Peak level 100.0 %
     Extraction speed 2.1 X
     Track quality 100.0 %
     Test CRC D47A6426
     Copy CRC D47A6426
     Track not present in AccurateRip database
     Copy OK

None of the tracks are present in the AccurateRip database

No errors occurred

End of status report
Код:
Код:
-----------------------

DON'T MODIFY THIS FILE

-----------------------

PERFORMER: auCDtect Task Manager, ver. 1.6.0 RC1 build 1.6.0.1
Copyright (c) 2008-2010 y-soft. All rights reserved
http:/y-soft.org

ANALYZER: auCDtect: CD records authenticity detector, version 0.8.2
Copyright (c) 2004 Oleg Berngardt. All rights reserved.
Copyright (c) 2004 Alexander Djourik. All rights reserved.

FILE: 11 - Tides of Man - Measure Your Breath.flac
  Size: 51740306 Hash: D8BB627D6B9B2AF0D1C5592D3945A15E Accuracy: -m0
  Conclusion: CDDA 100%
  Signature: 6C0DD4932359FBB2B43DB0347A34D67194FFFA73
FILE: 10 -Tides of Man - Parallels.flac
  Size: 32950028 Hash: 70929A78D82C67375B62B841F4EB4227 Accuracy: -m0
  Conclusion: CDDA 100%
  Signature: 5750D994D478E880D124A67CAE28784D0B491AB5
FILE: 09 -Tides of Man - Keep Me Safe.flac
  Size: 36251213 Hash: 14E79C5D3EFB19760FEB6BFFDF70080B Accuracy: -m0
  Conclusion: CDDA 100%
  Signature: 5E910D0D722DA688C9BCF36C94933DCC9DE1FA47
FILE: 08 - Tides of Man - Hold Still.flac
  Size: 36443935 Hash: 05694AD0C7F523A3F210E19D240B714D Accuracy: -m0
  Conclusion: CDDA 99%
  Signature: 27E42B7CDEC8D0A62AF0BF018CD9B2412B10C6BE
FILE: 07 -Tides of Man - We Were Only Dreaming.flac
  Size: 32973148 Hash: 1EEC99F50FFEE541BAC5324305C0C3C3 Accuracy: -m0
  Conclusion: CDDA 100%
  Signature: 876730AF1BFCC3391009D5E505695FAB5C3330E7
FILE: 06 -Tides of Man - Eyes Like Strange Sins.flac
  Size: 53308648 Hash: E98AE0A9F6BB0A920569FB9F36E22D48 Accuracy: -m0
  Conclusion: CDDA 100%
  Signature: 6ED501441517FE251495A9C87ADC7ECB91E8D56C
FILE: 05 -Tides of Man - All the Years.flac
  Size: 16284649 Hash: C450925FD388F537C033F4DC0994A424 Accuracy: -m0
  Conclusion: CDDA 100%
  Signature: 0E8B1271213E107778FDEBB52EB69A359393C5EC
FILE: 04 -Tides of Man - Young and Courageous.flac
  Size: 38472729 Hash: 935BDFC9AB223BC29AA704ECF2D29926 Accuracy: -m0
  Conclusion: CDDA 99%
  Signature: 564A8F147942034F21EA77AAC35088854AC0AD5E
FILE: 03 -Tides of Man - Drift.flac
  Size: 36764579 Hash: CB80E292E6937B59F662E50CBFEBFA42 Accuracy: -m0
  Conclusion: CDDA 99%
  Signature: 0EB012A102473208B2A9419BF40F062A9D785ADA
FILE: 02 -Tides of Man - Mountain House.flac
  Size: 20781796 Hash: 2DF5FA594110FD5B064C64E019C78FAB Accuracy: -m0
  Conclusion: CDDA 100%
  Signature: BC671EB117563698FEBDC55AB496581090854E1B
FILE: 01 -Tides of Man - Desolate. Magnificent..flac
  Size: 17144273 Hash: FC1584FB418909500AFF1877756065F4 Accuracy: -m0
  Conclusion: CDDA 54%
  Signature: FCD26E9209D5E994B478B478FD39A7A989093799
Код:
Код:
REM GENRE Post-hardcore
REM DATE 2014
REM DISCID 780CCA0B
REM COMMENT "ExactAudioCopy v1.0b3"
PERFORMER "Tides of Man"
TITLE "Young and Courageous"
FILE "Tides of Man - Desolate. Magnificent..flac" WAVE
  TRACK 01 AUDIO
    TITLE "Desolate. Magnificent."
    PERFORMER "Tides of Man"
    INDEX 01 00:00:00
FILE "Tides of Man - Mountain House.flac" WAVE
  TRACK 02 AUDIO
    TITLE "Mountain House"
    PERFORMER "Tides of Man"
    INDEX 01 00:00:00
FILE "Tides of Man - Drift.flac" WAVE
  TRACK 03 AUDIO
    TITLE "Drift"
    PERFORMER "Tides of Man"
    INDEX 01 00:00:00
FILE "Tides of Man - Young and Courageous.flac" WAVE
  TRACK 04 AUDIO
    TITLE "Young and Courageous"
    PERFORMER "Tides of Man"
    INDEX 01 00:00:00
FILE "Tides of Man - All the Years.flac" WAVE
  TRACK 05 AUDIO
    TITLE "All the Years"
    PERFORMER "Tides of Man"
    INDEX 01 00:00:00
FILE "Tides of Man - Eyes Like Strange Sins.flac" WAVE
  TRACK 06 AUDIO
    TITLE "Eyes Like Strange Sins"
    PERFORMER "Tides of Man"
    INDEX 01 00:00:00
FILE "Tides of Man - We Were Only Dreaming.flac" WAVE
  TRACK 07 AUDIO
    TITLE "We Were Only Dreaming"
    PERFORMER "Tides of Man"
    INDEX 01 00:00:00
FILE "Tides of Man - Hold Still.flac" WAVE
  TRACK 08 AUDIO
    TITLE "Hold Still"
    PERFORMER "Tides of Man"
    INDEX 01 00:00:00
FILE "Tides of Man - Keep Me Safe.flac" WAVE
  TRACK 09 AUDIO
    TITLE "Keep Me Safe"
    PERFORMER "Tides of Man"
    INDEX 01 00:00:00
FILE "Tides of Man - Parallels.flac" WAVE
  TRACK 10 AUDIO
    TITLE "Parallels"
    PERFORMER "Tides of Man"
    INDEX 01 00:00:00
FILE "Tides of Man - Measure Your Breath.flac" WAVE
  TRACK 11 AUDIO
    TITLE "Measure Your Breath"
    PERFORMER "Tides of Man"
    INDEX 01 00:00:00

Правила, инструкции, FAQ!!!
Торрент  Добавлен [16 мар 2014, 00:38] Скачать торрент Магнет ссылка
Скачать торрент
[ Размер 15.55 КБ / Просмотров 34 ]

Статус  
 
Размер  355.9 МБ
Приватный: Нет (DHT включён)
.torrent скачан  0
 


     Отправить личное сообщение
   
Страница 1 из 1
Показать сообщения за:  Поле сортировки  
Начать новую тему Ответить на тему


Сейчас этот форум просматривают: нет зарегистрированных пользователей и гости: 0


Вы не можете начинать темы
Вы не можете отвечать на сообщения
Вы не можете редактировать свои сообщения
Вы не можете удалять свои сообщения
Вы не можете добавлять вложения

Перейти:  
cron