Начать новую тему Ответить на тему
Статистика раздачи
Размер: 1.04 ГБ | Добавлен: 16 мар 2014, 00:47 | Скачали: 4
Сидеров: 11  [0 байт/сек]    Личеров: 9  [0 байт/сек]
Пред. тема | След. тема 

Автор
Сообщение

СообщениеДобавлено: 16 мар 2014, 00:47 

Ответить с цитатой 

Three Days Grace - 3 Альбома (2003-2009)

Год: 2003-2009
Страна: Канада
Жанр: Alternative Metal, Post-Grunge
Продолжительность: 02:25:58

Аудиокодек: FLAC
Битрейт: Lossless

В 1992 году, Норвуде (Онтарио) пятью школьниками Адамом Гонтьером (англ. Adam Gontier), Бредом Уолстом (англ. Brad Walst), Нейлом Сандерсоном (англ. Neil Sanderson), Джои Грантом (англ. Joe Grant) и Филлом Кроуи (англ. Phil Crowe) была сформирована группа Groundswell.
Описание:
В 1997 году после двухлетнего перерыва в деятельности группа была воссоздана под новым названием Three Days Grace, а в её составе осталось лишь трио — Гонтьер, Сандерсон и Уолст. Перебравшись в Торонто, музыканты при помощи своего прежнего менеджера познакомились с продюсером Гэйвином Брауном (англ. Gavin Brown), ранее работавшим с Billy Talent, The Tea Party и др., при участии которого и записали свой первый хит-сингл «I Hate (Everything About You)», позволивший вскоре заключить контракт с компанией «EMI» и рекорд-лейблом «Jive».

В след за этим, группа в компании с Гэйвином Брауном приступила к работе над дебютным альбомом. Работа велась на студиях: «Long View Farms Studios» (Север Брукфилда), «Bearsville Studios» (Вудсток), «Vespa Studios» и «A Room Full Of Stuff Studios». Одноименный альбом Three Days Grace появился в продаже 22 июля 2003 года. Сингл «I Hate (Everything About You)» получил весомую поддержку канадских радиостанций, специализирующихся на альтернативном роке. Последующие два года Three Days Grace провели в гастрольных турах, выступая как в качестве сопровождающего состава именитых коллег, так и в качестве хедлайнеров.

Альбом Three Days Grace достиг девятой позиции в канадском чарте и 69-ой — в Billboard 200, а в декабре 2004 года пластинка получила золотой статус по сертификации RIAA. Сингл «(I Hate) Everything About You», достиг номера один в Канаде и стал одним из десяти лучших в США. Второй сингл «Just Like You», подарил команде ещё одно первое место в Канаде. Также был выпущен 3-й сингл «Home».

В июне 2006 года музыканты «Three Days Grace» представили свой очередной альбом «One-X», который стал дебютом для нового участника группы — второго гитариста Барри Стока. В поддержку пластинки команда совершила ряд концертных выступлений совместно с уже известными коллективами — Staind, Hoobastank, Nickelback, Brеаking Benjamin, Seether, Red и Skillet.

22 сентября 2009 года вышел третий студийный альбом — Life Starts Now.

2003 - Three Days Grace (Japanese Edition)

#777Треклист:
Burn (04:27)
Just Like You (03:08)
I Hate Everything About You (03:51)
Home (04:21)
Scared (03:13)
Let You Down (03:46)
Now Or Never (03:00)
Born Like This (03:33)
Drown (03:28)
Wake Up (03:26)
Take Me Under (04:20)
Overrated (03:32)
Are You Ready (02:46)Прoдолжительность: 00:46:56
Код:
Код:
Exact Audio Copy V0.99 prebeta 4 from 23. January 2008

EAC extraction logfile from 6. September 2008, 19:16

Three Days Grace / Three Days Grace

Used drive  : SONY    DVD RW DW-Q30A   Adapter: 2  ID: 0

Read mode               : Secure
Utilize accurate stream : Yes
Defeat audio cache      : Yes
Make use of C2 pointers : No

Read offset correction                      : 6
Overread into Lead-In and Lead-Out          : No
Fill up missing offset samples with silence : Yes
Delete leading and trailing silent blocks   : No
Null samples used in CRC calculations       : Yes
Used interface                              : Native Win32 interface for Win NT & 2000
Gap handling                                : Appended to previous track

Used output format              : User Defined Encoder
Selected bitrate                : 128 kBit/s
Quality                         : High
Add ID3 tag                     : No
Command line compressor         : C:\Program Files\FLAC\flac.exe
Additional command line options :  -8 -V -T "ARTIST=%a" -T "TITLE=%t" -T "ALBUM=%g" -T "DATE=%y" -T "TRACKNUMBER=%n" -T "GENRE=%m" -T "COMMENT=EAC FLAC -8" %s

TOC of the extracted CD

     Track |   Start  |  Length  | Start sector | End sector
    ---------------------------------------------------------
        1  |  0:00.00 |  4:27.55 |         0    |    20079
        2  |  4:27.55 |  3:08.25 |     20080    |    34204
        3  |  7:36.05 |  3:51.30 |     34205    |    51559
        4  | 11:27.35 |  4:21.67 |     51560    |    71201
        5  | 15:49.27 |  3:13.03 |     71202    |    85679
        6  | 19:02.30 |  3:46.35 |     85680    |   102664
        7  | 22:48.65 |  3:00.60 |    102665    |   116224
        8  | 25:49.50 |  3:33.05 |    116225    |   132204
        9  | 29:22.55 |  3:28.35 |    132205    |   147839
       10  | 32:51.15 |  3:26.00 |    147840    |   163289
       11  | 36:17.15 |  4:20.07 |    163290    |   182796
       12  | 40:37.22 |  3:32.68 |    182797    |   198764
       13  | 44:10.15 |  2:46.17 |    198765    |   211231
       14  | 49:28.32 |  9:05.41 |    222632    |   263547

Track  1

     Filename Z:\eac\01 - Burn.wav

     Pre-gap length  0:00:02.00

     Peak level 100.0 %
     Track quality 100.0 %
     Test CRC E297F16E
     Copy CRC E297F16E
     Track not present in AccurateRip database
     Copy OK

Track  2

     Filename Z:\eac\02 - Just Like You.wav

     Peak level 95.1 %
     Track quality 100.0 %
     Test CRC 18562B9A
     Copy CRC 18562B9A
     Track not present in AccurateRip database
     Copy OK

Track  3

     Filename Z:\eac\03 - I Hate Everything About You.wav

     Pre-gap length  0:00:01.10

     Peak level 96.2 %
     Track quality 100.0 %
     Test CRC 61A9FE68
     Copy CRC 61A9FE68
     Track not present in AccurateRip database
     Copy OK

Track  4

     Filename Z:\eac\04 - Home.wav

     Peak level 100.0 %
     Track quality 100.0 %
     Test CRC 73947EF8
     Copy CRC 73947EF8
     Track not present in AccurateRip database
     Copy OK

Track  5

     Filename Z:\eac\05 - Scared.wav

     Pre-gap length  0:00:01.00

     Peak level 100.0 %
     Track quality 100.0 %
     Test CRC 3FA0D482
     Copy CRC 3FA0D482
     Track not present in AccurateRip database
     Copy OK

Track  6

     Filename Z:\eac\06 - Let You Down.wav

     Peak level 100.0 %
     Track quality 99.9 %
     Test CRC 6F8FC74A
     Copy CRC 6F8FC74A
     Track not present in AccurateRip database
     Copy OK

Track  7

     Filename Z:\eac\07 - Now Or Never.wav

     Pre-gap length  0:00:01.50

     Peak level 100.0 %
     Track quality 100.0 %
     Test CRC 7AA90DFE
     Copy CRC 7AA90DFE
     Track not present in AccurateRip database
     Copy OK

Track  8

     Filename Z:\eac\08 - Born Like This.wav

     Peak level 100.0 %
     Track quality 100.0 %
     Test CRC B4CAC793
     Copy CRC B4CAC793
     Track not present in AccurateRip database
     Copy OK

Track  9

     Filename Z:\eac\09 - Drown.wav

     Pre-gap length  0:00:00.64

     Peak level 100.0 %
     Track quality 100.0 %
     Test CRC 32975725
     Copy CRC 32975725
     Track not present in AccurateRip database
     Copy OK

Track 10

     Filename Z:\eac\10 - Wake Up.wav

     Peak level 100.0 %
     Track quality 100.0 %
     Test CRC 8514CFA7
     Copy CRC 8514CFA7
     Track not present in AccurateRip database
     Copy OK

Track 11

     Filename Z:\eac\11 - Take Me Under.wav

     Pre-gap length  0:00:01.10

     Peak level 100.0 %
     Track quality 100.0 %
     Test CRC 65F90FB0
     Copy CRC 65F90FB0
     Track not present in AccurateRip database
     Copy OK

Track 12

     Filename Z:\eac\12 - Overrated.wav

     Pre-gap length  0:00:01.26

     Peak level 100.0 %
     Track quality 100.0 %
     Test CRC C9DD136C
     Copy CRC C9DD136C
     Track not present in AccurateRip database
     Copy OK

Track 13

     Filename Z:\eac\13 - Are You Ready.wav

     Pre-gap length  0:00:02.66

     Peak level 100.0 %
     Track quality 100.0 %
     Test CRC 14C73BDD
     Copy CRC 14C73BDD
     Track not present in AccurateRip database
     Copy OK

None of the tracks are present in the AccurateRip database

No errors occurred

End of status report
Код:
Код:
AUDIOCHECKER v2.0 beta (build 457) - by Dester -
~~~~~~~~~~~~~~~~~~~~~~~~~~~~~~~~~~

Started at: четверг, 07. 01. 2010. - 21:02.07
13 files found

01 -===- G:\UP\!next\Three Days Grace\2003 - Three Days Grace [Japan Jive-BMG BVCQ-21008]\13 - Are You Ready.flac
  Extracted successfully
  Conclusion: this track is CDDA with probability 100%
  Tempfile successfully deleted.

02 -===- G:\UP\!next\Three Days Grace\2003 - Three Days Grace [Japan Jive-BMG BVCQ-21008]\01 - Burn.flac
  Extracted successfully
  Conclusion: this track is CDDA with probability 100%
  Tempfile successfully deleted.

03 -===- G:\UP\!next\Three Days Grace\2003 - Three Days Grace [Japan Jive-BMG BVCQ-21008]\02 - Just Like You.flac
  Extracted successfully
  Conclusion: this track is CDDA with probability 99%
  Tempfile successfully deleted.

04 -===- G:\UP\!next\Three Days Grace\2003 - Three Days Grace [Japan Jive-BMG BVCQ-21008]\03 - I Hate Everything About You.flac
  Extracted successfully
  Conclusion: this track is CDDA with probability 100%
  Tempfile successfully deleted.

05 -===- G:\UP\!next\Three Days Grace\2003 - Three Days Grace [Japan Jive-BMG BVCQ-21008]\04 - Home.flac
  Extracted successfully
  Conclusion: this track is CDDA with probability 100%
  Tempfile successfully deleted.

06 -===- G:\UP\!next\Three Days Grace\2003 - Three Days Grace [Japan Jive-BMG BVCQ-21008]\05 - Scared.flac
  Extracted successfully
  Conclusion: this track is CDDA with probability 100%
  Tempfile successfully deleted.

07 -===- G:\UP\!next\Three Days Grace\2003 - Three Days Grace [Japan Jive-BMG BVCQ-21008]\06 - Let You Down.flac
  Extracted successfully
  Conclusion: this track is CDDA with probability 100%
  Tempfile successfully deleted.

08 -===- G:\UP\!next\Three Days Grace\2003 - Three Days Grace [Japan Jive-BMG BVCQ-21008]\07 - Now Or Never.flac
  Extracted successfully
  Conclusion: this track is CDDA with probability 100%
  Tempfile successfully deleted.

09 -===- G:\UP\!next\Three Days Grace\2003 - Three Days Grace [Japan Jive-BMG BVCQ-21008]\08 - Born Like This.flac
  Extracted successfully
  Conclusion: this track is CDDA with probability 100%
  Tempfile successfully deleted.

10 -===- G:\UP\!next\Three Days Grace\2003 - Three Days Grace [Japan Jive-BMG BVCQ-21008]\09 - Drown.flac
  Extracted successfully
  Conclusion: this track is CDDA with probability 100%
  Tempfile successfully deleted.

11 -===- G:\UP\!next\Three Days Grace\2003 - Three Days Grace [Japan Jive-BMG BVCQ-21008]\10 - Wake Up.flac
  Extracted successfully
  Conclusion: this track is CDDA with probability 99%
  Tempfile successfully deleted.

12 -===- G:\UP\!next\Three Days Grace\2003 - Three Days Grace [Japan Jive-BMG BVCQ-21008]\11 - Take Me Under.flac
  Extracted successfully
  Conclusion: this track is CDDA with probability 100%
  Tempfile successfully deleted.

13 -===- G:\UP\!next\Three Days Grace\2003 - Three Days Grace [Japan Jive-BMG BVCQ-21008]\12 - Overrated.flac
  Extracted successfully
  Conclusion: this track is CDDA with probability 100%
  Tempfile successfully deleted.

Finished at: четверг, 07. 01. 2010. - 21:15.50 (operation time: 0:13.42)
2006 - One-X (Japanese Edition)

#777Треклист:
It's All Over (04:09)
Pain (03:22)
Animal I Have Become (03:51)
Never Too Late (03:29)
On My Own (03:05)
Riot (03:27)
Get Out Alive (04:22)
Let It Die (03:09)
Over and Over (03:11)
Time of Dying (03:08)
Gone Forever (03:41)
One X (04:47)
Running Away (04:02)
Animal I Have Become (Stripped Acoustic Version) (03:44)
I Hate Everything About You (Acoustic Version) (03:53)

Прoдолжительность: 00:55:27
Код:
Код:
Exact Audio Copy V0.99 prebeta 4 from 23. January 2008

EAC extraction logfile from 9. May 2008, 7:17

Three Days Grace / One-X (Japanese Edition)

Used drive  : SONY    DVD RW DW-Q30A   Adapter: 2  ID: 0

Read mode               : Secure
Utilize accurate stream : Yes
Defeat audio cache      : Yes
Make use of C2 pointers : No

Read offset correction                      : 6
Overread into Lead-In and Lead-Out          : No
Fill up missing offset samples with silence : Yes
Delete leading and trailing silent blocks   : No
Null samples used in CRC calculations       : Yes
Used interface                              : Native Win32 interface for Win NT & 2000
Gap handling                                : Appended to previous track

Used output format              : User Defined Encoder
Selected bitrate                : 128 kBit/s
Quality                         : High
Add ID3 tag                     : No
Command line compressor         : C:\Program Files\FLAC\flac.exe
Additional command line options :  -8 -V -T "ARTIST=%a" -T "TITLE=%t" -T "ALBUM=%g" -T "DATE=%y" -T "TRACKNUMBER=%n" -T "GENRE=%m" -T "COMMENT=EAC FLAC -8" %s

TOC of the extracted CD

     Track |   Start  |  Length  | Start sector | End sector
    ---------------------------------------------------------
        1  |  0:00.00 |  4:09.24 |         0    |    18698
        2  |  4:09.24 |  3:22.73 |     18699    |    33921
        3  |  7:32.22 |  3:51.30 |     33922    |    51276
        4  | 11:23.52 |  3:29.25 |     51277    |    66976
        5  | 14:53.02 |  3:05.57 |     66977    |    80908
        6  | 17:58.59 |  3:27.43 |     80909    |    96476
        7  | 21:26.27 |  4:22.37 |     96477    |   116163
        8  | 25:48.64 |  3:09.24 |    116164    |   130362
        9  | 28:58.13 |  3:11.68 |    130363    |   144755
       10  | 32:10.06 |  3:08.38 |    144756    |   158893
       11  | 35:18.44 |  3:41.07 |    158894    |   175475
       12  | 38:59.51 |  4:47.03 |    175476    |   197003
       13  | 43:46.54 |  4:02.74 |    197004    |   215227
       14  | 47:49.53 |  3:44.45 |    215228    |   232072
       15  | 51:34.23 |  3:53.15 |    232073    |   249562
       16  | 57:59.38 | 19:45.50 |    260963    |   349887

Track  1

     Filename Z:\temp\01 - It's All Over.wav

     Pre-gap length  0:00:02.00

     Peak level 96.6 %
     Track quality 100.0 %
     Test CRC 6F969474
     Copy CRC 6F969474
     Track not present in AccurateRip database
     Copy OK

Track  2

     Filename Z:\temp\02 - Pain.wav

     Peak level 96.6 %
     Track quality 100.0 %
     Test CRC 8EA7023E
     Copy CRC 8EA7023E
     Track not present in AccurateRip database
     Copy OK

Track  3

     Filename Z:\temp\03 - Animal I Have Become.wav

     Peak level 96.6 %
     Track quality 100.0 %
     Test CRC 7A1FEEC8
     Copy CRC 7A1FEEC8
     Track not present in AccurateRip database
     Copy OK

Track  4

     Filename Z:\temp\04 - Never Too Late.wav

     Peak level 96.6 %
     Track quality 100.0 %
     Test CRC 8C404B79
     Copy CRC 8C404B79
     Track not present in AccurateRip database
     Copy OK

Track  5

     Filename Z:\temp\05 - On My Own.wav

     Peak level 96.6 %
     Track quality 100.0 %
     Test CRC 9217DC81
     Copy CRC 9217DC81
     Track not present in AccurateRip database
     Copy OK

Track  6

     Filename Z:\temp\06 - Riot.wav

     Peak level 96.6 %
     Track quality 100.0 %
     Test CRC 5EF2E89D
     Copy CRC 5EF2E89D
     Track not present in AccurateRip database
     Copy OK

Track  7

     Filename Z:\temp\07 - Get Out Alive.wav

     Peak level 96.6 %
     Track quality 100.0 %
     Test CRC A53A1CA8
     Copy CRC A53A1CA8
     Track not present in AccurateRip database
     Copy OK

Track  8

     Filename Z:\temp\08 - Let It Die.wav

     Peak level 96.6 %
     Track quality 100.0 %
     Test CRC 8E78299A
     Copy CRC 8E78299A
     Track not present in AccurateRip database
     Copy OK

Track  9

     Filename Z:\temp\09 - Over and Over.wav

     Peak level 96.6 %
     Track quality 99.9 %
     Test CRC 82AB3326
     Copy CRC 82AB3326
     Track not present in AccurateRip database
     Copy OK

Track 10

     Filename Z:\temp\10 - Time of Dying.wav

     Peak level 96.6 %
     Track quality 100.0 %
     Test CRC C8BFADC2
     Copy CRC C8BFADC2
     Track not present in AccurateRip database
     Copy OK

Track 11

     Filename Z:\temp\11 - Gone Forever.wav

     Pre-gap length  0:00:02.13

     Peak level 96.6 %
     Track quality 100.0 %
     Test CRC 73FA2530
     Copy CRC 73FA2530
     Track not present in AccurateRip database
     Copy OK

Track 12

     Filename Z:\temp\12 - One X.wav

     Peak level 96.6 %
     Track quality 100.0 %
     Test CRC A2D322CB
     Copy CRC A2D322CB
     Track not present in AccurateRip database
     Copy OK

Track 13

     Filename Z:\temp\13 - Running Away.wav

     Pre-gap length  0:00:01.76

     Peak level 96.6 %
     Track quality 100.0 %
     Test CRC DE632BCE
     Copy CRC DE632BCE
     Track not present in AccurateRip database
     Copy OK

Track 14

     Filename Z:\temp\14 - Animal I Have Become (Stripped Acoustic Version).wav

     Pre-gap length  0:00:02.06

     Peak level 100.0 %
     Track quality 100.0 %
     Test CRC 7FC0D194
     Copy CRC 7FC0D194
     Track not present in AccurateRip database
     Copy OK

Track 15

     Filename Z:\temp\15 - I Hate Everything About You (Acoustic Version).wav

     Pre-gap length  0:00:03.14

     Peak level 98.8 %
     Track quality 100.0 %
     Test CRC 7C8BF6E9
     Copy CRC 7C8BF6E9
     Track not present in AccurateRip database
     Copy OK

None of the tracks are present in the AccurateRip database

No errors occurred

End of status report
Код:
Код:
Started at: четверг, 07. 01. 2010. - 21:21.07
15 files found

01 -===- G:\UP\!next\Three Days Grace\2006 - One-X [Japanese Edition]\15 - I Hate Everything About You (Acoustic Version).flac
  Extracted successfully
  Conclusion: this track is CDDA with probability 100%
  Tempfile successfully deleted.

02 -===- G:\UP\!next\Three Days Grace\2006 - One-X [Japanese Edition]\01 - It's All Over.flac
  Extracted successfully
  Conclusion: this track is CDDA with probability 100%
  Tempfile successfully deleted.

03 -===- G:\UP\!next\Three Days Grace\2006 - One-X [Japanese Edition]\02 - Pain.flac
  Extracted successfully
  Conclusion: this track is CDDA with probability 100%
  Tempfile successfully deleted.

04 -===- G:\UP\!next\Three Days Grace\2006 - One-X [Japanese Edition]\03 - Animal I Have Become.flac
  Extracted successfully
  Conclusion: this track is CDDA with probability 100%
  Tempfile successfully deleted.

05 -===- G:\UP\!next\Three Days Grace\2006 - One-X [Japanese Edition]\04 - Never Too Late.flac
  Extracted successfully
  Conclusion: this track is CDDA with probability 100%
  Tempfile successfully deleted.

06 -===- G:\UP\!next\Three Days Grace\2006 - One-X [Japanese Edition]\05 - On My Own.flac
  Extracted successfully
  Conclusion: this track is CDDA with probability 100%
  Tempfile successfully deleted.

07 -===- G:\UP\!next\Three Days Grace\2006 - One-X [Japanese Edition]\06 - Riot.flac
  Extracted successfully
  Conclusion: this track is CDDA with probability 100%
  Tempfile successfully deleted.

08 -===- G:\UP\!next\Three Days Grace\2006 - One-X [Japanese Edition]\07 - Get Out Alive.flac
  Extracted successfully
  Conclusion: this track is CDDA with probability 100%
  Tempfile successfully deleted.

09 -===- G:\UP\!next\Three Days Grace\2006 - One-X [Japanese Edition]\08 - Let It Die.flac
  Extracted successfully
  Conclusion: this track is CDDA with probability 100%
  Tempfile successfully deleted.

10 -===- G:\UP\!next\Three Days Grace\2006 - One-X [Japanese Edition]\09 - Over and Over.flac
  Extracted successfully
  Conclusion: this track is CDDA with probability 100%
  Tempfile successfully deleted.

11 -===- G:\UP\!next\Three Days Grace\2006 - One-X [Japanese Edition]\10 - Time of Dying.flac
  Extracted successfully
  Conclusion: this track is CDDA with probability 100%
  Tempfile successfully deleted.

12 -===- G:\UP\!next\Three Days Grace\2006 - One-X [Japanese Edition]\11 - Gone Forever.flac
  Extracted successfully
  Conclusion: this track is CDDA with probability 100%
  Tempfile successfully deleted.

13 -===- G:\UP\!next\Three Days Grace\2006 - One-X [Japanese Edition]\12 - One X.flac
  Extracted successfully
  Conclusion: this track is CDDA with probability 100%
  Tempfile successfully deleted.

14 -===- G:\UP\!next\Three Days Grace\2006 - One-X [Japanese Edition]\13 - Running Away.flac
  Extracted successfully
  Conclusion: this track is CDDA with probability 100%
  Tempfile successfully deleted.

15 -===- G:\UP\!next\Three Days Grace\2006 - One-X [Japanese Edition]\14 - Animal I Have Become (Stripped Acoustic Version).flac
  Extracted successfully
  Conclusion: this track is CDDA with probability 100%
  Tempfile successfully deleted.

Finished at: четверг, 07. 01. 2010. - 21:39.36 (operation time: 0:18.28)
2009 - Life Starts Now

#777Треклист:
Bitter Taste (04:00)
Break (03:13)
World So Cold (04:03)
Lost In You (03:52)
The Good Life (02:53)
No More (03:45)
Last To Know (03:27)
Someone Who Cares (04:52)
Bully (03:38)
Without You (03:33)
Goin' Down (03:05)
Life Starts Now (03:08)

Прoдолжительность: 00:43:34
Код:
Код:
Exact Audio Copy V0.99 prebeta 5 from 4. May 2009

EAC extraction logfile from 25. September 2009, 23:14

Three Days Grace / Life Starts Now

Used drive  : Optiarc DVD RW AD-7173A   Adapter: 0  ID: 1

Read mode               : Secure
Utilize accurate stream : Yes
Defeat audio cache      : Yes
Make use of C2 pointers : No

Read offset correction                      : 48
Overread into Lead-In and Lead-Out          : No
Fill up missing offset samples with silence : Yes
Delete leading and trailing silent blocks   : No
Null samples used in CRC calculations       : Yes
Used interface                              : Installed external ASPI interface
Gap handling                                : Appended to previous track

Used output format              : User Defined Encoder
Selected bitrate                : 128 kBit/s
Quality                         : High
Add ID3 tag                     : No
Command line compressor         : C:\Program Files\foobar2000\encoders\flac.exe
Additional command line options : -V -8 -T "artist=%a" -T "title=%t" -T "album=%g" -T "date=%y" -T "tracknumber=%n" -T "genre=%m" %s

TOC of the extracted CD

     Track |   Start  |  Length  | Start sector | End sector
    ---------------------------------------------------------
        1  |  0:00.00 |  4:00.58 |         0    |    18057
        2  |  4:00.58 |  3:13.08 |     18058    |    32540
        3  |  7:13.66 |  4:03.00 |     32541    |    50765
        4  | 11:16.66 |  3:52.61 |     50766    |    68226
        5  | 15:09.52 |  2:53.13 |     68227    |    81214
        6  | 18:02.65 |  3:45.37 |     81215    |    98126
        7  | 21:48.27 |  3:27.35 |     98127    |   113686
        8  | 25:15.62 |  4:52.01 |    113687    |   135587
        9  | 30:07.63 |  3:38.50 |    135588    |   151987
       10  | 33:46.38 |  3:33.58 |    151988    |   168020
       11  | 37:20.21 |  3:05.60 |    168021    |   181955
       12  | 40:26.06 |  3:08.06 |    181956    |   196061

Track  1

     Filename C:\01 - Bitter Taste.wav

     Pre-gap length  0:00:02.00

     Peak level 100.0 %
     Track quality 100.0 %
     Test CRC D88748CF
     Copy CRC D88748CF
     Track not present in AccurateRip database
     Copy OK

Track  2

     Filename C:\02 - Break.wav

     Peak level 100.0 %
     Track quality 100.0 %
     Test CRC B996C8DA
     Copy CRC B996C8DA
     Track not present in AccurateRip database
     Copy OK

Track  3

     Filename C:\03 - World So Cold.wav

     Peak level 100.0 %
     Track quality 100.0 %
     Test CRC 2F3460B6
     Copy CRC 2F3460B6
     Track not present in AccurateRip database
     Copy OK

Track  4

     Filename C:\04 - Lost In You.wav

     Peak level 100.0 %
     Track quality 100.0 %
     Test CRC E87D5934
     Copy CRC E87D5934
     Track not present in AccurateRip database
     Copy OK

Track  5

     Filename C:\05 - The Good Life.wav

     Peak level 100.0 %
     Track quality 100.0 %
     Test CRC 0BD76E4C
     Copy CRC 0BD76E4C
     Track not present in AccurateRip database
     Copy OK

Track  6

     Filename C:\06 - No More.wav

     Peak level 100.0 %
     Track quality 100.0 %
     Test CRC 75A834E5
     Copy CRC 75A834E5
     Track not present in AccurateRip database
     Copy OK

Track  7

     Filename C:\07 - Last To Know.wav

     Peak level 100.0 %
     Track quality 100.0 %
     Test CRC D76ED7C2
     Copy CRC D76ED7C2
     Track not present in AccurateRip database
     Copy OK

Track  8

     Filename C:\08 - Someone Who Cares.wav

     Peak level 100.0 %
     Track quality 100.0 %
     Test CRC 72BB2C52
     Copy CRC 72BB2C52
     Track not present in AccurateRip database
     Copy OK

Track  9

     Filename C:\09 - Bully.wav

     Peak level 100.0 %
     Track quality 100.0 %
     Test CRC CC0335EF
     Copy CRC CC0335EF
     Track not present in AccurateRip database
     Copy OK

Track 10

     Filename C:\10 - Without You.wav

     Peak level 100.0 %
     Track quality 100.0 %
     Test CRC 65095C5E
     Copy CRC 65095C5E
     Track not present in AccurateRip database
     Copy OK

Track 11

     Filename C:\11 - Goin' Down.wav

     Peak level 100.0 %
     Track quality 100.0 %
     Test CRC DD0FAEC6
     Copy CRC DD0FAEC6
     Track not present in AccurateRip database
     Copy OK

Track 12

     Filename C:\12 - Life Starts Now.wav

     Peak level 100.0 %
     Track quality 100.0 %
     Test CRC C02A0710
     Copy CRC C02A0710
     Track not present in AccurateRip database
     Copy OK

None of the tracks are present in the AccurateRip database

No errors occurred

End of status report
Код:
Код:
Started at: четверг, 07. 01. 2010. - 21:51.34
12 files found

01 -===- G:\UP\!next\Three Days Grace\2009 - Life Starts Now\01 - Bitter Taste.flac
  Extracted successfully
  Conclusion: this track is CDDA with probability 100%
  Tempfile successfully deleted.

02 -===- G:\UP\!next\Three Days Grace\2009 - Life Starts Now\02 - Break.flac
  Extracted successfully
  Conclusion: this track is CDDA with probability 100%
  Tempfile successfully deleted.

03 -===- G:\UP\!next\Three Days Grace\2009 - Life Starts Now\03 - World So Cold.flac
  Extracted successfully
  Conclusion: this track is CDDA with probability 100%
  Tempfile successfully deleted.

04 -===- G:\UP\!next\Three Days Grace\2009 - Life Starts Now\04 - Lost In You.flac
  Extracted successfully
  Conclusion: this track is CDDA with probability 100%
  Tempfile successfully deleted.

05 -===- G:\UP\!next\Three Days Grace\2009 - Life Starts Now\05 - The Good Life.flac
  Extracted successfully
  Conclusion: this track is CDDA with probability 100%
  Tempfile successfully deleted.

06 -===- G:\UP\!next\Three Days Grace\2009 - Life Starts Now\06 - No More.flac
  Extracted successfully
  Conclusion: this track is CDDA with probability 99%
  Tempfile successfully deleted.

07 -===- G:\UP\!next\Three Days Grace\2009 - Life Starts Now\07 - Last To Know.flac
  Extracted successfully
  Conclusion: this track is CDDA with probability 100%
  Tempfile successfully deleted.

08 -===- G:\UP\!next\Three Days Grace\2009 - Life Starts Now\08 - Someone Who Cares.flac
  Extracted successfully
  Conclusion: this track is CDDA with probability 99%
  Tempfile successfully deleted.

09 -===- G:\UP\!next\Three Days Grace\2009 - Life Starts Now\09 - Bully.flac
  Extracted successfully
  Conclusion: this track is CDDA with probability 100%
  Tempfile successfully deleted.

10 -===- G:\UP\!next\Three Days Grace\2009 - Life Starts Now\10 - Without You.flac
  Extracted successfully
  Conclusion: this track is CDDA with probability 100%
  Tempfile successfully deleted.

11 -===- G:\UP\!next\Three Days Grace\2009 - Life Starts Now\11 - Goin' Down.flac
  Extracted successfully
  Conclusion: this track is CDDA with probability 100%
  Tempfile successfully deleted.

12 -===- G:\UP\!next\Three Days Grace\2009 - Life Starts Now\12 - Life Starts Now.flac
  Extracted successfully
  Conclusion: this track is CDDA with probability 100%
  Tempfile successfully deleted.

Finished at: четверг, 07. 01. 2010. - 22:06.52 (operation time: 0:15.18)
Правила, инструкции, FAQ!!!
Торрент  Добавлен [16 мар 2014, 00:47] Скачать торрент Магнет ссылка
Скачать торрент
[ Размер 16.6 КБ / Просмотров 331 ]

Статус  
 
Размер  1.04 ГБ
Приватный: Нет (DHT включён)
.torrent скачан  4
 


     Отправить личное сообщение
   
Страница 1 из 1
Показать сообщения за:  Поле сортировки  
Начать новую тему Ответить на тему


Сейчас этот форум просматривают: нет зарегистрированных пользователей и гости: 0


Вы не можете начинать темы
Вы не можете отвечать на сообщения
Вы не можете редактировать свои сообщения
Вы не можете удалять свои сообщения
Вы не можете добавлять вложения

Перейти:  
cron
cron