Начать новую тему Ответить на тему
Статистика раздачи
Размер: 1.28 ГБ | Добавлен: 24 авг 2016, 12:04 | Скачали: 2
Сидеров: 88  [0 байт/сек]    Личеров: 3  [0 байт/сек]
Пред. тема | След. тема 

Автор
Сообщение

СообщениеДобавлено: 24 авг 2016, 12:04 

Ответить с цитатой 

Tankard - Fat, Ugly And Live (L0166-1)

Жанр: Thrash Metal
Год выпуска: 1991
Лейбл: Noise International # L0166-1
Страна-производитель: West Germany
Аудио кодек: FLAC
Тип рипа: image+.cue
Формат записи: 24/96
Формат раздачи: 24/96
Продолжительность: 54:11
Наличие сканов в содержимом раздачи: да
Источник оцифровки: Necromandus

Треклист:
1. The Meaning Of Life - 5:36
2. Mercenary - 3:40
3. Beermuda - 4:47
4. Total Addiction - 3:52
5. Live to Dive - 3:13
6. Poison - 5:46
7. Chemical Invasion - 6:00
8. The Morning After - 4:44
9. Space Beer - 4:52
10. Medley (Alcohol, Puke, Mon Cheri, Wonderful Life) - 4:41
11. (Empty) Tankard - 7:00

Состав:
• Gerre - Vocals
• Axel Katzmann - Guitars
• Andy Boulgaropoulos - Guitars
• Frank Thorwarth - Bass
• Arnulf Tunn - Drums

Produced by Harris Johns, executive producer: Karl-U. Walterbach
Recorded live by The Dierks Mobile in Frankfur/Vobi & Bochum/Zeche on October 8th & 9th 1990
Mixed at Musiclab/Berlin by Harris Johns & Tankard in January 1991

Технические Данные:
Vinyl Condition : EX-
Music Hall mmf-5.1
ProJect Phono Box SEII
Oehlbach NF214
Creative SB X-Fi Fatal1ty FPS
Adobe Soundbooth CS4
foobar2000 1.1.3 / Dynamic Range Meter 1.1.1
log date: 2013-08-30 22:28:29

--------------------------------------------------------------------------------
Analyzed: Tankard / Fat, Ugly And Live (LP, L0166-1)
--------------------------------------------------------------------------------

DR Peak RMS Duration Track
--------------------------------------------------------------------------------
DR13 -0.02 dB -14.11 dB 5:36 01-The Meaning Of Life
DR12 -0.21 dB -13.17 dB 3:40 02-Mercenary
DR11 -0.53 dB -13.12 dB 4:47 03-Beermuda
DR11 -0.27 dB -13.18 dB 3:52 04-Total Addiction
DR11 -0.70 dB -13.83 dB 3:13 05-Live to Dive
DR11 -0.13 dB -13.23 dB 5:46 06-Poison
DR11 -0.04 dB -13.04 dB 6:00 07-Chemical Invasion
DR12 -0.35 dB -13.40 dB 4:44 08-The Morning After
DR12 0.00 dB -13.20 dB 4:52 09-Space Beer
DR11 -0.47 dB -13.20 dB 4:41 10-Medley (Alcohol, Puke, Mon Cheri, Wonderful Life)
DR11 -0.19 dB -13.91 dB 7:00 11-(Empty) Tankard
--------------------------------------------------------------------------------

Number of tracks: 11
Official DR value: DR11

Samplerate: 96000 Hz
Channels: 2
Bits per sample: 24
Bitrate: 4608 kbps
Codec: PCM
================================================================================
Правила, инструкции, FAQ!!!
Торрент  Добавлен [24 авг 2016, 12:04] Скачать торрент Магнет ссылка
Скачать торрент
[ Размер 13.74 КБ / Просмотров 19 ]

Статус
Проверен 
 
Размер  1.28 ГБ
Приватный: Нет (DHT включён)
.torrent скачан  2
 


     Отправить личное сообщение
   
Страница 1 из 1
Показать сообщения за:  Поле сортировки  
Начать новую тему Ответить на тему


Сейчас этот форум просматривают: нет зарегистрированных пользователей и гости: 0


Вы не можете начинать темы
Вы не можете отвечать на сообщения
Вы не можете редактировать свои сообщения
Вы не можете удалять свои сообщения
Вы не можете добавлять вложения

Перейти:  
cron
cron