Начать новую тему Ответить на тему
Статистика раздачи
Размер: 273.52 МБ | Добавлен: 24 авг 2016, 12:35 | Скачали: 1
Сидеров: 3  [0 байт/сек]    Личеров: 0  [0 байт/сек]
Пред. тема | След. тема 

Автор
Сообщение

СообщениеДобавлено: 24 авг 2016, 12:35 

Ответить с цитатой 

Exhorder - Slaughter In The Vatican



Жанр: Thrash Metal
Год выпуска: 1990
Лейбл: Roadracer Records · RO 9363-1
Страна-производитель: Netherlands
Аудио кодек: APE
Тип рипа: tracks
Формат записи: 16/44
Формат раздачи: 16/44
Продолжительность: 41:25
Источник оцифровки: palankas


01. Death In Vain (5:30)
02. Homicide (3:12)
03. Desecrator (6:07)
04. Exhorder (5:10)
05. The Tragic Period (7:05)
06. Legions Of Death (4:29)
07. Anal Lust (2:34)
08. Slaughter In The Vatican (7:17)


VINYL RIP
Extract sound of vinyl with Pioneer PDR-555RW to .wav
.wav files to ape with Monkey?s Audio v4.06
foobar2000 1.2 / Dynamic Range Meter 1.1.1
log date: 2014-04-16 16:54:34

--------------------------------------------------------------------------------
Analyzed: Exhorder / Slaughter In The Vatican
--------------------------------------------------------------------------------

DR Peak RMS Duration Track
--------------------------------------------------------------------------------
DR12 0.00 dB -13.68 dB 5:30 01-Death In Vain
DR11 0.00 dB -11.76 dB 3:12 02-Homicide
DR11 0.00 dB -12.28 dB 6:07 03-Desecrator
DR11 0.00 dB -11.93 dB 5:10 04-Exhorder
DR11 0.00 dB -12.75 dB 7:05 05-The Tragic Period
DR12 0.00 dB -13.17 dB 4:29 06-Legions Of Death
DR12 0.00 dB -13.26 dB 2:34 07-Anal Lust
DR13 0.00 dB -14.65 dB 7:17 08-Slaughter In The Vatican
--------------------------------------------------------------------------------

Number of tracks: 8
Official DR value: DR12

Samplerate: 44100 Hz
Channels: 2
Bits per sample: 16
Bitrate: 847 kbps
Codec: Monkey's Audio
================================================================================

Данный материал предоставлен исключительно для ознакомления, после прослушивания уничтожить жёсткий диск. Рекомендуется приобрести фирменную продукцию.
Правила, инструкции, FAQ!!!
Торрент  Добавлен [24 авг 2016, 12:35] Скачать торрент Магнет ссылка
Скачать торрент
[ Размер 23.62 КБ / Просмотров 76 ]

Статус
Проверен 
 
Размер  273.52 МБ
Приватный: Нет (DHT включён)
.torrent скачан  1
 


     Отправить личное сообщение
   
Страница 1 из 1
Показать сообщения за:  Поле сортировки  
Начать новую тему Ответить на тему


Сейчас этот форум просматривают: нет зарегистрированных пользователей и гости: 0


Вы не можете начинать темы
Вы не можете отвечать на сообщения
Вы не можете редактировать свои сообщения
Вы не можете удалять свои сообщения
Вы не можете добавлять вложения

Перейти:  
cron