Начать новую тему Ответить на тему
Статистика раздачи
Размер: 619.83 МБ | Добавлен: 16 мар 2014, 00:45 | Скачали: 0
Сидеров: 0  [0 байт/сек]    Личеров: 0  [0 байт/сек]
Пред. тема | След. тема 

Автор
Сообщение

СообщениеДобавлено: 16 мар 2014, 00:45 

Ответить с цитатой 

This Is A Standoff - 2 Albums, 1 EP (2008-2011)


Год:
2008-2011
Жанр: Hardcore, Punk, Skate Punk
Продолжительность: 01:20:50

Кодек: FLAC
Битрейт: Lossless
Тип рипа: tracks+.cue
Описание:

This Is a Standoff - канадская группа, играющая мелодичный хардкор и панк-рок.
После распада группы Belvedere гитарист и автор песен Steve Rawles и барабанщик Graham Chuchill решили создать новый проект. Пригласив Jonh Meloche из группы Forty Cent Fix, они собрались в Калгари, чтобы начать писать песни для первого альбома. Вскоре к группе присоединился Corey Tapp, басист группы One Shot Left.
Интересный факт, 7-го февраля 2012 года было объявлено через свою страницу facebook, что группа решила бросить курить.
#777Продолжительность: 00:31:38

Треклист:

01. Better Than All Of Us [00:02:08]
02. You Won't Pass [00:01:46]
03. Where I Can't Be Heard [00:03:00]
04. An Admission [00:02:25]
05. There's A Little Lemonchello In Everyone [00:02:56]
06. Silvio [00:03:06]
07. Underwater [00:02:09]
08. Climb The Ladder [00:03:09]
09. Fashion Faux Pas [00:01:19]
10. Affliction [00:03:10]
11. My Baby Makes Me Watch The Notebook [00:02:35]
12. Dream Beater [00:03:48]
Код:
Код:
EAC extraction logfile from 30. August 2008, 11:21 for CD
This Is A Standoff / Be Excited

Used drive  : SONY    DVD+-RW DW-D56A   Adapter: 1  ID: 0
Read mode   : Secure with NO C2, accurate stream, disable cache
Read offset correction : 12
Overread into Lead-In and Lead-Out : No

Used output format : C:\Program Files\Exact Audio Copy\flac.exe   (User Defined Encoder)
                     192 kBit/s
                     Additional command line options : -8 -A tukey(0.25) -A gauss(0.1875) -b 4096 -V -T "artist=%a" -T "title=%t" -T "album=%g" -T "date=%y" -T "tracknumber=%n" -T "genre=%m" %s --sector-align

Other options      :
    Fill up missing offset samples with silence : Yes
    Delete leading and trailing silent blocks : No
    Native Win32 interface for Win NT & 2000

Track  1
     Filename E:\FLACS\This Is A Standoff\Be Excited\01 - This Is A Standoff - Better Than All Of Us.wav

     Pre-gap length  0:00:02.00

     Peak level 99.1 %
     Track quality 100.0 %
     Test CRC DDE201FD
     Copy CRC DDE201FD
     Copy OK

Track  2
     Filename E:\FLACS\This Is A Standoff\Be Excited\02 - This Is A Standoff - You Won't Pass.wav

     Peak level 99.1 %
     Track quality 99.9 %
     Test CRC 8FC31B43
     Copy CRC 8FC31B43
     Copy OK

Track  3
     Filename E:\FLACS\This Is A Standoff\Be Excited\03 - This Is A Standoff - Where I Can't Be Heard.wav

     Peak level 99.1 %
     Track quality 100.0 %
     Test CRC EB0AAC43
     Copy CRC EB0AAC43
     Copy OK

Track  4
     Filename E:\FLACS\This Is A Standoff\Be Excited\04 - This Is A Standoff - An Admission.wav

     Peak level 99.1 %
     Track quality 100.0 %
     Test CRC 2FB4CECD
     Copy CRC 2FB4CECD
     Copy OK

Track  5
     Filename E:\FLACS\This Is A Standoff\Be Excited\05 - This Is A Standoff - There's A Little Lemonchello In Everyone.wav

     Peak level 99.1 %
     Track quality 100.0 %
     Test CRC 629204AE
     Copy CRC 629204AE
     Copy OK

Track  6
     Filename E:\FLACS\This Is A Standoff\Be Excited\06 - This Is A Standoff - Silvio.wav

     Peak level 99.1 %
     Track quality 100.0 %
     Test CRC 75B6121A
     Copy CRC 75B6121A
     Copy OK

Track  7
     Filename E:\FLACS\This Is A Standoff\Be Excited\07 - This Is A Standoff - Underwater.wav

     Peak level 99.1 %
     Track quality 100.0 %
     Test CRC 9AD9F4A0
     Copy CRC 9AD9F4A0
     Copy OK

Track  8
     Filename E:\FLACS\This Is A Standoff\Be Excited\08 - This Is A Standoff - Climb The Ladder.wav

     Peak level 99.1 %
     Track quality 100.0 %
     Test CRC 1585FE2B
     Copy CRC 1585FE2B
     Copy OK

Track  9
     Filename E:\FLACS\This Is A Standoff\Be Excited\09 - This Is A Standoff - Fashion Faux Pas.wav

     Peak level 99.1 %
     Track quality 100.0 %
     Test CRC 82E2014E
     Copy CRC 82E2014E
     Copy OK

Track 10
     Filename E:\FLACS\This Is A Standoff\Be Excited\10 - This Is A Standoff - Affliction.wav

     Peak level 99.1 %
     Track quality 100.0 %
     Test CRC AD7BF7DA
     Copy CRC AD7BF7DA
     Copy OK

Track 11
     Filename E:\FLACS\This Is A Standoff\Be Excited\11 - This Is A Standoff - My Baby Makes Me Watch The Notebook.wav

     Peak level 99.1 %
     Track quality 100.0 %
     Test CRC 3423CD77
     Copy CRC 3423CD77
     Copy OK

Track 12
     Filename E:\FLACS\This Is A Standoff\Be Excited\12 - This Is A Standoff - Dream Beater.wav

     Peak level 99.1 %
     Track quality 100.0 %
     Test CRC C45DFEE9
     Copy CRC C45DFEE9
     Copy OK

No errors occured

End of status report
Код:
Код:
-----------------------

DON'T MODIFY THIS FILE

-----------------------

PERFORMER: auCDtect Task Manager, ver. 1.6.0 RC1 build 1.6.0.1
Copyright (c) 2008-2010 y-soft. All rights reserved
http:/y-soft.org

ANALYZER: auCDtect: CD records authenticity detector, version 0.8.2
Copyright (c) 2004 Oleg Berngardt. All rights reserved.
Copyright (c) 2004 Alexander Djourik. All rights reserved.

FILE: 12 - This Is A Standoff - Dream Beater.flac
  Size: 29986068 Hash: 0A54EB2F735C18EF934A0567EE179AA3 Accuracy: -m0
  Conclusion: CDDA 100%
  Signature: 1890638FEDC6B7DCD0C1A45EBE440A4BCA39766A
FILE: 11 - This Is A Standoff - My Baby Makes Me Watch The Notebook.flac
  Size: 20945525 Hash: 76454444670A9C55F84C73D1131D28A9 Accuracy: -m0
  Conclusion: CDDA 100%
  Signature: 3996E4A655E22CC53873D156DBB5873BC9FE604C
FILE: 10 - This Is A Standoff - Affliction.flac
  Size: 26102674 Hash: 9E5524B0501CFBFFE75EE84A2CA0FD0A Accuracy: -m0
  Conclusion: CDDA 100%
  Signature: C9F463A8F0ABBF2B644C05D8FB5BC88E7BAE3231
FILE: 09 - This Is A Standoff - Fashion Faux Pas.flac
  Size: 10811933 Hash: 79D4E46CF3262AD442E4A9AA6FE2BE17 Accuracy: -m0
  Conclusion: CDDA 100%
  Signature: FCE53CDABCA16DF8E9D8310E7D481C9801B29C4A
FILE: 08 - This Is A Standoff - Climb The Ladder.flac
  Size: 25680060 Hash: A181CC184147E7B57347573F964B5536 Accuracy: -m0
  Conclusion: CDDA 100%
  Signature: FD890D660A9660E81232792849D06E81C008DE59
FILE: 07 - This Is A Standoff - Underwater.flac
  Size: 17223679 Hash: 02AD55872E4F0D05D0521A11ECE8C83B Accuracy: -m0
  Conclusion: CDDA 100%
  Signature: BACC5DAB3C750021EB8C94F2E05435C60B93012A
FILE: 06 - This Is A Standoff - Silvio.flac
  Size: 25237883 Hash: A2DB3B72AC0072379C58988CB5BF1967 Accuracy: -m0
  Conclusion: CDDA 100%
  Signature: 503ABF6BD24E28B49DE7D01027810ED4682234DC
FILE: 05 - This Is A Standoff - There's A Little Lemonchello In Everyone.flac
  Size: 23759723 Hash: B5ADF5CA0697F4F270B16E6F7CE2A699 Accuracy: -m0
  Conclusion: CDDA 100%
  Signature: 90AF72AAD30853A83839BC78B43A7E5F1BD338E5
FILE: 04 - This Is A Standoff - An Admission.flac
  Size: 19913098 Hash: FF5011200AD2D4D9B41156B21C1F1186 Accuracy: -m0
  Conclusion: CDDA 100%
  Signature: 82B8CC52D5A9F39EFECD02DF34D7CD6A55D2121A
FILE: 03 - This Is A Standoff - Where I Can't Be Heard.flac
  Size: 24178342 Hash: B5E353521645A183934FF46AE45631FA Accuracy: -m0
  Conclusion: CDDA 100%
  Signature: 374B8D28105B3C697AA5482ECA743D51F51C27DC
FILE: 02 - This Is A Standoff - You Won't Pass.flac
  Size: 14889693 Hash: 3883803EF302C384736E0A25BC7CDC76 Accuracy: -m0
  Conclusion: CDDA 100%
  Signature: 6D3D7380328D23B2505811C7E478E3EB6D48FB3A
FILE: 01 - This Is A Standoff - Better Than All Of Us.flac
  Size: 17353157 Hash: D27C3FC142121B85C8F99DED28CE4375 Accuracy: -m0
  Conclusion: CDDA 100%
  Signature: 4752779C2691DDB2525978E5BF6F25B98D6D88C2
#777Продолжительность: 00:34:03

Треклист:

01. The Light Is Still On In Broadmoor [00:02:56]
02. Everything We Take [00:02:30]
03. Graveyards [00:03:10]
04. Days Go By [00:02:35]
05. Can't Take Them All [00:01:44]
06. Sunrise [00:01:29]
07. Face The Sun [00:02:43]
08. Five More Minutes [00:02:02]
09. This Song Is Recycled [00:03:18]
10. Go With Me [00:03:08]
11. No Thanks [00:00:49]
12. Settling The Score [00:02:44]
13. Trails Of White [00:04:49]
Код:
Код:
Exact Audio Copy V0.99 prebeta 5 from 4. May 2009

EAC extraction logfile from 30. June 2009, 18:43

This Is A Standoff / Be Disappointed

Used drive  : HL-DT-STDVDRAM GSA-4120B   Adapter: 1  ID: 0

Read mode               : Secure
Utilize accurate stream : Yes
Defeat audio cache      : Yes
Make use of C2 pointers : No

Read offset correction                      : 667
Overread into Lead-In and Lead-Out          : No
Fill up missing offset samples with silence : Yes
Delete leading and trailing silent blocks   : No
Null samples used in CRC calculations       : Yes
Used interface                              : Native Win32 interface for Win NT & 2000
Gap handling                                : Appended to previous track

Used output format              : User Defined Encoder
Selected bitrate                : 768 kBit/s
Quality                         : High
Add ID3 tag                     : No
Command line compressor         : C:\Program Files\Exact Audio Copy\Flac\flac.exe
Additional command line options : -8 -V -T "ARTIST=%a" -T "TITLE=%t" -T "ALBUM=%g" -T "DATE=%y" -T "TRACKNUMBER=%n" -T "GENRE=%m" -T "COMMENT=%e" %s -o %d

TOC of the extracted CD

     Track |   Start  |  Length  | Start sector | End sector
    ---------------------------------------------------------
        1  |  0:00.00 |  2:56.48 |         0    |    13247
        2  |  2:56.48 |  2:30.27 |     13248    |    24524
        3  |  5:27.00 |  3:10.06 |     24525    |    38780
        4  |  8:37.06 |  2:35.29 |     38781    |    50434
        5  | 11:12.35 |  1:44.41 |     50435    |    58275
        6  | 12:57.01 |  1:29.55 |     58276    |    65005
        7  | 14:26.56 |  2:43.32 |     65006    |    77262
        8  | 17:10.13 |  2:02.25 |     77263    |    86437
        9  | 19:12.38 |  3:18.10 |     86438    |   101297
       10  | 22:30.48 |  3:08.62 |    101298    |   115459
       11  | 25:39.35 |  0:49.69 |    115460    |   119203
       12  | 26:29.29 |  2:44.20 |    119204    |   131523
       13  | 29:13.49 |  4:49.54 |    131524    |   153252

Track  1

     Filename C:\FLACs\This Is A Standoff - 01 - The Light Is Still On In Broadmoor.wav

     Pre-gap length  0:00:02.00

     Peak level 100.0 %
     Track quality 99.9 %
     Test CRC 9B76F8A1
     Copy CRC 9B76F8A1
     Track not present in AccurateRip database
     Copy OK

Track  2

     Filename C:\FLACs\This Is A Standoff - 02 - Everything We Take.wav

     Peak level 100.0 %
     Track quality 100.0 %
     Test CRC A5B2657C
     Copy CRC A5B2657C
     Track not present in AccurateRip database
     Copy OK

Track  3

     Filename C:\FLACs\This Is A Standoff - 03 - Graveyards.wav

     Peak level 100.0 %
     Track quality 100.0 %
     Test CRC 73079A73
     Copy CRC 73079A73
     Track not present in AccurateRip database
     Copy OK

Track  4

     Filename C:\FLACs\This Is A Standoff - 04 - Days Go By.wav

     Peak level 100.0 %
     Track quality 99.9 %
     Test CRC 0FECDD03
     Copy CRC 0FECDD03
     Track not present in AccurateRip database
     Copy OK

Track  5

     Filename C:\FLACs\This Is A Standoff - 05 - Can't Take Them All.wav

     Peak level 100.0 %
     Track quality 100.0 %
     Test CRC 0BF6C75B
     Copy CRC 0BF6C75B
     Track not present in AccurateRip database
     Copy OK

Track  6

     Filename C:\FLACs\This Is A Standoff - 06 - Sunrise.wav

     Peak level 100.0 %
     Track quality 100.0 %
     Test CRC 8085ADFA
     Copy CRC 8085ADFA
     Track not present in AccurateRip database
     Copy OK

Track  7

     Filename C:\FLACs\This Is A Standoff - 07 - Face The Sun.wav

     Peak level 100.0 %
     Track quality 100.0 %
     Test CRC C66F76A8
     Copy CRC C66F76A8
     Track not present in AccurateRip database
     Copy OK

Track  8

     Filename C:\FLACs\This Is A Standoff - 08 - Five More Minutes.wav

     Peak level 100.0 %
     Track quality 100.0 %
     Test CRC 5D66CCF7
     Copy CRC 5D66CCF7
     Track not present in AccurateRip database
     Copy OK

Track  9

     Filename C:\FLACs\This Is A Standoff - 09 - This Song Is Recycled.wav

     Peak level 100.0 %
     Track quality 100.0 %
     Test CRC A0062B3D
     Copy CRC A0062B3D
     Track not present in AccurateRip database
     Copy OK

Track 10

     Filename C:\FLACs\This Is A Standoff - 10 - Go With Me.wav

     Peak level 100.0 %
     Track quality 100.0 %
     Test CRC 1C99F10A
     Copy CRC 1C99F10A
     Track not present in AccurateRip database
     Copy OK

Track 11

     Filename C:\FLACs\This Is A Standoff - 11 - No Thanks.wav

     Peak level 100.0 %
     Track quality 100.0 %
     Test CRC 4ED9F85D
     Copy CRC 4ED9F85D
     Track not present in AccurateRip database
     Copy OK

Track 12

     Filename C:\FLACs\This Is A Standoff - 12 - Settling The Score.wav

     Peak level 100.0 %
     Track quality 100.0 %
     Test CRC 4A69470E
     Copy CRC 4A69470E
     Track not present in AccurateRip database
     Copy OK

Track 13

     Filename C:\FLACs\This Is A Standoff - 13 - Trails Of White.wav

     Peak level 100.0 %
     Track quality 100.0 %
     Test CRC B334680E
     Copy CRC B334680E
     Track not present in AccurateRip database
     Copy OK

None of the tracks are present in the AccurateRip database

No errors occurred

End of status report
Код:
Код:
-----------------------

DON'T MODIFY THIS FILE

-----------------------

PERFORMER: auCDtect Task Manager, ver. 1.6.0 RC1 build 1.6.0.1
Copyright (c) 2008-2010 y-soft. All rights reserved
http:/y-soft.org

ANALYZER: auCDtect: CD records authenticity detector, version 0.8.2
Copyright (c) 2004 Oleg Berngardt. All rights reserved.
Copyright (c) 2004 Alexander Djourik. All rights reserved.

FILE: This Is A Standoff - 13 - Trails Of White.flac
  Size: 36926234 Hash: CBCC718D88D788A17AC51B4FC610D947 Accuracy: -m0
  Conclusion: CDDA 100%
  Signature: 56D5ABE45389BCD6AE67E969DFCB2F727DE13FC9
FILE: This Is A Standoff - 12 - Settling The Score.flac
  Size: 22303531 Hash: E5F0EA4238FB82F8091F1F9CA4CBBB55 Accuracy: -m0
  Conclusion: CDDA 100%
  Signature: C3A184F3323574D44E6071498775FE8CDF337FAF
FILE: This Is A Standoff - 11 - No Thanks.flac
  Size: 6742418 Hash: E395ED6DB22ABB42A7E8ABCD332367AD Accuracy: -m0
  Conclusion: CDDA 100%
  Signature: ABA40AEB0ED2C4C3D761B790997C01B73778D33B
FILE: This Is A Standoff - 10 - Go With Me.flac
  Size: 24735551 Hash: 2F8E9BEEDFC0C7A98B887DB97341F24E Accuracy: -m0
  Conclusion: CDDA 100%
  Signature: 3001692E8E26E114DB9460E153E2A9A7FED62BFC
FILE: This Is A Standoff - 09 - This Song Is Recycled.flac
  Size: 26379381 Hash: EA9E02EDF74E34006AACF2779666F4BF Accuracy: -m0
  Conclusion: CDDA 100%
  Signature: 4E4C5445061FF285FC408BFB8554DBBF6D22B632
FILE: This Is A Standoff - 08 - Five More Minutes.flac
  Size: 16704158 Hash: 30E2BCDE6C18339339BB7F80696C2357 Accuracy: -m0
  Conclusion: CDDA 100%
  Signature: 833BC93667A30C1C97DF8D7EB394499003097D01
FILE: This Is A Standoff - 07 - Face The Sun.flac
  Size: 21934850 Hash: 7A65C1255481130EBAC304BFEECE7ECF Accuracy: -m0
  Conclusion: CDDA 100%
  Signature: D244AB1118AEB3EF186A0333395FFE1A5CD84994
FILE: This Is A Standoff - 06 - Sunrise.flac
  Size: 9718115 Hash: 489F5E89F592821920A9CF7AE2FAA719 Accuracy: -m0
  Conclusion: CDDA 100%
  Signature: C4C5CABE9385E4BAC3EA87B401DE3530D278EAA7
FILE: This Is A Standoff - 05 - Can't Take Them All.flac
  Size: 14249237 Hash: BF8432ACFC9C123558AE732413084AFB Accuracy: -m0
  Conclusion: CDDA 100%
  Signature: 9EFA63081EAC380D063C03A32FCABCD3CD356962
FILE: This Is A Standoff - 04 - Days Go By.flac
  Size: 20550496 Hash: BA4C946AF5ED21151B30E48D8904ACD6 Accuracy: -m0
  Conclusion: CDDA 99%
  Signature: A898998F9C862FF307CFDE2F99226BB7D351CE07
FILE: This Is A Standoff - 03 - Graveyards.flac
  Size: 25243284 Hash: 4046AF9D81EC20D4A543A3F84BC61D92 Accuracy: -m0
  Conclusion: CDDA 100%
  Signature: 5069273A2A05F5CC19844642D11135EA861941FC
FILE: This Is A Standoff - 02 - Everything We Take.flac
  Size: 19574262 Hash: F4A70987DDB71CAEEC401666D9A6070D Accuracy: -m0
  Conclusion: CDDA 100%
  Signature: 6CC04F744F5D6EDB748DC4D0405277A7243DC993
FILE: This Is A Standoff - 01 - The Light Is Still On In Broadmoor.flac
  Size: 23603083 Hash: 21B2C074621BF57126081F116A759943 Accuracy: -m0
  Conclusion: CDDA 100%
  Signature: 94CF8FCA700EB2E3E039730D0A27C0E6B7534D15
#777Продолжительность: 00:15:08

Треклист:

01. We're Really Doing It [00:03:33]
02. The Enlightened One [00:02:44]
03. Head In The Sand [00:02:34]
04. See You At The Bottom [00:03:08]
05. Vanadian [00:03:06]
Код:
Код:
Exact Audio Copy V1.0 beta 3 from 29. August 2011

EAC extraction logfile from 25. September 2011, 18:34

This Is A Standoff / Be Delighted

Used drive  : ATAPI   iHAP322   8   Adapter: 0  ID: 0

Read mode               : Secure
Utilize accurate stream : Yes
Defeat audio cache      : Yes
Make use of C2 pointers : No

Read offset correction                      : 6
Overread into Lead-In and Lead-Out          : No
Fill up missing offset samples with silence : Yes
Delete leading and trailing silent blocks   : No
Null samples used in CRC calculations       : Yes
Used interface                              : Native Win32 interface for Win NT & 2000
Gap handling                                : Appended to previous track

Used output format              : User Defined Encoder
Selected bitrate                : 1024 kBit/s
Quality                         : High
Add ID3 tag                     : No
Command line compressor         : C:\Program Files\Exact Audio Copy\Flac\flac.exe
Additional command line options : -8 -V -T "ARTIST=%artist%" -T "TITLE=%title%" -T "ALBUM=%albumtitle%" -T "DATE=%year%" -T "TRACKNUMBER=%tracknr%" -T "GENRE=%genre%" -T "PERFORMER=%albuminterpret%" -T "COMPOSER=%composer%" %haslyrics%--tag-from-file=LYRICS="%lyricsfile%"%haslyrics% -T "ALBUMARTIST=%albumartist%" -T "ALBUM ARTIST=%albumartist%" -T "DISCNUMBER=%cdnumber%" -T "TOTALDISCS=%totalcds%" -T "TOTALTRACKS=%numtracks%" -T "COMMENT=EAC V1.0 beta 3, Secure Mode, Test & Copy, AccurateRip, FLAC -8" %source% -o %dest%

TOC of the extracted CD

     Track |   Start  |  Length  | Start sector | End sector
    ---------------------------------------------------------
        1  |  0:00.00 |  3:33.32 |         0    |    16006
        2  |  3:33.32 |  2:44.44 |     16007    |    28350
        3  |  6:18.01 |  2:34.45 |     28351    |    39945
        4  |  8:52.46 |  3:08.63 |     39946    |    54108
        5  | 12:01.34 |  3:06.23 |     54109    |    68081

Track  1

     Filename C:\This Is A Standoff - Be Delighted (2011)\01 - We're Really Doing It.wav

     Pre-gap length  0:00:02.00

     Peak level 100.0 %
     Extraction speed 3.3 X
     Track quality 99.9 %
     Test CRC 6DC3B1E8
     Copy CRC 6DC3B1E8
     Track not present in AccurateRip database
     Copy OK

Track  2

     Filename C:\This Is A Standoff - Be Delighted (2011)\02 - The Enlightened One.wav

     Peak level 99.9 %
     Extraction speed 4.2 X
     Track quality 100.0 %
     Test CRC CA864BC1
     Copy CRC CA864BC1
     Track not present in AccurateRip database
     Copy OK

Track  3

     Filename C:\This Is A Standoff - Be Delighted (2011)\03 - Head In The Sand.wav

     Peak level 99.9 %
     Extraction speed 4.4 X
     Track quality 100.0 %
     Test CRC D737D32E
     Copy CRC D737D32E
     Track not present in AccurateRip database
     Copy OK

Track  4

     Filename C:\This Is A Standoff - Be Delighted (2011)\04 - See You At The Bottom.wav

     Peak level 99.9 %
     Extraction speed 4.9 X
     Track quality 100.0 %
     Test CRC D93F4BB7
     Copy CRC D93F4BB7
     Track not present in AccurateRip database
     Copy OK

Track  5

     Filename C:\This Is A Standoff - Be Delighted (2011)\05 - Vanadian.wav

     Peak level 99.9 %
     Extraction speed 5.1 X
     Track quality 100.0 %
     Test CRC D8D7EE6B
     Copy CRC D8D7EE6B
     Track not present in AccurateRip database
     Copy OK

None of the tracks are present in the AccurateRip database

No errors occurred

End of status report

---- CUETools DB Plugin V2.1.3

[CTDB TOCID: PD2Kfvt7awk1rr730CvUEyFRdlo-] disk not present in database, Submit result: PD2Kfvt7awk1rr730CvUEyFRdlo- has been uploaded

==== Log checksum 59EE89E7D18E120B0DB53AA90D361597B15C6DD9A427E244301BE772CBBBB031 ====
Код:
Код:
-----------------------

DON'T MODIFY THIS FILE

-----------------------

PERFORMER: auCDtect Task Manager, ver. 1.6.0 RC1 build 1.6.0.1
Copyright (c) 2008-2010 y-soft. All rights reserved
http:/y-soft.org

ANALYZER: auCDtect: CD records authenticity detector, version 0.8.2
Copyright (c) 2004 Oleg Berngardt. All rights reserved.
Copyright (c) 2004 Alexander Djourik. All rights reserved.

FILE: 05 - Vanadian.flac
  Size: 24653200 Hash: FE3B7ACB80D533C664E249A6A955B5AB Accuracy: -m0
  Conclusion: CDDA 100%
  Signature: EF331A497C36F69D9AFA8645A7405559CDD2511F
FILE: 04 - See You At The Bottom.flac
  Size: 25915381 Hash: EA89DC9A18393A970DF6A6EB1EB164ED Accuracy: -m0
  Conclusion: CDDA 100%
  Signature: ED308B610C1472ED828CF286A013684225B66621
FILE: 03 - Head In The Sand.flac
  Size: 21859853 Hash: F0F4EDD345B5F7C97D4DD70D804FD588 Accuracy: -m0
  Conclusion: CDDA 100%
  Signature: 2E1A01731D873D4172D66F4C6C4598ABB29A53BB
FILE: 02 - The Enlightened One.flac
  Size: 23024060 Hash: 00F880F61572014B2F76616425615FD9 Accuracy: -m0
  Conclusion: CDDA 100%
  Signature: 4A769B4405DF54A1756F64A2EEE4993C70DE898C
FILE: 01 - We're Really Doing It.flac
  Size: 29336621 Hash: 4ED1D3078270AC5DDE2F314EA75B5514 Accuracy: -m0
  Conclusion: CDDA 100%
  Signature: F3F7FC3B73C7D82C41DB2D2908356F6EAF965E4E
Правила, инструкции, FAQ!!!
Торрент  Добавлен [16 мар 2014, 00:45] Скачать торрент Магнет ссылка
Скачать торрент
[ Размер 17.53 КБ / Просмотров 12 ]

Статус  
 
Размер  619.83 МБ
Приватный: Нет (DHT включён)
.torrent скачан  0
 


     Отправить личное сообщение
   
Страница 1 из 1
Показать сообщения за:  Поле сортировки  
Начать новую тему Ответить на тему


Сейчас этот форум просматривают: нет зарегистрированных пользователей и гости: 0


Вы не можете начинать темы
Вы не можете отвечать на сообщения
Вы не можете редактировать свои сообщения
Вы не можете удалять свои сообщения
Вы не можете добавлять вложения

Перейти:  
cron
cron