Начать новую тему Ответить на тему
Статистика раздачи
Размер: 392.46 МБ | Добавлен: 16 мар 2014, 00:02 | Скачали: 1
Сидеров: 1  [0 байт/сек]    Личеров: 0  [0 байт/сек]
Пред. тема | След. тема 

Автор
Сообщение

СообщениеДобавлено: 16 мар 2014, 00:02 

Ответить с цитатой 

The Vintage Caravan - Voyage (2014)

Жанр: Rock/Hard Rock/Progressive Rock
Год: 2014
Страна: Iceland
Страна производитель: Germany
Label: Nuclear Blast Records
Catalog#: NB 3263-0
Аудио кодек: FLAC
Тип рипа: image+.cue
Битрейт аудио: lossless
Продолжительность: 00:55:03
Автор рипа: RD
Scans: в раздаче
Треклист:
01. Craving (4:25)
02. Let Me Be (4:28)
03. Do You Remember (4:58)
04. Expand Your Mind (6:58)
05. M.A.R.S.W.A.T.T (4:02)
06. Cocaine Sally (2:46)
07. Winterland (6:15)
08. Midnight Meditation (4:48)
09. The King's Voyage (11:59)
10. Psychedelic Mushroom Man (Bonus) (4:23)


Дебютный студийный альбом ретро-рок-трио из Исландии.
На дворе стоял 2006 год, дело было в Рейкьявике. 12-летние подростки Оскар и Гудйоун решили собрать группу. Источником вдохновения, конечно, послужила объемная музыкальная коллекция родителей. Слава богу, вкус у них был хороший! Название The Vintage Caravan ребята придумали тогда же. Спустя всего три года они уже записали дебютный альбом. Свет он увидел, правда, только в 2011-м. Приятная смесь психоделии и блюза пришлась исландцам по вкусу, и дуэт отправился в путешествие по всей стране.
Казалось бы, и международный успех не за горами, но выпущенный в 2012 году “Voyage” не смог выйти за пределы родины, хоть и выпустил его самый крупный лейбл в Исландии. Исправить ситуацию решила команда Nuclear Blast, взяв талантливую молодежь под свое крыло. Ведь профессионально исполненный и качественный классический рок сейчас более чем актуален.
Группа стоит на плечах титанов: среди их любимых команд King Crimson, Led Zeppelin, Yes, Gentle Giant, Black Sabbath, Jimi Hendrix, Cream и Deep Purple. Но The Vintage Caravan не занимается простым копированием своих героев. Впрочем, рассказывать можно сколько угодно, а лучше отправляйтесь в красочный грибной трип с группой!
Там столько всего намешано – разговаривающие морские свинки, космическое путешествие, длинноногие блондинки… и брюнетки, трепанация черепа. В общем - Expand Your Mind! – в арсенале группы каждому найдется что-то по вкусу! (soyuz-music)

Musicians:
Oskar Logi Agustsson - Gitarleikari og songvari (Guitar and vocals)
Gudjon Reynisson - Trommuleikari (Drums)
Alexander Orn Numason - Bassaleikari (Bass)
Код:
Код:
Exact Audio Copy V1.0 beta 3 from 29. August 2011

EAC extraction logfile from 24. January 2014, 23:50

The Vintage Caravan / Voyage

Used drive  : MATSHITABD-CMB UJ242AS   Adapter: 0  ID: 1

Read mode               : Secure
Utilize accurate stream : Yes
Defeat audio cache      : Yes
Make use of C2 pointers : No

Read offset correction                      : 103
Overread into Lead-In and Lead-Out          : No
Fill up missing offset samples with silence : Yes
Delete leading and trailing silent blocks   : No
Null samples used in CRC calculations       : Yes
Used interface                              : Installed external ASPI interface

Used output format              : User Defined Encoder
Selected bitrate                : 1024 kBit/s
Quality                         : High
Add ID3 tag                     : Yes
Command line compressor         : C:\Program Files (x86)\Exact Audio Copy\Flac\flac.exe
Additional command line options : -V -8 -T "Date=%year%" -T "Genre=%genre%" %source%

TOC of the extracted CD

     Track |   Start  |  Length  | Start sector | End sector
    ---------------------------------------------------------
        1  |  0:00.00 |  4:25.24 |         0    |    19898
        2  |  4:25.24 |  4:28.37 |     19899    |    40035
        3  |  8:53.61 |  4:58.17 |     40036    |    62402
        4  | 13:52.03 |  6:58.20 |     62403    |    93772
        5  | 20:50.23 |  4:01.59 |     93773    |   111906
        6  | 24:52.07 |  2:46.14 |    111907    |   124370
        7  | 27:38.21 |  6:14.65 |    124371    |   152485
        8  | 33:53.11 |  4:48.11 |    152486    |   174096
        9  | 38:41.22 | 11:58.61 |    174097    |   228007
       10  | 50:40.08 |  4:23.02 |    228008    |   247734

Range status and errors

Selected range

     Filename C:\EACrip\The Vintage Caravan - Voyage.wav

     Peak level 98.8 %
     Extraction speed 2.5 X
     Range quality 100.0 %
     Test CRC C5470FA2
     Copy CRC C5470FA2
     Copy OK

No errors occurred

AccurateRip summary

Track  1  not present in database
Track  2  not present in database
Track  3  not present in database
Track  4  not present in database
Track  5  not present in database
Track  6  not present in database
Track  7  not present in database
Track  8  not present in database
Track  9  not present in database
Track 10  not present in database

None of the tracks are present in the AccurateRip database

End of status report

==== Log checksum 9EE1271C532A9328A2E5138F1A4875B3DCE15066E39EFE11BC4757F54F970CAF ====
Код:
Код:
-----------------------

DON'T MODIFY THIS FILE

-----------------------

PERFORMER: auCDtect Task Manager, ver. 1.6.0 RC1 build 1.6.0.1
Copyright (c) 2008-2010 y-soft. All rights reserved
http:/y-soft.org

ANALYZER: auCDtect: CD records authenticity detector, version 0.8.2
Copyright (c) 2004 Oleg Berngardt. All rights reserved.
Copyright (c) 2004 Alexander Djourik. All rights reserved.

FILE: The Vintage Caravan - Voyage.flac
  Size: 393203232 Hash: 2FC000C756DDEFADEF8899976261E21A Accuracy: -m0
  Conclusion: CDDA 100%
  Signature: 2FF5500DA3FACF59C12A5846DEB9720132B42817
Правила, инструкции, FAQ!!!
Торрент  Добавлен [16 мар 2014, 00:02] Скачать торрент Магнет ссылка
Скачать торрент
[ Размер 16.84 КБ / Просмотров 45 ]

Статус  
 
Размер  392.46 МБ
Приватный: Нет (DHT включён)
.torrent скачан  1
 


     Отправить личное сообщение
   
Страница 1 из 1
Показать сообщения за:  Поле сортировки  
Начать новую тему Ответить на тему


Сейчас этот форум просматривают: нет зарегистрированных пользователей и гости: 0


Вы не можете начинать темы
Вы не можете отвечать на сообщения
Вы не можете редактировать свои сообщения
Вы не можете удалять свои сообщения
Вы не можете добавлять вложения

Перейти:  
cron
cron