Начать новую тему Ответить на тему
Статистика раздачи
Размер: 896.85 МБ | Добавлен: 16 мар 2014, 00:21 | Скачали: 0
Сидеров: 1  [0 байт/сек]    Личеров: 0  [0 байт/сек]
Пред. тема | След. тема 

Автор
Сообщение

СообщениеДобавлено: 16 мар 2014, 00:21 

Ответить с цитатой 

The Velvet Underground - White Light/White Heat (1968)

Год: 1968
Жанр: Rock & Roll, Avantgarde, Proto-punk
Дата релиза: 4 декабря 2013

Кодек: FLAC
Битрейт: Lossless
Тип рипа: tracks + .cue
Сканы: нет

Описание: К своему 45-летию второй студийный альбом группы The Velvet Underground был переиздан на трёх CD: первый включает в себя ремастированный альбом плюс бонусы, в т. ч. раннюю версию Beginning To See The Light с участием Джона Кейла. Второй диск содержит уникальные моно-миксы альбома и сингла White Light / White Heat/Here She Comes Now, а также вокальную и инструментальную версию The Gift. На третьем диске вышла запись концерта в одном клубе Нью-Йорка за пять месяцев до начала записи альбома.
Продолжительность: 01:07:39

Трек лист:
01. White Light/White Heat (2:48)
02. The Gift (8:20)
03. Lady Godiva's Operation (4:57)
04. Here She Comes Now (2:05)
05. I Heard Her Call My Name (4:38)
06. Sister Ray (17:32)
07. I Heard Her Call My Name (alternate take) (4:39)
08. Guess I'm Falling In Love (instrumental version) (3:34)
09. Temptation Inside Your Heart (original mix) (2:33)
10. Stephanie Says (original mix) (2:50)
11. Hey Mr. Rain (version one) (4:40)
12. Hey Mr. Rain (version two) (5:24)
13. Beginning To See The Light (unreleased early version) (3:39)
Код:
Код:
Exact Audio Copy V1.0 beta 3 from 29. August 2011

EAC extraction logfile from 10. December 2013, 19:05

The Velvet Underground / White Light/White Heat 45 Anniversary Super Deluxe Edition(Disc 1)

Used drive  : MATSHITABD-CMB UJ141EF   Adapter: 0  ID: 0

Read mode               : Secure
Utilize accurate stream : Yes
Defeat audio cache      : Yes
Make use of C2 pointers : No

Read offset correction                      : 103
Overread into Lead-In and Lead-Out          : No
Fill up missing offset samples with silence : Yes
Delete leading and trailing silent blocks   : No
Null samples used in CRC calculations       : Yes
Used interface                              : Native Win32 interface for Win NT & 2000
Gap handling                                : Appended to previous track

Used output format              : User Defined Encoder
Selected bitrate                : 1024 kBit/s
Quality                         : High
Add ID3 tag                     : No
Command line compressor         : C:\Program Files (x86)\Exact Audio Copy\Flac\flac.exe
Additional command line options : -8 -V -T "ARTIST=%artist%" -T "TITLE=%title%" -T "ALBUM=%albumtitle%" -T "DATE=%year%" -T "TRACKNUMBER=%tracknr%" -T "GENRE=%genre%" -T "PERFORMER=%albuminterpret%" -T "COMPOSER=%composer%" %haslyrics%--tag-from-file=LYRICS="%lyricsfile%"%haslyrics% -T "ALBUMARTIST=%albumartist%" -T "DISCNUMBER=%cdnumber%" -T "TOTALDISCS=%totalcds%" -T "TOTALTRACKS=%numtracks%" -T "COMMENT=%comment%" %source% -o %dest%

TOC of the extracted CD

     Track |   Start  |  Length  | Start sector | End sector
    ---------------------------------------------------------
        1  |  0:00.00 |  2:47.49 |         0    |    12573
        2  |  2:47.49 |  8:19.56 |     12574    |    50054
        3  | 11:07.30 |  4:56.64 |     50055    |    72318
        4  | 16:04.19 |  2:05.23 |     72319    |    81716
        5  | 18:09.42 |  4:38.28 |     81717    |   102594
        6  | 22:47.70 | 17:31.64 |    102595    |   181483
        7  | 40:19.59 |  4:38.72 |    181484    |   202405
        8  | 44:58.56 |  3:33.72 |    202406    |   218452
        9  | 48:32.53 |  2:32.53 |    218453    |   229905
       10  | 51:05.31 |  2:49.42 |    229906    |   242622
       11  | 53:54.73 |  4:39.71 |    242623    |   263618
       12  | 58:34.69 |  5:24.17 |    263619    |   287935
       13  | 63:59.11 |  3:39.27 |    287936    |   304387

Track  1

     Filename C:\VU-White Light White Heat 45 Anniversary Super Deluxe Edition\White LightWhite Heat 45 Anniversary Super Deluxe Edition(D1)\01 - White Light,White Heat.wav

     Pre-gap length  0:00:02.00

     Peak level 95.2 %
     Extraction speed 1.6 X
     Track quality 99.9 %
     Test CRC E3B8E090
     Copy CRC E3B8E090
     Track not present in AccurateRip database
     Copy OK

Track  2

     Filename C:\VU-White Light White Heat 45 Anniversary Super Deluxe Edition\White LightWhite Heat 45 Anniversary Super Deluxe Edition(D1)\02 - The Gift.wav

     Peak level 98.0 %
     Extraction speed 3.0 X
     Track quality 100.0 %
     Test CRC 95B1FAEA
     Copy CRC 95B1FAEA
     Track not present in AccurateRip database
     Copy OK

Track  3

     Filename C:\VU-White Light White Heat 45 Anniversary Super Deluxe Edition\White LightWhite Heat 45 Anniversary Super Deluxe Edition(D1)\03 - Lady Godiva's Operation.wav

     Peak level 98.4 %
     Extraction speed 3.3 X
     Track quality 100.0 %
     Test CRC FEAC6E43
     Copy CRC FEAC6E43
     Track not present in AccurateRip database
     Copy OK

Track  4

     Filename C:\VU-White Light White Heat 45 Anniversary Super Deluxe Edition\White LightWhite Heat 45 Anniversary Super Deluxe Edition(D1)\04 - Here She Comes Now.wav

     Peak level 97.4 %
     Extraction speed 3.0 X
     Track quality 100.0 %
     Test CRC A6EE3AD0
     Copy CRC A6EE3AD0
     Track not present in AccurateRip database
     Copy OK

Track  5

     Filename C:\VU-White Light White Heat 45 Anniversary Super Deluxe Edition\White LightWhite Heat 45 Anniversary Super Deluxe Edition(D1)\05 - I Heard Her Call My Name.wav

     Peak level 97.9 %
     Extraction speed 3.6 X
     Track quality 100.0 %
     Test CRC 00EE8847
     Copy CRC 00EE8847
     Track not present in AccurateRip database
     Copy OK

Track  6

     Filename C:\VU-White Light White Heat 45 Anniversary Super Deluxe Edition\White LightWhite Heat 45 Anniversary Super Deluxe Edition(D1)\06 - Sister Ray.wav

     Peak level 95.1 %
     Extraction speed 4.4 X
     Track quality 100.0 %
     Test CRC 08E82740
     Copy CRC 08E82740
     Track not present in AccurateRip database
     Copy OK

Track  7

     Filename C:\VU-White Light White Heat 45 Anniversary Super Deluxe Edition\White LightWhite Heat 45 Anniversary Super Deluxe Edition(D1)\07 - I Heard Her Call My Name(alternate take).wav

     Peak level 90.0 %
     Extraction speed 4.5 X
     Track quality 100.0 %
     Test CRC BA6F4D19
     Copy CRC BA6F4D19
     Track not present in AccurateRip database
     Copy OK

Track  8

     Filename C:\VU-White Light White Heat 45 Anniversary Super Deluxe Edition\White LightWhite Heat 45 Anniversary Super Deluxe Edition(D1)\08 - Guess I'm Falling In Love(instrumental version).wav

     Peak level 90.3 %
     Extraction speed 4.5 X
     Track quality 100.0 %
     Test CRC 459901B1
     Copy CRC 459901B1
     Track not present in AccurateRip database
     Copy OK

Track  9

     Filename C:\VU-White Light White Heat 45 Anniversary Super Deluxe Edition\White LightWhite Heat 45 Anniversary Super Deluxe Edition(D1)\09 - Temptation Inside Your Heart(original mix).wav

     Peak level 98.0 %
     Extraction speed 2.9 X
     Track quality 99.9 %
     Test CRC F94C18AE
     Copy CRC F94C18AE
     Track not present in AccurateRip database
     Copy OK

Track 10

     Filename C:\VU-White Light White Heat 45 Anniversary Super Deluxe Edition\White LightWhite Heat 45 Anniversary Super Deluxe Edition(D1)\10 - Stephanie Says(original mix).wav

     Peak level 96.8 %
     Extraction speed 4.4 X
     Track quality 100.0 %
     Test CRC F87DFCB9
     Copy CRC F87DFCB9
     Track not present in AccurateRip database
     Copy OK

Track 11

     Filename C:\VU-White Light White Heat 45 Anniversary Super Deluxe Edition\White LightWhite Heat 45 Anniversary Super Deluxe Edition(D1)\11 - Hey Mr. Rain(version one).wav

     Peak level 100.0 %
     Extraction speed 4.9 X
     Track quality 100.0 %
     Test CRC ECF8A706
     Copy CRC ECF8A706
     Track not present in AccurateRip database
     Copy OK

Track 12

     Filename C:\VU-White Light White Heat 45 Anniversary Super Deluxe Edition\White LightWhite Heat 45 Anniversary Super Deluxe Edition(D1)\12 - Hey Mr. Rain(version two).wav

     Peak level 97.4 %
     Extraction speed 5.2 X
     Track quality 100.0 %
     Test CRC 2337B1FA
     Copy CRC 2337B1FA
     Track not present in AccurateRip database
     Copy OK

Track 13

     Filename C:\VU-White Light White Heat 45 Anniversary Super Deluxe Edition\White LightWhite Heat 45 Anniversary Super Deluxe Edition(D1)\13 - Beginning To See The Light(unreleased early version).wav

     Peak level 98.8 %
     Extraction speed 5.0 X
     Track quality 100.0 %
     Test CRC 2C26C0E1
     Copy CRC 2C26C0E1
     Track not present in AccurateRip database
     Copy OK

None of the tracks are present in the AccurateRip database

No errors occurred

End of status report

---- CUETools DB Plugin V2.1.3

[CTDB TOCID: Y7nCpGwyh.yOH2BSn2nasjA0dUQ-] disk not present in database, Submit result: Y7nCpGwyh.yOH2BSn2nasjA0dUQ- has been uploaded

==== Log checksum 733E30AD1A15AC87C49B3ACCBDCF04D9BEC7DA6392BD08DA8F80BE1F2D0E30EF ====

Код:
Код:
-----------------------

DON'T MODIFY THIS FILE

-----------------------

PERFORMER: auCDtect Task Manager, ver. 1.6.0 RC1 build 1.6.0.1
Copyright (c) 2008-2010 y-soft. All rights reserved
http:/y-soft.org

ANALYZER: auCDtect: CD records authenticity detector, version 0.8.2
Copyright (c) 2004 Oleg Berngardt. All rights reserved.
Copyright (c) 2004 Alexander Djourik. All rights reserved.

FILE: 13 - Beginning To See The Light(unreleased early version).flac
  Size: 23514099 Hash: 3594C17AC14601C5451271037F5BAE5C Accuracy: -m0
  Conclusion: CDDA 100%
  Signature: 48527B27938921631F3E00A206D6184AA75D5C71
FILE: 12 - Hey Mr. Rain(version two).flac
  Size: 34528364 Hash: C8B54174AC6C07AC71C66BBB46F61E59 Accuracy: -m0
  Conclusion: CDDA 99%
  Signature: 41C496679287AD7898FD99FDC608F51C5474CAA7
FILE: 11 - Hey Mr. Rain(version one).flac
  Size: 30159002 Hash: 0958B8591E8419D4CA6008627E233B0E Accuracy: -m0
  Conclusion: CDDA 100%
  Signature: FA6E8DB7FA289A7748716AEEC1EA767BFEF6859C
FILE: 10 - Stephanie Says(original mix).flac
  Size: 17240594 Hash: B8645CE0A7E29B6193B0FD89F7456732 Accuracy: -m0
  Conclusion: CDDA 100%
  Signature: 2F925B1B34CE57D74FB1E807965FE88DB44BFA23
FILE: 09 - Temptation Inside Your Heart(original mix).flac
  Size: 16318071 Hash: 2729BEA8ED853C08B1D29EBEFB4D533B Accuracy: -m0
  Conclusion: CDDA 100%
  Signature: BB06DCFFF96AD23B99B353EA2E51AB13A955530A
FILE: 08 - Guess I'm Falling In Love(instrumental version).flac
  Size: 21609604 Hash: 5BE96DDFFFFCB10200BB2EA89E2418CF Accuracy: -m0
  Conclusion: CDDA 100%
  Signature: C6E326D3BA9EBBB81D202B198C035399F1C7FCD7
FILE: 07 - I Heard Her Call My Name(alternate take).flac
  Size: 32487954 Hash: 4C783932EFB6155F8538B85B68BC4175 Accuracy: -m0
  Conclusion: CDDA 100%
  Signature: 0BCC162FD5C384A39E93172C5DA28DC20DCF62EF
FILE: 06 - Sister Ray.flac
  Size: 112970952 Hash: 8C4C0CA1AB6667C26EC02542BBCB4E2D Accuracy: -m0
  Conclusion: CDDA 100%
  Signature: E9D429F2BDA68B7CD2DCABF2EC87E806D5C37602
FILE: 05 - I Heard Her Call My Name.flac
  Size: 28904566 Hash: E4AE21E58A6B491127D147EFF5CD145C Accuracy: -m0
  Conclusion: CDDA 100%
  Signature: EFEFD423F80BF12EA84E22CDD21AE6B5078ED194
FILE: 04 - Here She Comes Now.flac
  Size: 11933899 Hash: 29F7DC511E8E4B498E9585A90FFAFC39 Accuracy: -m0
  Conclusion: CDDA 100%
  Signature: 0502B1940066E2FE6F72B253A37A9DD1BF90F49E
FILE: 03 - Lady Godiva's Operation.flac
  Size: 29443124 Hash: 17865BADA2A5CA758ADAE8E2979F0B76 Accuracy: -m0
  Conclusion: CDDA 100%
  Signature: 6F127DF9E0D3E829C9654026C5899BF40DBDF867
FILE: 02 - The Gift.flac
  Size: 49583245 Hash: CCA62B19818E24E34349016BFCA8F59B Accuracy: -m0
  Conclusion: CDDA 100%
  Signature: 5CF2190E04DB0D25AB6D96C79F3C9B331502276C
FILE: 01 - White Light_White Heat.flac
  Size: 18096680 Hash: 01E1D4E042E7C9EFB1B85A59F74F48EB Accuracy: -m0
  Conclusion: CDDA 100%
  Signature: 000B13321B1DF6FFFC3B12C4944949772861CF8F

Продолжительность: 01:01:29

Трек лист:
01. White Light/White Heat (2:47)
02. The Gift (8:17)
03. Lady Godiva's Operation (4:55)
04. Here She Comes Now (2:04)
05. I Heard Her Call My Name (4:38)
06. Sister Ray (17:32)
07. White Light/White Heat (mono single mix) (2:48)
08. Here She Comes Now (mono single mix) (2:04)
09. The Gift (vocal version) (8:08)
10. The Gift (instrumental version) (8:16)
Код:
Код:
Exact Audio Copy V1.0 beta 3 from 29. August 2011

EAC extraction logfile from 10. December 2013, 20:03

The Velvet Underground / White Light/White Heat(Mono Version)

Used drive  : MATSHITABD-CMB UJ141EF   Adapter: 0  ID: 0

Read mode               : Secure
Utilize accurate stream : Yes
Defeat audio cache      : Yes
Make use of C2 pointers : No

Read offset correction                      : 103
Overread into Lead-In and Lead-Out          : No
Fill up missing offset samples with silence : Yes
Delete leading and trailing silent blocks   : No
Null samples used in CRC calculations       : Yes
Used interface                              : Native Win32 interface for Win NT & 2000
Gap handling                                : Appended to previous track

Used output format              : User Defined Encoder
Selected bitrate                : 1024 kBit/s
Quality                         : High
Add ID3 tag                     : No
Command line compressor         : C:\Program Files (x86)\Exact Audio Copy\Flac\flac.exe
Additional command line options : -8 -V -T "ARTIST=%artist%" -T "TITLE=%title%" -T "ALBUM=%albumtitle%" -T "DATE=%year%" -T "TRACKNUMBER=%tracknr%" -T "GENRE=%genre%" -T "PERFORMER=%albuminterpret%" -T "COMPOSER=%composer%" %haslyrics%--tag-from-file=LYRICS="%lyricsfile%"%haslyrics% -T "ALBUMARTIST=%albumartist%" -T "DISCNUMBER=%cdnumber%" -T "TOTALDISCS=%totalcds%" -T "TOTALTRACKS=%numtracks%" -T "COMMENT=%comment%" %source% -o %dest%

TOC of the extracted CD

     Track |   Start  |  Length  | Start sector | End sector
    ---------------------------------------------------------
        1  |  0:00.00 |  2:47.27 |         0    |    12551
        2  |  2:47.27 |  8:17.20 |     12552    |    49846
        3  | 11:04.47 |  4:55.05 |     49847    |    71976
        4  | 15:59.52 |  2:03.38 |     71977    |    81239
        5  | 18:03.15 |  4:37.45 |     81240    |   102059
        6  | 22:40.60 | 17:31.58 |    102060    |   180942
        7  | 40:12.43 |  2:48.24 |    180943    |   193566
        8  | 43:00.67 |  2:03.67 |    193567    |   202858
        9  | 45:04.59 |  8:07.68 |    202859    |   239451
       10  | 53:12.52 |  8:16.27 |    239452    |   276678

Track  1

     Filename C:\VU-White Light White Heat 45 Anniversary Super Deluxe Edition\White LightWhite Heat 45 (Mono Version)\01 - White Light,White Heat.wav

     Pre-gap length  0:00:02.00

     Peak level 93.5 %
     Extraction speed 2.3 X
     Track quality 100.0 %
     Test CRC F2EA50A8
     Copy CRC F2EA50A8
     Track not present in AccurateRip database
     Copy OK

Track  2

     Filename C:\VU-White Light White Heat 45 Anniversary Super Deluxe Edition\White LightWhite Heat 45 (Mono Version)\02 - The Gift.wav

     Peak level 95.5 %
     Extraction speed 3.0 X
     Track quality 100.0 %
     Test CRC 7A02F05D
     Copy CRC 7A02F05D
     Track not present in AccurateRip database
     Copy OK

Track  3

     Filename C:\VU-White Light White Heat 45 Anniversary Super Deluxe Edition\White LightWhite Heat 45 (Mono Version)\03 - Lady Godiva's Operation.wav

     Peak level 97.3 %
     Extraction speed 3.2 X
     Track quality 100.0 %
     Test CRC D489BB7D
     Copy CRC D489BB7D
     Track not present in AccurateRip database
     Copy OK

Track  4

     Filename C:\VU-White Light White Heat 45 Anniversary Super Deluxe Edition\White LightWhite Heat 45 (Mono Version)\04 - Here She Comes Now.wav

     Peak level 90.3 %
     Extraction speed 1.9 X
     Track quality 99.9 %
     Test CRC CA32A5EE
     Copy CRC CA32A5EE
     Track not present in AccurateRip database
     Copy OK

Track  5

     Filename C:\VU-White Light White Heat 45 Anniversary Super Deluxe Edition\White LightWhite Heat 45 (Mono Version)\05 - I Heard Her Call My Name.wav

     Peak level 95.5 %
     Extraction speed 3.6 X
     Track quality 100.0 %
     Test CRC 5D5023F1
     Copy CRC 5D5023F1
     Track not present in AccurateRip database
     Copy OK

Track  6

     Filename C:\VU-White Light White Heat 45 Anniversary Super Deluxe Edition\White LightWhite Heat 45 (Mono Version)\06 - Sister Ray.wav

     Peak level 97.5 %
     Extraction speed 4.1 X
     Track quality 99.9 %
     Test CRC 1A445A05
     Copy CRC 1A445A05
     Track not present in AccurateRip database
     Copy OK

Track  7

     Filename C:\VU-White Light White Heat 45 Anniversary Super Deluxe Edition\White LightWhite Heat 45 (Mono Version)\07 - White Light,White Heat(Mono Single Mix).wav

     Peak level 95.7 %
     Extraction speed 2.9 X
     Track quality 99.9 %
     Test CRC 7BDFE3CE
     Copy CRC 7BDFE3CE
     Track not present in AccurateRip database
     Copy OK

Track  8

     Filename C:\VU-White Light White Heat 45 Anniversary Super Deluxe Edition\White LightWhite Heat 45 (Mono Version)\08 - Here She Comes Now(mono single mix).wav

     Peak level 86.6 %
     Extraction speed 3.9 X
     Track quality 100.0 %
     Test CRC 27FC867A
     Copy CRC 27FC867A
     Track not present in AccurateRip database
     Copy OK

Track  9

     Filename C:\VU-White Light White Heat 45 Anniversary Super Deluxe Edition\White LightWhite Heat 45 (Mono Version)\09 - The Gift(vocal version).wav

     Peak level 72.6 %
     Extraction speed 4.9 X
     Track quality 100.0 %
     Test CRC A7E475D6
     Copy CRC A7E475D6
     Track not present in AccurateRip database
     Copy OK

Track 10

     Filename C:\VU-White Light White Heat 45 Anniversary Super Deluxe Edition\White LightWhite Heat 45 (Mono Version)\10 - The Gift(instrumental version).wav

     Peak level 76.3 %
     Extraction speed 4.5 X
     Track quality 99.9 %
     Test CRC 6F4D088B
     Copy CRC 6F4D088B
     Track not present in AccurateRip database
     Copy OK

None of the tracks are present in the AccurateRip database

No errors occurred

End of status report

---- CUETools DB Plugin V2.1.3

[CTDB TOCID: c8ce9VbjhPnNIRiBeYt94tEw71U-] disk not present in database, Submit result: c8ce9VbjhPnNIRiBeYt94tEw71U- has been uploaded

==== Log checksum CDC7E553CFEFD943ED694E9B7DC68DEF8BD64C48E9448DD3595FE7D36D3923CA ====

Код:
Код:
-----------------------

DON'T MODIFY THIS FILE

-----------------------

PERFORMER: auCDtect Task Manager, ver. 1.6.0 RC1 build 1.6.0.1
Copyright (c) 2008-2010 y-soft. All rights reserved
http:/y-soft.org

ANALYZER: auCDtect: CD records authenticity detector, version 0.8.2
Copyright (c) 2004 Oleg Berngardt. All rights reserved.
Copyright (c) 2004 Alexander Djourik. All rights reserved.

FILE: 10 - The Gift(instrumental version).flac
  Size: 24469541 Hash: 58F740F5489E0B0AFA57CE0E2C95D65A Accuracy: -m0
  Conclusion: CDDA 100%
  Signature: 8A753A33E7792D4F17AF154CDA8F1150B4CD1A7F
FILE: 09 - The Gift(vocal version).flac
  Size: 20227183 Hash: FA4ACF4C93ADE55E67276491555C2C67 Accuracy: -m0
  Conclusion: CDDA 100%
  Signature: 037CED80B92A27CF33CE024A0A15DD6D86A66C0E
FILE: 08 - Here She Comes Now(mono single mix).flac
  Size: 6690835 Hash: CEFEE3D68D58313DF84E422732092F62 Accuracy: -m0
  Conclusion: CDDA 100%
  Signature: A9E5BF60858C0EC24154C3E1A9A559FF2E0C2A78
FILE: 07 - White Light_White Heat(Mono Single Mix).flac
  Size: 9527004 Hash: BC4BA848A17D59A46E1630C8A314DB88 Accuracy: -m0
  Conclusion: CDDA 100%
  Signature: 23749D15EF9C8569E045217FCE83B9F6264BD2EB
FILE: 06 - Sister Ray.flac
  Size: 58506443 Hash: F1630E0320B8711F27992E5F759D82D7 Accuracy: -m0
  Conclusion: CDDA 100%
  Signature: F4245DB38ECB9D7BCDEE1EFCDD7576D49F4B6894
FILE: 05 - I Heard Her Call My Name.flac
  Size: 14954514 Hash: E768A651C8948EAAE355949DFE8A9B32 Accuracy: -m0
  Conclusion: CDDA 100%
  Signature: ABB277C92B6565205F1ED5317C7DBFCB5BF21B78
FILE: 04 - Here She Comes Now.flac
  Size: 6468183 Hash: 47CC533022C42B27F39CD336E2B8C43E Accuracy: -m0
  Conclusion: CDDA 99%
  Signature: 504F4B4284210A516558F2F517AB438D0AC5CBE8
FILE: 03 - Lady Godiva's Operation.flac
  Size: 15243489 Hash: 31F6A03B7DCF93A451A06D08068ECA37 Accuracy: -m0
  Conclusion: CDDA 100%
  Signature: 5E34EE637E5DB74DCC2BA0379E1866B9E0FA5DE2
FILE: 02 - The Gift.flac
  Size: 27096644 Hash: 8F5E2A0C71E2E26DE66EF31DC738F1B1 Accuracy: -m0
  Conclusion: CDDA 99%
  Signature: 4312D1CE5AE4BA1959B7278E7C7C9BFAB4DF98DB
FILE: 01 - White Light_White Heat.flac
  Size: 9177875 Hash: 672C19E4B21C60C34EF42599D580BBDC Accuracy: -m0
  Conclusion: CDDA 100%
  Signature: D1F3D5DF5F01D0B043AA03FF127474CCE1F96376

Продолжительность: 00:59:06

Трек лист:
01. Booker T. (6:46)
02. I'm Not A Young Man Anymore (6:17)
03. Guess I'm Falling In Love (4:10)
04. I'm Waiting For The Man (5:28)
05. Run Run Run (6:58)
06. Sister Ray (19:03)
07. The Gift (10:25)
Код:
Код:
Exact Audio Copy V1.0 beta 3 from 29. August 2011

EAC extraction logfile from 10. December 2013, 20:54

The Velvet Underground / Live At The Gymnasium NYC April 30th,1967

Used drive  : MATSHITABD-CMB UJ141EF   Adapter: 0  ID: 0

Read mode               : Secure
Utilize accurate stream : Yes
Defeat audio cache      : Yes
Make use of C2 pointers : No

Read offset correction                      : 103
Overread into Lead-In and Lead-Out          : No
Fill up missing offset samples with silence : Yes
Delete leading and trailing silent blocks   : No
Null samples used in CRC calculations       : Yes
Used interface                              : Native Win32 interface for Win NT & 2000
Gap handling                                : Appended to previous track

Used output format              : User Defined Encoder
Selected bitrate                : 1024 kBit/s
Quality                         : High
Add ID3 tag                     : No
Command line compressor         : C:\Program Files (x86)\Exact Audio Copy\Flac\flac.exe
Additional command line options : -8 -V -T "ARTIST=%artist%" -T "TITLE=%title%" -T "ALBUM=%albumtitle%" -T "DATE=%year%" -T "TRACKNUMBER=%tracknr%" -T "GENRE=%genre%" -T "PERFORMER=%albuminterpret%" -T "COMPOSER=%composer%" %haslyrics%--tag-from-file=LYRICS="%lyricsfile%"%haslyrics% -T "ALBUMARTIST=%albumartist%" -T "DISCNUMBER=%cdnumber%" -T "TOTALDISCS=%totalcds%" -T "TOTALTRACKS=%numtracks%" -T "COMMENT=%comment%" %source% -o %dest%

TOC of the extracted CD

     Track |   Start  |  Length  | Start sector | End sector
    ---------------------------------------------------------
        1  |  0:00.00 |  6:45.44 |         0    |    30418
        2  |  6:45.44 |  6:16.39 |     30419    |    58657
        3  | 13:02.08 |  4:09.69 |     58658    |    77401
        4  | 17:12.02 |  5:27.62 |     77402    |   101988
        5  | 22:39.64 |  6:57.72 |    101989    |   133335
        6  | 29:37.61 | 19:03.24 |    133336    |   219084
        7  | 48:41.10 | 10:24.51 |    219085    |   265935

Track  1

     Filename C:\VU-White Light White Heat 45 Anniversary Super Deluxe Edition\Live At The Gymnasium NYC April 30th,1967\01 - Booker T..wav

     Pre-gap length  0:00:02.00

     Peak level 95.6 %
     Extraction speed 2.7 X
     Track quality 100.0 %
     Test CRC 23802E13
     Copy CRC 23802E13
     Track not present in AccurateRip database
     Copy OK

Track  2

     Filename C:\VU-White Light White Heat 45 Anniversary Super Deluxe Edition\Live At The Gymnasium NYC April 30th,1967\02 - I'm Not A Young Man Anymore.wav

     Peak level 90.2 %
     Extraction speed 3.1 X
     Track quality 100.0 %
     Test CRC 7C170E96
     Copy CRC 7C170E96
     Track not present in AccurateRip database
     Copy OK

Track  3

     Filename C:\VU-White Light White Heat 45 Anniversary Super Deluxe Edition\Live At The Gymnasium NYC April 30th,1967\03 - Guess I'm Falling In Love.wav

     Peak level 79.7 %
     Extraction speed 3.3 X
     Track quality 100.0 %
     Test CRC C8B7CE2E
     Copy CRC C8B7CE2E
     Track not present in AccurateRip database
     Copy OK

Track  4

     Filename C:\VU-White Light White Heat 45 Anniversary Super Deluxe Edition\Live At The Gymnasium NYC April 30th,1967\04 - I'm Waiting For The Man.wav

     Peak level 93.1 %
     Extraction speed 3.6 X
     Track quality 100.0 %
     Test CRC 55B2D66D
     Copy CRC 55B2D66D
     Track not present in AccurateRip database
     Copy OK

Track  5

     Filename C:\VU-White Light White Heat 45 Anniversary Super Deluxe Edition\Live At The Gymnasium NYC April 30th,1967\05 - Run Run Run.wav

     Peak level 97.9 %
     Extraction speed 3.3 X
     Track quality 99.9 %
     Test CRC 189273DF
     Copy CRC 189273DF
     Track not present in AccurateRip database
     Copy OK

Track  6

     Filename C:\VU-White Light White Heat 45 Anniversary Super Deluxe Edition\Live At The Gymnasium NYC April 30th,1967\06 - Sister Ray.wav

     Peak level 92.8 %
     Extraction speed 4.8 X
     Track quality 100.0 %
     Test CRC D5951528
     Copy CRC D5951528
     Track not present in AccurateRip database
     Copy OK

Track  7

     Filename C:\VU-White Light White Heat 45 Anniversary Super Deluxe Edition\Live At The Gymnasium NYC April 30th,1967\07 - The Gift.wav

     Peak level 78.1 %
     Extraction speed 5.2 X
     Track quality 100.0 %
     Test CRC 83B46E34
     Copy CRC 83B46E34
     Track not present in AccurateRip database
     Copy OK

None of the tracks are present in the AccurateRip database

No errors occurred

End of status report

---- CUETools DB Plugin V2.1.3

[CTDB TOCID: pI873w5DUTt.T.U53NHSaDHqqmw-] disk not present in database, Submit result: pI873w5DUTt.T.U53NHSaDHqqmw- has been uploaded

==== Log checksum A2E79A3BBFFA5B199A61DCAEEACA4E17E42C8366C56C7AFE19155D6433F91660 ====

Код:
Код:
-----------------------

DON'T MODIFY THIS FILE

-----------------------

PERFORMER: auCDtect Task Manager, ver. 1.6.0 RC1 build 1.6.0.1
Copyright (c) 2008-2010 y-soft. All rights reserved
http:/y-soft.org

ANALYZER: auCDtect: CD records authenticity detector, version 0.8.2
Copyright (c) 2004 Oleg Berngardt. All rights reserved.
Copyright (c) 2004 Alexander Djourik. All rights reserved.

FILE: 07 - The Gift.flac
  Size: 53468805 Hash: 135345E901DC12FBDA5069396CB7B26E Accuracy: -m0
  Conclusion: CDDA 100%
  Signature: 91747C74C8D840876F615243768E1048AE8E8AA1
FILE: 06 - Sister Ray.flac
  Size: 104280296 Hash: EE1A3049143340A748EE6BAB756AD7B2 Accuracy: -m0
  Conclusion: CDDA 100%
  Signature: 08145DAF8F6FC7647A554D14B32AA8EE4D2D5F19
FILE: 05 - Run Run Run.flac
  Size: 39346783 Hash: 6B52862DBE69C57E10B693A4383D96FB Accuracy: -m0
  Conclusion: CDDA 99%
  Signature: 99DEBE3E7BD3458F242C3B221B9B9955314CEEAE
FILE: 04 - I'm Waiting For The Man.flac
  Size: 30828255 Hash: 66C7BE456DBAA57BE6767CDE9D55D48D Accuracy: -m0
  Conclusion: CDDA 100%
  Signature: 0850CA74A315ADCF207E017D81D5AD080D3AAFAE
FILE: 03 - Guess I'm Falling In Love.flac
  Size: 22821279 Hash: DF4FC8B65F2E907FAA4B0A38D6FF786D Accuracy: -m0
  Conclusion: CDDA 100%
  Signature: E01183AB34B38EBD27A26BE91C05E1D19E4CAA68
FILE: 02 - I'm Not A Young Man Anymore.flac
  Size: 34760586 Hash: 259C3E6C45B07CA894DAE223E9333020 Accuracy: -m0
  Conclusion: CDDA 100%
  Signature: A7CF0F11838E4AE182D1492E36C45C70F3E4F08B
FILE: 01 - Booker T..flac
  Size: 35673119 Hash: F76793505AE5BFC444D5936E407AEFB8 Accuracy: -m0
  Conclusion: CDDA 100%
  Signature: B82A24A8C9ED9DFF2C22B8564124BA348AC1CC4E

Правила, инструкции, FAQ!!!
Торрент  Добавлен [16 мар 2014, 00:21] Скачать торрент Магнет ссылка
Скачать торрент
[ Размер 22.2 КБ / Просмотров 49 ]

Статус  
 
Размер  896.85 МБ
Приватный: Нет (DHT включён)
.torrent скачан  0
 


     Отправить личное сообщение
   
Страница 1 из 1
Показать сообщения за:  Поле сортировки  
Начать новую тему Ответить на тему


Сейчас этот форум просматривают: нет зарегистрированных пользователей и гости: 0


Вы не можете начинать темы
Вы не можете отвечать на сообщения
Вы не можете редактировать свои сообщения
Вы не можете удалять свои сообщения
Вы не можете добавлять вложения

Перейти:  
cron
cron