Начать новую тему Ответить на тему
Статистика раздачи
Размер: 416.23 МБ | Добавлен: 05 дек 2013, 10:38 | Скачали: 1
Сидеров: 4  [0 байт/сек]    Личеров: 1  [0 байт/сек]
Пред. тема | След. тема 

Автор
Сообщение

СообщениеДобавлено: 05 дек 2013, 10:38 

Ответить с цитатой 

The Theander Expression - Strange Nostalgia (2013)

Страна: Sweden
Год: 2013
Жанр: Melodic Rock, AOR
Продолжительность: 00:45:14

Лейбл: Avenue Of Allies
Каталожный №: Avenue 13 06 0054
Сканы: Комплект

Кодек: FLAC (image+.cue)
Битрейт: Lossless

Треклист:
01. Conception of Life [3:56]
02. Strange Nostalgia [4:17]
03. Insanity Cell [4:57]
04. Like A Chameleon [4:46]
05. Sanguine [4:03]
06. Feelings of Luxury [4:39]
07. Mr. Know-It-All [3:40]
08. Masterpiece in the Dark [4:45]
09. Meet Me There Tonight [3:55]
10. Champagne Wishes & Caviar Dreams [6:17]

Код:
Код:
REM GENRE AOR
REM DATE 2013
REM DISCID 880A9A0A
REM COMMENT "ExactAudioCopy v1.0b3"
PERFORMER "The Theander Expression"
TITLE "Strange Nostalgia"
FILE "The Theander Expression - Strange Nostalgia.flac" WAVE
  TRACK 01 AUDIO
    TITLE "Conception of Life"
    PERFORMER "The Theander Expression"
    ISRC SE3281300101
    FLAGS DCP
    INDEX 01 00:00:00
  TRACK 02 AUDIO
    TITLE "Strange Nostalgia"
    PERFORMER "The Theander Expression"
    ISRC SE3281300102
    FLAGS DCP
    INDEX 01 03:55:72
  TRACK 03 AUDIO
    TITLE "Insanity Cell"
    PERFORMER "The Theander Expression"
    ISRC SE3281300103
    FLAGS DCP
    INDEX 01 08:12:71
  TRACK 04 AUDIO
    TITLE "Like A Chameleon"
    PERFORMER "The Theander Expression"
    ISRC SE3281300104
    FLAGS DCP
    INDEX 01 13:09:58
  TRACK 05 AUDIO
    TITLE "Sanguine"
    PERFORMER "The Theander Expression"
    ISRC SE3281300105
    FLAGS DCP
    INDEX 01 17:55:59
  TRACK 06 AUDIO
    TITLE "Feelings of Luxury"
    PERFORMER "The Theander Expression"
    ISRC SE3281300106
    FLAGS DCP
    INDEX 01 21:58:68
  TRACK 07 AUDIO
    TITLE "Mr. Know-It-All"
    PERFORMER "The Theander Expression"
    ISRC SE3281300107
    FLAGS DCP
    INDEX 01 26:37:35
  TRACK 08 AUDIO
    TITLE "Masterpiece in the Dark"
    PERFORMER "The Theander Expression"
    ISRC SE3281300108
    FLAGS DCP
    INDEX 01 30:17:13
  TRACK 09 AUDIO
    TITLE "Meet Me There Tonight"
    PERFORMER "The Theander Expression"
    ISRC SE3281300109
    FLAGS DCP
    INDEX 01 35:02:22
  TRACK 10 AUDIO
    TITLE "Champagne Wishes & Caviar Dreams"
    PERFORMER "The Theander Expression"
    ISRC SE3281300110
    FLAGS DCP
    INDEX 01 38:57:06
Код:
Код:
Exact Audio Copy V1.0 beta 3 from 29. August 2011

EAC extraction logfile from 8. November 2013, 20:54

The Theander Expression / Strange Nostalgia

Used drive  : SlimtypeDVD A  DS8A5SH   Adapter: 0  ID: 1

Read mode               : Secure
Utilize accurate stream : Yes
Defeat audio cache      : Yes
Make use of C2 pointers : No

Read offset correction                      : 6
Overread into Lead-In and Lead-Out          : No
Fill up missing offset samples with silence : Yes
Delete leading and trailing silent blocks   : No
Null samples used in CRC calculations       : Yes
Used interface                              : Native Win32 interface for Win NT & 2000

Used output format              : User Defined Encoder
Selected bitrate                : 320 kBit/s
Quality                         : High
Add ID3 tag                     : No
Command line compressor         : C:\Program Files (x86)\Exact Audio Copy\Flac\flac.exe
Additional command line options : -V -8 -T "Date=%year%" -T "Genre=%genre%" %source%

TOC of the extracted CD

     Track |   Start  |  Length  | Start sector | End sector
    ---------------------------------------------------------
        1  |  0:00.00 |  3:55.72 |         0    |    17696
        2  |  3:55.72 |  4:16.74 |     17697    |    36970
        3  |  8:12.71 |  4:56.62 |     36971    |    59232
        4  | 13:09.58 |  4:46.01 |     59233    |    80683
        5  | 17:55.59 |  4:03.09 |     80684    |    98917
        6  | 21:58.68 |  4:38.42 |     98918    |   119809
        7  | 26:37.35 |  3:39.53 |    119810    |   136287
        8  | 30:17.13 |  4:45.09 |    136288    |   157671
        9  | 35:02.22 |  3:54.59 |    157672    |   175280
       10  | 38:57.06 |  6:17.27 |    175281    |   203582

Range status and errors

Selected range

     Filename D:\My Music\The Theander Expression - 2013 Strange Nostalgia\The Theander Expression - Strange Nostalgia.wav

     Peak level 98.8 %
     Extraction speed 1.7 X
     Range quality 99.9 %
     Test CRC 9A2B7BC8
     Copy CRC 9A2B7BC8
     Copy OK

No errors occurred

AccurateRip summary

Track  1  not present in database
Track  2  not present in database
Track  3  not present in database
Track  4  not present in database
Track  5  not present in database
Track  6  not present in database
Track  7  not present in database
Track  8  not present in database
Track  9  not present in database
Track 10  not present in database

None of the tracks are present in the AccurateRip database

End of status report

==== Log checksum DA1F91F2D6801CA19CB384B09C0142D9C67D5A3F84A43E9BE918411890A50F29 ====
Код:
Код:
-----------------------

DON'T MODIFY THIS FILE

-----------------------

PERFORMER: auCDtect Task Manager, ver. 1.6.0 RC1 build 1.6.0.1
Copyright (c) 2008-2010 y-soft. All rights reserved
http:/y-soft.org

ANALYZER: auCDtect: CD records authenticity detector, version 0.8.2
Copyright (c) 2004 Oleg Berngardt. All rights reserved.
Copyright (c) 2004 Alexander Djourik. All rights reserved.

FILE: The Theander Expression - Strange Nostalgia.flac
  Size: 344200131 Hash: A6B9B6CDE633E00F2F168DDC8E15FDF5 Accuracy: -m0
  Conclusion: CDDA 100%
  Signature: FCBF41952D029415ED17B80E52034AD33D8B08B2
Правила, инструкции, FAQ!!!
Торрент  Добавлен [05 дек 2013, 10:38] Скачать торрент Магнет ссылка
Скачать торрент
[ Размер 17.79 КБ / Просмотров 19 ]

Статус  
 
Размер  416.23 МБ
Приватный: Нет (DHT включён)
.torrent скачан  1
 


     Отправить личное сообщение
   
Страница 1 из 1
Показать сообщения за:  Поле сортировки  
Начать новую тему Ответить на тему


Сейчас этот форум просматривают: нет зарегистрированных пользователей и гости: 0


Вы не можете начинать темы
Вы не можете отвечать на сообщения
Вы не можете редактировать свои сообщения
Вы не можете удалять свои сообщения
Вы не можете добавлять вложения

Перейти:  
cron
cron