Начать новую тему Ответить на тему
Статистика раздачи
Размер: 2.72 ГБ | Добавлен: 16 мар 2014, 00:52 | Скачали: 0
Сидеров: 1  [0 байт/сек]    Личеров: 1  [0 байт/сек]
Пред. тема | След. тема 

Автор
Сообщение

СообщениеДобавлено: 16 мар 2014, 00:52 

Ответить с цитатой 

The Pogues - Just Look Them Straight In The Eye And Say...Pogue Mahone! (2008) 5CD BoxSet



Год: 2008 {Reissue from 2013}| Жанр: Folk Rock, Celtic Punk | Продолжительность: 05:54:27
Издатель: Rhino | Номер по каталогу: 2564647295 | Страна изготовитель: UK
Кодек: WavPack | Битрейт: Lossless
Трек лист:

01. The Kerry Polka [01:29]
02. The Rocky Road To Dublin [03:13]
03. Boys From The County Hell [02:48]
04. Nw3 [02:53]
05. The Donegal Express/The Hen And The Cock Are In Carrickmacross [03:46]
06. Do You Believe In Magic? [02:43]
07. Hot Asphalt [02:28]
08. Danny Boy [03:26]
09. Maggie May [04:29]
10. Haunted [03:34]
11. The Travelling People [04:05]
12. Eve Of Destruction [03:39]
13. My Baby's Gone [02:25]
14. North Sea Holes [03:41]
15. Garbo (aka In And Out) [02:45]
16. The Last Of McGee [02:45]
17. Joe Strummer and the Astro-Physicians - Afro-Cuban-Be-Bop (Alt. Mix) [02:48]
18. Young Ned Of The Hill (Dub Version) [03:46]
19. Pinned Down / I'm Alone In The Wilderness [04:49]
20. When The Comes In Ship [03:12]
21. Waxies Dargle [01:47]

Продолжительность: 01:06:31
Код:
Код:
Exact Audio Copy V1.0 beta 3 from 29. August 2011

EAC extraction logfile from 7. August 2013, 11:31

The Pogues / Just Look Them Straight In The Eye And Say......Pogue Mahone! - CD1

Used drive  : _NEC    DVD_RW ND-4571A   Adapter: 0  ID: 0

Read mode               : Secure
Utilize accurate stream : Yes
Defeat audio cache      : Yes
Make use of C2 pointers : No

Read offset correction                      : 48
Overread into Lead-In and Lead-Out          : No
Fill up missing offset samples with silence : Yes
Delete leading and trailing silent blocks   : No
Null samples used in CRC calculations       : Yes
Used interface                              : Native Win32 interface for Win NT & 2000

Used output format              : User Defined Encoder
Selected bitrate                : 896 kBit/s
Quality                         : High
Add ID3 tag                     : No
Command line compressor         : C:\Program Files\Exact Audio Copy\wavpack\wavpack.exe
Additional command line options : -hm %source% %dest%

TOC of the extracted CD

     Track |   Start  |  Length  | Start sector | End sector
    ---------------------------------------------------------
        1  |  0:00.00 |  1:28.68 |         0    |     6667
        2  |  1:28.68 |  3:13.32 |      6668    |    21174
        3  |  4:42.25 |  2:47.38 |     21175    |    33737
        4  |  7:29.63 |  2:52.63 |     33738    |    46700
        5  | 10:22.51 |  3:46.20 |     46701    |    63670
        6  | 14:08.71 |  2:42.43 |     63671    |    75863
        7  | 16:51.39 |  2:28.15 |     75864    |    86978
        8  | 19:19.54 |  3:25.68 |     86979    |   102421
        9  | 22:45.47 |  4:28.63 |    102422    |   122584
       10  | 27:14.35 |  3:34.28 |    122585    |   138662
       11  | 30:48.63 |  4:05.11 |    138663    |   157048
       12  | 34:53.74 |  3:38.62 |    157049    |   173460
       13  | 38:32.61 |  2:24.50 |    173461    |   184310
       14  | 40:57.36 |  3:41.32 |    184311    |   200917
       15  | 44:38.68 |  2:45.28 |    200918    |   213320
       16  | 47:24.21 |  2:45.13 |    213321    |   225708
       17  | 50:09.34 |  2:47.62 |    225709    |   238295
       18  | 52:57.21 |  3:46.32 |    238296    |   255277
       19  | 56:43.53 |  4:48.59 |    255278    |   276936
       20  | 61:32.37 |  3:11.57 |    276937    |   291318
       21  | 64:44.19 |  1:47.31 |    291319    |   299374

Range status and errors

Selected range

     Filename D:\The Pogues - Just Look Them Straight In The Eye And Say....Pogue Mahone!\CD1\The Pogues - Just Look Them Straight In The Eye And Say......Pogue Mahone! - CD1.wav

     Peak level 98.8 %
     Extraction speed 8.2 X
     Range quality 100.0 %
     Test CRC D46A6E6D
     Copy CRC D46A6E6D
     Copy OK

No errors occurred

AccurateRip summary

Track  1  cannot be verified as accurate (confidence 21)  [89FB7DAC], AccurateRip returned [9F6F5318]  (AR v2)
Track  2  cannot be verified as accurate (confidence 21)  [E44EB1AB], AccurateRip returned [5FB3EA39]  (AR v2)
Track  3  cannot be verified as accurate (confidence 21)  [F9B3C1A0], AccurateRip returned [0E062FF8]  (AR v2)
Track  4  cannot be verified as accurate (confidence 21)  [1F28B348], AccurateRip returned [C837DB61]  (AR v2)
Track  5  cannot be verified as accurate (confidence 21)  [A6D7C0DF], AccurateRip returned [45D84339]  (AR v2)
Track  6  cannot be verified as accurate (confidence 21)  [BF7F22A0], AccurateRip returned [40CB1877]  (AR v2)
Track  7  cannot be verified as accurate (confidence 21)  [25BE6E4A], AccurateRip returned [DB81CF37]  (AR v2)
Track  8  cannot be verified as accurate (confidence 21)  [4AC98405], AccurateRip returned [615D0021]  (AR v2)
Track  9  cannot be verified as accurate (confidence 21)  [C8B09E5C], AccurateRip returned [FF1F4A0D]  (AR v2)
Track 10  cannot be verified as accurate (confidence 21)  [CACBD73D], AccurateRip returned [B3C97F10]  (AR v2)
Track 11  cannot be verified as accurate (confidence 21)  [41199086], AccurateRip returned [75C6FDDA]  (AR v2)
Track 12  cannot be verified as accurate (confidence 21)  [D4E92692], AccurateRip returned [174BF812]  (AR v2)
Track 13  cannot be verified as accurate (confidence 21)  [9E9B65B1], AccurateRip returned [9EC9B30B]  (AR v2)
Track 14  cannot be verified as accurate (confidence 21)  [1C86717D], AccurateRip returned [80906236]  (AR v2)
Track 15  cannot be verified as accurate (confidence 21)  [C36F0559], AccurateRip returned [96F90D82]  (AR v2)
Track 16  cannot be verified as accurate (confidence 21)  [19E9EDFF], AccurateRip returned [69F2170D]  (AR v2)
Track 17  cannot be verified as accurate (confidence 21)  [27049A11], AccurateRip returned [66ACD852]  (AR v2)
Track 18  cannot be verified as accurate (confidence 21)  [3AFDCEBE], AccurateRip returned [0D8C9414]  (AR v2)
Track 19  cannot be verified as accurate (confidence 21)  [47972001], AccurateRip returned [A5CC090E]  (AR v2)
Track 20  cannot be verified as accurate (confidence 21)  [FF20EDE9], AccurateRip returned [99274B97]  (AR v2)
Track 21  cannot be verified as accurate (confidence 21)  [1B0E2D90], AccurateRip returned [F1DC36F0]  (AR v2)

No tracks could be verified as accurate
You may have a different pressing from the one(s) in the database

End of status report

==== Log checksum CCD95CF52D909D35E4089629EB570708B2A7C147DC230F18933C76C1BBE2A495 ====
Код:
Код:
-----------------------

DON'T MODIFY THIS FILE

-----------------------

PERFORMER: auCDtect Task Manager, ver. 1.6.0 RC1 build 1.6.0.1
Copyright (c) 2008-2010 y-soft. All rights reserved
http:/y-soft.org

ANALYZER: auCDtect: CD records authenticity detector, version 0.8.2
Copyright (c) 2004 Oleg Berngardt. All rights reserved.
Copyright (c) 2004 Alexander Djourik. All rights reserved.

FILE: The Pogues - 2008 - Just Look Them Straight In The Eye And Say......Pogue Mahone! CD1.wv
  Size: 501428757 Hash: 59FF2B6D218F8D1D22864DB023C626B2 Accuracy: -m0
  Conclusion: CDDA 100%
  Signature: 43E48DDB3CBA78EAB3E1483D03A7D57F1D4B38A0
#777Трек лист:

01. Repeal Of The Licensing Laws [Demo] [02:09]
02. Dark Streets Of London [Demo] [02:38]
03. Greenland Whale Fisheries [Demo] [02:40]
04. Streams Of Whiskey [Demo, From the Poguevision DVD/VHS] [02:33]
05. The Auld Triangle [BBC John Peel Show] [03:50]
06. Poor Paddy On The Railway [BBC David 'Kid' Jensen Show] [03:03]
07. Sea Shanty [Demo] [02:20]
08. Transmetropolitan [Demo] [03:10]
09. Kitty [Demo] [03:29]
10. Boys From County Hell [BBC David 'Kid' Jensen Show] [02:53]
11. Connemara, Let's Go! (aka Down In The Ground Where The Dead Men Go) [Demo] [02:59]
12. Billy's Bones [BBC Janice Long Show] [02:05]
13. The Old Main Drag [BBC Janice Long Show] [03:20]
14. Sally Maclennane [BBC John Peel Show] [02:53]
15. The Town That Never Sleeps [02:06]
16. Something Wild [02:20]
17. Driving Through The City [02:48]
18. Rainy Night In Soho ['Oboe version' from the North American editions of the P... [05:48]
19. Fairytale Of New York [Extract from 1st Demo 1986] [04:34]
20. Fairytale Of New York [Extract from 2nd Demo 1986] [05:16]
21. Fairytale Of New York [Extract from 3rd Demo 1987] [02:12]
22. Navigator [Live, Sweden 1985] [04:19]

Продолжительность: 01:09:25
Код:
Код:
Exact Audio Copy V1.0 beta 3 from 29. August 2011

EAC extraction logfile from 7. August 2013, 11:58

The Pogues / Just Look Them Straight In The Eye And Say... Pogue Mahone!! CD2

Used drive  : _NEC    DVD_RW ND-4571A   Adapter: 0  ID: 0

Read mode               : Secure
Utilize accurate stream : Yes
Defeat audio cache      : Yes
Make use of C2 pointers : No

Read offset correction                      : 48
Overread into Lead-In and Lead-Out          : No
Fill up missing offset samples with silence : Yes
Delete leading and trailing silent blocks   : No
Null samples used in CRC calculations       : Yes
Used interface                              : Native Win32 interface for Win NT & 2000

Used output format              : User Defined Encoder
Selected bitrate                : 896 kBit/s
Quality                         : High
Add ID3 tag                     : No
Command line compressor         : C:\Program Files\Exact Audio Copy\wavpack\wavpack.exe
Additional command line options : -hm %source% %dest%

TOC of the extracted CD

     Track |   Start  |  Length  | Start sector | End sector
    ---------------------------------------------------------
        1  |  0:00.00 |  2:08.38 |         0    |     9637
        2  |  2:08.38 |  2:37.57 |      9638    |    21469
        3  |  4:46.20 |  2:39.32 |     21470    |    33426
        4  |  7:25.52 |  2:32.61 |     33427    |    44887
        5  |  9:58.38 |  3:50.26 |     44888    |    62163
        6  | 13:48.64 |  3:02.46 |     62164    |    75859
        7  | 16:51.35 |  2:20.06 |     75860    |    86365
        8  | 19:11.41 |  3:10.00 |     86366    |   100615
        9  | 22:21.41 |  3:29.07 |    100616    |   116297
       10  | 25:50.48 |  2:52.43 |    116298    |   129240
       11  | 28:43.16 |  2:59.04 |    129241    |   142669
       12  | 31:42.20 |  2:05.02 |    142670    |   152046
       13  | 33:47.22 |  3:19.56 |    152047    |   167027
       14  | 37:07.03 |  2:52.66 |    167028    |   179993
       15  | 39:59.69 |  2:06.24 |    179994    |   189467
       16  | 42:06.18 |  2:20.01 |    189468    |   199968
       17  | 44:26.19 |  2:47.36 |    199969    |   212529
       18  | 47:13.55 |  5:47.36 |    212530    |   238590
       19  | 53:01.16 |  4:33.55 |    238591    |   259120
       20  | 57:34.71 |  5:15.42 |    259121    |   282787
       21  | 62:50.38 |  2:11.35 |    282788    |   292647
       22  | 65:01.73 |  4:18.47 |    292648    |   312044

Range status and errors

Selected range

     Filename D:\The Pogues - Just Look Them Straight In The Eye And Say....Pogue Mahone!\CD2\The Pogues - Just Look Them Straight In The Eye And Say... Pogue Mahone!! CD2.wav

     Peak level 98.8 %
     Extraction speed 8.1 X
     Range quality 99.9 %
     Test CRC 21965C84
     Copy CRC 21965C84
     Copy OK

No errors occurred

AccurateRip summary

Track  1  cannot be verified as accurate (confidence 20)  [465C11DC], AccurateRip returned [E4B37384]  (AR v2)
Track  2  cannot be verified as accurate (confidence 20)  [2A96D1BC], AccurateRip returned [83A1DA69]  (AR v2)
Track  3  cannot be verified as accurate (confidence 20)  [507E255D], AccurateRip returned [DD6F9CB3]  (AR v2)
Track  4  cannot be verified as accurate (confidence 20)  [81903B98], AccurateRip returned [E7E9407C]  (AR v2)
Track  5  cannot be verified as accurate (confidence 20)  [832FF39B], AccurateRip returned [4F5AD27A]  (AR v2)
Track  6  cannot be verified as accurate (confidence 21)  [D25702EF], AccurateRip returned [5E569A39]  (AR v2)
Track  7  cannot be verified as accurate (confidence 20)  [8E8496F8], AccurateRip returned [DEC04960]  (AR v2)
Track  8  cannot be verified as accurate (confidence 20)  [D0F54225], AccurateRip returned [12AD7D24]  (AR v2)
Track  9  cannot be verified as accurate (confidence 20)  [81A8CBF4], AccurateRip returned [0EC58391]  (AR v2)
Track 10  cannot be verified as accurate (confidence 20)  [6BF9E88A], AccurateRip returned [70B95876]  (AR v2)
Track 11  cannot be verified as accurate (confidence 20)  [63A08E51], AccurateRip returned [0016B93D]  (AR v2)
Track 12  cannot be verified as accurate (confidence 20)  [D7668F5F], AccurateRip returned [F41AEC03]  (AR v2)
Track 13  cannot be verified as accurate (confidence 20)  [F56B0823], AccurateRip returned [1BB87BE0]  (AR v2)
Track 14  cannot be verified as accurate (confidence 20)  [0228F5F3], AccurateRip returned [A2758631]  (AR v2)
Track 15  cannot be verified as accurate (confidence 20)  [42B2328C], AccurateRip returned [F0E1480F]  (AR v2)
Track 16  cannot be verified as accurate (confidence 20)  [8396AC26], AccurateRip returned [FE6D430B]  (AR v2)
Track 17  cannot be verified as accurate (confidence 20)  [C888FE2E], AccurateRip returned [0C60C8E0]  (AR v2)
Track 18  cannot be verified as accurate (confidence 19)  [613E1A14], AccurateRip returned [836C2D31]  (AR v2)
Track 19  cannot be verified as accurate (confidence 19)  [1DA61A5E], AccurateRip returned [8AD7ABAB]  (AR v2)
Track 20  cannot be verified as accurate (confidence 19)  [7A97A278], AccurateRip returned [AD4D9B66]  (AR v2)
Track 21  cannot be verified as accurate (confidence 19)  [4C9D7731], AccurateRip returned [1623F8FD]  (AR v2)
Track 22  cannot be verified as accurate (confidence 19)  [34F301B0], AccurateRip returned [7E1B9B51]  (AR v2)

No tracks could be verified as accurate
You may have a different pressing from the one(s) in the database

End of status report

==== Log checksum 991AADC0A4A38554B6172A69979921785659815FF929B91302A84E5FEBD129DD ====
Код:
Код:
-----------------------

DON'T MODIFY THIS FILE

-----------------------

PERFORMER: auCDtect Task Manager, ver. 1.6.0 RC1 build 1.6.0.1
Copyright (c) 2008-2010 y-soft. All rights reserved
http:/y-soft.org

ANALYZER: auCDtect: CD records authenticity detector, version 0.8.2
Copyright (c) 2004 Oleg Berngardt. All rights reserved.
Copyright (c) 2004 Alexander Djourik. All rights reserved.

FILE: The Pogues - 2008 - Just Look Them Straight In The Eye And Say......Pogue Mahone! CD2.wv
  Size: 506109674 Hash: 6E282A3BFF9B2A1A1C72ED0C6FE6C1B0 Accuracy: -m0
  Conclusion: MPEG 95%
  Signature: 079FF98D640F54083C8051C61AC599F9E5BA421D
#777Трек лист:

01. The Aria [02:43]
02. The Good, The Bad and the Ugly [03:46]
03. Haunted [03:29]
04. Love Theme From Sid And Nancy [01:43]
05. Junk Theme [02:57]
06. Glued Up And Speeding [01:27]
07. Paris [01:09]
08. A Needle For Paddy Garcia [02:29]
09. Jb 57 [01:44]
10. Bowery Snax / Spiked [03:54]
11. Hot Dogs With Everything [02:51]
12. Rince Del Emplacada [03:14]
13. The Rake At The Gates Of Hell [02:26]
14. Turkish Song Of The Damned [03:56]
15. I Should Fall From Grace With God [02:32]
16. Battle March [02:23]
17. Lullaby Of London [04:49]
18. Shanne Bradley [03:23]
19. Streets Of Sorrow [02:09]
20. Thousands Are Sailing [04:14]
21. The Balinalee [02:58]
22. Nicaragua Librй [02:36]
23. Japan [03:03]

Продолжительность: 01:05:55
Код:
Код:
Exact Audio Copy V1.0 beta 3 from 29. August 2011

EAC extraction logfile from 7. August 2013, 12:55

The Pogues / Just Look Them Straight In The Eye And Say......Pogue Mahone! - CD3

Used drive  : _NEC    DVD_RW ND-4571A   Adapter: 0  ID: 0

Read mode               : Secure
Utilize accurate stream : Yes
Defeat audio cache      : Yes
Make use of C2 pointers : No

Read offset correction                      : 48
Overread into Lead-In and Lead-Out          : No
Fill up missing offset samples with silence : Yes
Delete leading and trailing silent blocks   : No
Null samples used in CRC calculations       : Yes
Used interface                              : Native Win32 interface for Win NT & 2000

Used output format              : User Defined Encoder
Selected bitrate                : 896 kBit/s
Quality                         : High
Add ID3 tag                     : No
Command line compressor         : C:\Program Files\Exact Audio Copy\wavpack\wavpack.exe
Additional command line options : -hm %source% %dest%

TOC of the extracted CD

     Track |   Start  |  Length  | Start sector | End sector
    ---------------------------------------------------------
        1  |  0:00.00 |  2:42.53 |         0    |    12202
        2  |  2:42.53 |  3:45.65 |     12203    |    29142
        3  |  6:28.43 |  3:29.28 |     29143    |    44845
        4  |  9:57.71 |  1:42.44 |     44846    |    52539
        5  | 11:40.40 |  2:56.55 |     52540    |    65794
        6  | 14:37.20 |  1:27.02 |     65795    |    72321
        7  | 16:04.22 |  1:09.10 |     72322    |    77506
        8  | 17:13.32 |  2:28.58 |     77507    |    88664
        9  | 19:42.15 |  1:44.25 |     88665    |    96489
       10  | 21:26.40 |  3:54.05 |     96490    |   114044
       11  | 25:20.45 |  2:50.35 |    114045    |   126829
       12  | 28:11.05 |  3:14.30 |    126830    |   141409
       13  | 31:25.35 |  2:26.07 |    141410    |   152366
       14  | 33:51.42 |  3:56.07 |    152367    |   170073
       15  | 37:47.49 |  2:31.36 |    170074    |   181434
       16  | 40:19.10 |  2:22.59 |    181435    |   192143
       17  | 42:41.69 |  4:48.71 |    192144    |   213814
       18  | 47:30.65 |  3:22.63 |    213815    |   229027
       19  | 50:53.53 |  2:08.59 |    229028    |   238686
       20  | 53:02.37 |  4:14.06 |    238687    |   257742
       21  | 57:16.43 |  2:57.64 |    257743    |   271081
       22  | 60:14.32 |  2:36.24 |    271082    |   282805
       23  | 62:50.56 |  3:02.65 |    282806    |   296520

Range status and errors

Selected range

     Filename D:\The Pogues - Just Look Them Straight In The Eye And Say....Pogue Mahone!\CD3\The Pogues - Just Look Them Straight In The Eye And Say......Pogue Mahone! - CD3.wav

     Peak level 98.8 %
     Extraction speed 8.1 X
     Range quality 100.0 %
     Test CRC A2793B5F
     Copy CRC A2793B5F
     Copy OK

No errors occurred

AccurateRip summary

Track  1  accurately ripped (confidence 14)  [2850681B]  (AR v2)
Track  2  accurately ripped (confidence 14)  [DD44CB38]  (AR v2)
Track  3  accurately ripped (confidence 14)  [7DFCF288]  (AR v2)
Track  4  accurately ripped (confidence 14)  [1BE4E181]  (AR v2)
Track  5  accurately ripped (confidence 14)  [7E1590F9]  (AR v2)
Track  6  accurately ripped (confidence 14)  [7F6D54F1]  (AR v2)
Track  7  accurately ripped (confidence 14)  [91A3B2BD]  (AR v2)
Track  8  accurately ripped (confidence 14)  [E802C7CC]  (AR v2)
Track  9  accurately ripped (confidence 14)  [2A7E4A11]  (AR v2)
Track 10  accurately ripped (confidence 14)  [CF34B55A]  (AR v2)
Track 11  accurately ripped (confidence 14)  [5ECCB05A]  (AR v2)
Track 12  accurately ripped (confidence 14)  [1C486665]  (AR v2)
Track 13  accurately ripped (confidence 14)  [6CF1C692]  (AR v2)
Track 14  accurately ripped (confidence 14)  [E91BD55F]  (AR v2)
Track 15  accurately ripped (confidence 14)  [05BD92A1]  (AR v2)
Track 16  accurately ripped (confidence 14)  [57500C3F]  (AR v2)
Track 17  accurately ripped (confidence 14)  [04BF1BE3]  (AR v2)
Track 18  accurately ripped (confidence 14)  [5DD77842]  (AR v2)
Track 19  accurately ripped (confidence 14)  [742020B0]  (AR v2)
Track 20  accurately ripped (confidence 14)  [98F97932]  (AR v2)
Track 21  accurately ripped (confidence 14)  [498EF5E6]  (AR v2)
Track 22  accurately ripped (confidence 14)  [0C6C5E6F]  (AR v2)
Track 23  accurately ripped (confidence 14)  [346F465E]  (AR v2)

All tracks accurately ripped

End of status report

==== Log checksum E34A885C0FD8AEB3F63473F31BF230C23CCBD459D374DBF9B7F6736622E57563 ====
Код:
Код:
-----------------------

DON'T MODIFY THIS FILE

-----------------------

PERFORMER: auCDtect Task Manager, ver. 1.6.0 RC1 build 1.6.0.1
Copyright (c) 2008-2010 y-soft. All rights reserved
http:/y-soft.org

ANALYZER: auCDtect: CD records authenticity detector, version 0.8.2
Copyright (c) 2004 Oleg Berngardt. All rights reserved.
Copyright (c) 2004 Alexander Djourik. All rights reserved.

FILE: The Pogues - 2008 - Just Look Them Straight In The Eye And Say......Pogue Mahone! CD3.wv
  Size: 485162458 Hash: AD77BBA13D36524A33FECF9B6B684EC4 Accuracy: -m0
  Conclusion: CDDA 100%
  Signature: F15C3FB0B2891BBE9A2ACE8675A32AFCA857927C
#777Трек лист:

01. Sally Maclennane [02:49]
02. A Pair Of Brown Eyes [03:41]
03. Kitty [03:42]
04. Maggie May [04:23]
05. Dirty Old Town [03:48]
06. The Sickbed of Cuchulainn [03:19]
07. Fiesta [03:55]
08. I Should Fall From Grace With God [04:19]
09. Johnny Come Lately [04:03]
10. Boat Train [02:49]
11. Night Train To Lorca [02:51]
12. The Mistle Thrush [02:46]
13. Got A Lot Of Livin' To Do [02:29]
14. Victoria [02:51]
15. Murder [Version 1] [02:54]
16. Lust For Vomit [02:20]
17. The Wake Of The Medusa [03:15]
18. The Black Dogs Ditch [04:08]
19. Aisling [02:25]
20. Murder [Version 2] [02:40]
21. Yeah Yeah Yeah Yeah [06:45]
22. Maidrнn Rua [03:18]
23. Johnny Come Lately [03:03]

Продолжительность: 01:18:33
Код:
Код:
Exact Audio Copy V1.0 beta 3 from 29. August 2011

EAC extraction logfile from 7. August 2013, 13:30

The Pogues / Just Look Them Straight In The Eye And Say......Pogue Mahone! - CD4

Used drive  : _NEC    DVD_RW ND-4571A   Adapter: 0  ID: 0

Read mode               : Secure
Utilize accurate stream : Yes
Defeat audio cache      : Yes
Make use of C2 pointers : No

Read offset correction                      : 48
Overread into Lead-In and Lead-Out          : No
Fill up missing offset samples with silence : Yes
Delete leading and trailing silent blocks   : No
Null samples used in CRC calculations       : Yes
Used interface                              : Native Win32 interface for Win NT & 2000

Used output format              : User Defined Encoder
Selected bitrate                : 896 kBit/s
Quality                         : High
Add ID3 tag                     : No
Command line compressor         : C:\Program Files\Exact Audio Copy\wavpack\wavpack.exe
Additional command line options : -hm %source% %dest%

TOC of the extracted CD

     Track |   Start  |  Length  | Start sector | End sector
    ---------------------------------------------------------
        1  |  0:00.00 |  2:48.34 |         0    |    12633
        2  |  2:48.34 |  3:40.71 |     12634    |    29204
        3  |  6:29.30 |  3:42.22 |     29205    |    45876
        4  | 10:11.52 |  4:23.02 |     45877    |    65603
        5  | 14:34.54 |  3:48.09 |     65604    |    82712
        6  | 18:22.63 |  3:19.00 |     82713    |    97637
        7  | 21:41.63 |  3:54.64 |     97638    |   115251
        8  | 25:36.52 |  4:18.36 |    115252    |   134637
        9  | 29:55.13 |  4:02.56 |    134638    |   152843
       10  | 33:57.69 |  2:48.60 |    152844    |   165503
       11  | 36:46.54 |  2:50.43 |    165504    |   178296
       12  | 39:37.22 |  2:45.53 |    178297    |   190724
       13  | 42:23.00 |  2:28.56 |    190725    |   201880
       14  | 44:51.56 |  2:51.17 |    201881    |   214722
       15  | 47:42.73 |  2:53.68 |    214723    |   227765
       16  | 50:36.66 |  2:20.08 |    227766    |   238273
       17  | 52:56.74 |  3:14.48 |    238274    |   252871
       18  | 56:11.47 |  4:07.55 |    252872    |   271451
       19  | 60:19.27 |  2:24.49 |    271452    |   282300
       20  | 62:44.01 |  2:39.41 |    282301    |   294266
       21  | 65:23.42 |  6:44.53 |    294267    |   324619
       22  | 72:08.20 |  3:17.53 |    324620    |   339447
       23  | 75:25.73 |  3:02.41 |    339448    |   353138

Range status and errors

Selected range

     Filename D:\The Pogues - Just Look Them Straight In The Eye And Say....Pogue Mahone!\CD4\The Pogues - Just Look Them Straight In The Eye And Say......Pogue Mahone! - CD4.wav

     Peak level 98.8 %
     Extraction speed 5.8 X
     Range quality 100.0 %
     Test CRC 78B0F06D
     Copy CRC 78B0F06D
     Copy OK

No errors occurred

AccurateRip summary

Track  1  cannot be verified as accurate (confidence 22)  [07E347C5], AccurateRip returned [A32B4EE4]  (AR v2)
Track  2  cannot be verified as accurate (confidence 21)  [8EC3535B], AccurateRip returned [BE862897]  (AR v2)
Track  3  cannot be verified as accurate (confidence 21)  [0CDAF55A], AccurateRip returned [3D00C408]  (AR v2)
Track  4  cannot be verified as accurate (confidence 22)  [CB37C0FE], AccurateRip returned [29B18D81]  (AR v2)
Track  5  cannot be verified as accurate (confidence 22)  [E6108AF9], AccurateRip returned [655369C1]  (AR v2)
Track  6  cannot be verified as accurate (confidence 21)  [225FE8B2], AccurateRip returned [08C78182]  (AR v2)
Track  7  cannot be verified as accurate (confidence 21)  [5DC5EDFD], AccurateRip returned [1D82D5B3]  (AR v2)
Track  8  cannot be verified as accurate (confidence 22)  [4175A451], AccurateRip returned [BDEEB739]  (AR v2)
Track  9  cannot be verified as accurate (confidence 21)  [CABF5DBF], AccurateRip returned [5EF87079]  (AR v2)
Track 10  cannot be verified as accurate (confidence 21)  [A3CBFAD7], AccurateRip returned [E3C3F88C]  (AR v2)
Track 11  cannot be verified as accurate (confidence 21)  [807FEAF2], AccurateRip returned [A650E2C3]  (AR v2)
Track 12  cannot be verified as accurate (confidence 21)  [55E77ED8], AccurateRip returned [8DE7E31B]  (AR v2)
Track 13  cannot be verified as accurate (confidence 21)  [ED774E86], AccurateRip returned [DF332FD3]  (AR v2)
Track 14  cannot be verified as accurate (confidence 21)  [6E5DE0BA], AccurateRip returned [70432FBB]  (AR v2)
Track 15  cannot be verified as accurate (confidence 21)  [947D0A8D], AccurateRip returned [2430B7DE]  (AR v2)
Track 16  cannot be verified as accurate (confidence 21)  [B9462CF0], AccurateRip returned [808E939C]  (AR v2)
Track 17  cannot be verified as accurate (confidence 21)  [9BE85793], AccurateRip returned [DE17CEAE]  (AR v2)
Track 18  cannot be verified as accurate (confidence 21)  [C137D34A], AccurateRip returned [4B73A6E8]  (AR v2)
Track 19  cannot be verified as accurate (confidence 21)  [26BBB212], AccurateRip returned [FE334EB1]  (AR v2)
Track 20  cannot be verified as accurate (confidence 21)  [0AFCAC0F], AccurateRip returned [FC3BC151]  (AR v2)
Track 21  cannot be verified as accurate (confidence 22)  [AF20295D], AccurateRip returned [DCF525A1]  (AR v2)
Track 22  cannot be verified as accurate (confidence 22)  [C90F7DF3], AccurateRip returned [DD16A4E4]  (AR v2)
Track 23  cannot be verified as accurate (confidence 20)  [BAA44D73], AccurateRip returned [327A7ED9]  (AR v2)

No tracks could be verified as accurate
You may have a different pressing from the one(s) in the database

End of status report

==== Log checksum 4EE0ED1C0CF962EF5366986AE8120BE1E3467DD65DAE7511687C0ED22F0A2673 ====
Код:
Код:
-----------------------

DON'T MODIFY THIS FILE

-----------------------

PERFORMER: auCDtect Task Manager, ver. 1.6.0 RC1 build 1.6.0.1
Copyright (c) 2008-2010 y-soft. All rights reserved
http:/y-soft.org

ANALYZER: auCDtect: CD records authenticity detector, version 0.8.2
Copyright (c) 2004 Oleg Berngardt. All rights reserved.
Copyright (c) 2004 Alexander Djourik. All rights reserved.

FILE: The Pogues - 2008 - Just Look Them Straight In The Eye And Say......Pogue Mahone! CD4.wv
  Size: 604501158 Hash: CB996FF08FFD52A6D0F2ABDB2A6D7975 Accuracy: -m0
  Conclusion: CDDA 100%
  Signature: 85C8A584766E95060A5F0F80EBA3E706ADA8DCBA
#777Трек лист:

01. Sexy Bongo - Johnny Was [03:27]
02. The Pogues & Kirsty MacColl - Miss Otis Regrets / Just One Of Those Things [04:41]
03. Kirsty MacColl - All The Tears That I Cried [03:33]
04. Kirsty MacColl - The One And Only [03:43]
05. Joe Strummer and the Astro-Physicians - Afro-Cuban Be-Bop [02:54]
06. The Pogues featuring Joe Strummer - Turkish Song Of The Damned [04:09]
07. The Pogues featuring Joe Strummer - London Calling [03:27]
08. The Pogues featuring Joe Strummer - I Fought The Law [02:49]
09. The Girl From The Wadi-Hammamat [04:16]
10. Moving To Moldova [05:16]
11. Call My Name [02:44]
12. The Sun And The Moon [02:18]
13. Living In A World Without Her [03:13]
14. Who Said Romance Is Dead? [04:11]
15. Sound Of The City Night [03:37]
16. Four O'Clock In The Morning [02:37]
17. The Star Of The County Down [03:16]
18. White City [02:28]
19. Medley [03:55]
20. The Parting Glass / Lord Santry's Fairest Daughter [03:52]
21. Goodnight Irene [03:37]

Продолжительность: 01:14:03
Код:
Код:
Exact Audio Copy V1.0 beta 3 from 29. August 2011

EAC extraction logfile from 7. August 2013, 14:03

The Pogues / Just Look Them Straight In The Eye And Say......Pogue Mahone! - CD5

Used drive  : _NEC    DVD_RW ND-4571A   Adapter: 0  ID: 0

Read mode               : Secure
Utilize accurate stream : Yes
Defeat audio cache      : Yes
Make use of C2 pointers : No

Read offset correction                      : 48
Overread into Lead-In and Lead-Out          : No
Fill up missing offset samples with silence : Yes
Delete leading and trailing silent blocks   : No
Null samples used in CRC calculations       : Yes
Used interface                              : Native Win32 interface for Win NT & 2000

Used output format              : User Defined Encoder
Selected bitrate                : 896 kBit/s
Quality                         : High
Add ID3 tag                     : No
Command line compressor         : C:\Program Files\Exact Audio Copy\wavpack\wavpack.exe
Additional command line options : -hm %source% %dest%

TOC of the extracted CD

     Track |   Start  |  Length  | Start sector | End sector
    ---------------------------------------------------------
        1  |  0:00.00 |  3:26.58 |         0    |    15507
        2  |  3:26.58 |  4:40.47 |     15508    |    36554
        3  |  8:07.30 |  3:33.02 |     36555    |    52531
        4  | 11:40.32 |  3:43.25 |     52532    |    69281
        5  | 15:23.57 |  2:53.61 |     69282    |    82317
        6  | 18:17.43 |  4:09.29 |     82318    |   101021
        7  | 22:26.72 |  3:27.28 |    101022    |   116574
        8  | 25:54.25 |  2:48.47 |    116575    |   129221
        9  | 28:42.72 |  4:15.47 |    129222    |   148393
       10  | 32:58.44 |  5:15.49 |    148394    |   172067
       11  | 38:14.18 |  2:44.08 |    172068    |   184375
       12  | 40:58.26 |  2:17.65 |    184376    |   194715
       13  | 43:16.16 |  3:13.03 |    194716    |   209193
       14  | 46:29.19 |  4:11.28 |    209194    |   228046
       15  | 50:40.47 |  3:36.74 |    228047    |   244320
       16  | 54:17.46 |  2:37.29 |    244321    |   256124
       17  | 56:55.00 |  3:15.40 |    256125    |   270789
       18  | 60:10.40 |  2:27.36 |    270790    |   281850
       19  | 62:38.01 |  3:54.74 |    281851    |   299474
       20  | 66:33.00 |  3:52.21 |    299475    |   316895
       21  | 70:25.21 |  3:37.19 |    316896    |   333189

Range status and errors

Selected range

     Filename D:\The Pogues - Just Look Them Straight In The Eye And Say....Pogue Mahone!\CD5\The Pogues - Just Look Them Straight In The Eye And Say......Pogue Mahone! - CD5.wav

     Peak level 98.8 %
     Extraction speed 5.7 X
     Range quality 99.9 %
     Test CRC 4CC8B761
     Copy CRC 4CC8B761
     Copy OK

No errors occurred

AccurateRip summary

Track  1  cannot be verified as accurate (confidence 20)  [A0B45A15], AccurateRip returned [C590F427]  (AR v2)
Track  2  cannot be verified as accurate (confidence 21)  [6BB7F440], AccurateRip returned [61057CA4]  (AR v2)
Track  3  cannot be verified as accurate (confidence 20)  [2A021621], AccurateRip returned [41C40481]  (AR v2)
Track  4  cannot be verified as accurate (confidence 20)  [7D3BE3A1], AccurateRip returned [63CEB1D1]  (AR v2)
Track  5  cannot be verified as accurate (confidence 20)  [9B192AF1], AccurateRip returned [BACC0993]  (AR v2)
Track  6  cannot be verified as accurate (confidence 20)  [3D6A4018], AccurateRip returned [59CBBA60]  (AR v2)
Track  7  cannot be verified as accurate (confidence 20)  [B4B25BDC], AccurateRip returned [2CBBAD09]  (AR v2)
Track  8  cannot be verified as accurate (confidence 20)  [D3212B4B], AccurateRip returned [AC30E32D]  (AR v2)
Track  9  cannot be verified as accurate (confidence 20)  [0DA60F67], AccurateRip returned [FC085882]  (AR v2)
Track 10  cannot be verified as accurate (confidence 20)  [163D95C1], AccurateRip returned [3DDFDEFB]  (AR v2)
Track 11  cannot be verified as accurate (confidence 20)  [76EE5765], AccurateRip returned [3359B590]  (AR v2)
Track 12  cannot be verified as accurate (confidence 20)  [F66C4F97], AccurateRip returned [ABB16664]  (AR v2)
Track 13  cannot be verified as accurate (confidence 20)  [B0790306], AccurateRip returned [67949F03]  (AR v2)
Track 14  cannot be verified as accurate (confidence 20)  [857DE850], AccurateRip returned [FC0BE37F]  (AR v2)
Track 15  cannot be verified as accurate (confidence 20)  [1BD21CD1], AccurateRip returned [C60673A2]  (AR v2)
Track 16  cannot be verified as accurate (confidence 20)  [4D8CB2DD], AccurateRip returned [0155999C]  (AR v2)
Track 17  cannot be verified as accurate (confidence 20)  [F3932AB0], AccurateRip returned [B501CD83]  (AR v2)
Track 18  cannot be verified as accurate (confidence 20)  [C873B5D8], AccurateRip returned [FAF8D7FB]  (AR v2)
Track 19  cannot be verified as accurate (confidence 20)  [FF4713E2], AccurateRip returned [9D702D39]  (AR v2)
Track 20  cannot be verified as accurate (confidence 20)  [E533A36C], AccurateRip returned [629B44E7]  (AR v2)
Track 21  cannot be verified as accurate (confidence 21)  [31BBA74C], AccurateRip returned [1E938991]  (AR v2)

No tracks could be verified as accurate
You may have a different pressing from the one(s) in the database

End of status report

==== Log checksum AACA44F764AB4E3B5C87FBFA9CE58819E1FB151C70DCD29132324B6848318163 ====
Код:
Код:
-----------------------

DON'T MODIFY THIS FILE

-----------------------

PERFORMER: auCDtect Task Manager, ver. 1.6.0 RC1 build 1.6.0.1
Copyright (c) 2008-2010 y-soft. All rights reserved
http:/y-soft.org

ANALYZER: auCDtect: CD records authenticity detector, version 0.8.2
Copyright (c) 2004 Oleg Berngardt. All rights reserved.
Copyright (c) 2004 Alexander Djourik. All rights reserved.

FILE: The Pogues - 2008 - Just Look Them Straight In The Eye And Say......Pogue Mahone! CD5.wv
  Size: 559651977 Hash: CB25DD6BE41E49B7149FA9AB7C31B90A Accuracy: -m0
  Conclusion: CDDA 100%
  Signature: 8BAD50C6A80EE46907D8EBE04C902EAAE18937A7
Правила, инструкции, FAQ!!!
Торрент  Добавлен [16 мар 2014, 00:52] Скачать торрент Магнет ссылка
Скачать торрент
[ Размер 20.27 КБ / Просмотров 12 ]

Статус  
 
Размер  2.72 ГБ
Приватный: Нет (DHT включён)
.torrent скачан  0
 


     Отправить личное сообщение
   
Страница 1 из 1
Показать сообщения за:  Поле сортировки  
Начать новую тему Ответить на тему


Сейчас этот форум просматривают: нет зарегистрированных пользователей и гости: 0


Вы не можете начинать темы
Вы не можете отвечать на сообщения
Вы не можете редактировать свои сообщения
Вы не можете удалять свои сообщения
Вы не можете добавлять вложения

Перейти:  
cron
cron