Начать новую тему Ответить на тему
Статистика раздачи
Размер: 2.32 ГБ | Добавлен: 16 мар 2014, 00:01 | Скачали: 3
Сидеров: 11  [0 байт/сек]    Личеров: 0  [0 байт/сек]
Пред. тема | След. тема 

Автор
Сообщение

СообщениеДобавлено: 16 мар 2014, 00:01 

Ответить с цитатой 

The Mamas and The Papas - 6 Albums Collection (1966-1971) / 2013

Год издания:
2013
Страна: USA
Издатель: Geffen Records / Universal Music Japan
Каталог: UICY-75703/8
Страна-производитель диска: Japan
Жанр: Rock, Pop Rock, Folk Rock
Продолжительность: 03:37:08

Кодек: FLAC
Битрейт: Lossless
Тип рипа: image +.cue +.log
Наличие сканов: format PNG 600dpi/300dpi (booklets, sheets), full scans
Rip by ALLexxess спасибо

Треклист:
#777
Продолжительноcть:
00:35:09
Трек лист:
01. Monday, Monday
02. Straight Shooter
03. Got A Feelin'
04. I Call Your Name
05. Do You Wanna Dance
06. Go Where You Wanna Go
07. California Dreamin'
08. Spanish Harlem
09. Somebody Groovy
10. Hey Girl
11. You Baby
12. In Crowd
Код:
Код:
Exact Audio Copy V1.0 beta 3 from 29. August 2011

EAC extraction logfile from 5. January 2014, 21:08

The Mamas & The Papas / If You Can Believe Your Eyes And Ears

Used drive  : PLEXTOR BD-R  PX-B950SA   Adapter: 6  ID: 0

Read mode               : Secure
Utilize accurate stream : Yes
Defeat audio cache      : Yes
Make use of C2 pointers : No

Read offset correction                      : 6
Overread into Lead-In and Lead-Out          : No
Fill up missing offset samples with silence : Yes
Delete leading and trailing silent blocks   : No
Null samples used in CRC calculations       : Yes
Used interface                              : Native Win32 interface for Win NT & 2000

Used output format : Internal WAV Routines
Sample format      : 44.100 Hz; 16 Bit; Stereo

TOC of the extracted CD

     Track |   Start  |  Length  | Start sector | End sector
    ---------------------------------------------------------
        1  |  0:00.00 |  3:29.26 |         0    |    15700
        2  |  3:29.26 |  3:00.16 |     15701    |    29216
        3  |  6:29.42 |  2:57.51 |     29217    |    42542
        4  |  9:27.18 |  2:39.38 |     42543    |    54505
        5  | 12:06.56 |  3:00.50 |     54506    |    68055
        6  | 15:07.31 |  2:31.64 |     68056    |    79444
        7  | 17:39.20 |  2:42.08 |     79445    |    91602
        8  | 20:21.28 |  3:22.15 |     91603    |   106767
        9  | 23:43.43 |  3:16.24 |    106768    |   121491
       10  | 26:59.67 |  2:30.17 |    121492    |   132758
       11  | 29:30.09 |  2:23.42 |    132759    |   143525
       12  | 31:53.51 |  3:15.03 |    143526    |   158153

Range status and errors

Selected range

     Filename C:\Users\Meijin\Desktop\Lossless Galaxy ALLexxess\Mamas & Papas\1966 If You Can Believe (Mini LP SHM-CD USM Japan 2013)\The Mamas & The Papas - If You Can Believe.wav

     Peak level 85.2 %
     Extraction speed 6.5 X
     Range quality 100.0 %
     Test CRC 116B0AE5
     Copy CRC 116B0AE5
     Copy OK

No errors occurred

AccurateRip summary

Track  1  accurately ripped (confidence 1)  [679A460B]  (AR v2)
Track  2  accurately ripped (confidence 1)  [1890C858]  (AR v2)
Track  3  accurately ripped (confidence 1)  [CF382C3E]  (AR v2)
Track  4  accurately ripped (confidence 1)  [6CDF5EA1]  (AR v2)
Track  5  accurately ripped (confidence 1)  [4EBCC222]  (AR v2)
Track  6  accurately ripped (confidence 1)  [868E8F60]  (AR v2)
Track  7  accurately ripped (confidence 1)  [DB0E0F94]  (AR v2)
Track  8  accurately ripped (confidence 1)  [8E5F693F]  (AR v2)
Track  9  accurately ripped (confidence 1)  [D3804814]  (AR v2)
Track 10  accurately ripped (confidence 1)  [36682C6A]  (AR v2)
Track 11  accurately ripped (confidence 1)  [6D4370B8]  (AR v2)
Track 12  accurately ripped (confidence 1)  [AE69AD74]  (AR v2)

All tracks accurately ripped

End of status report

==== Log checksum 0208021726C8749A1BD75F674D98A8157FFC8B3E9AB45CFE799A80CD2EB567B7 ====
Код:
Код:
-----------------------

DON'T MODIFY THIS FILE

-----------------------

PERFORMER: auCDtect Task Manager, ver. 1.5.1RC3 build 1.5.1.4
Copyright (c) 2008-2010 y-soft. All rights reserved
http:/y-soft.org

ANALYZER: auCDtect: CD records authenticity detector, version 0.8.2
Copyright (c) 2004 Oleg Berngardt. All rights reserved.
Copyright (c) 2004 Alexander Djourik. All rights reserved.

FILE: The Mamas & The Papas - If You Can Believe.wav
  Size: 371978252 Hash: 3B3BD1AA81C8BAD0A23098258E55C073 Accuracy: -m8
  Conclusion: CDDA 100%
  Signature: 0DE650D82A03073F2B0063754FC58C338165AA32
FILE: The Mamas & The Papas - If You Can Believe.flac
  Size: 205076979 Hash: 3B3BD1AA81C8BAD0A23098258E55C073 Accuracy: -m8
  Conclusion: CDDA 100%
  Signature: F6283747A360AF54F2001A0198B26010B0640322
#777
Продолжительноcть:
00:32:58
Трек лист:

01. No Salt On Her Tail
02. Trip Stumble And Fall
03. Dancing Bear
04. Words Of Love
05. My Heart Stood Still
06. Dancing In The Street
07. I Saw Her Again
08. Strange Young Girls
09. I Can`t Wait
10. Even If I Could
11. That Kind Of Girl
12. Once Was A Time I Thought
Код:
Код:
Exact Audio Copy V1.0 beta 3 from 29. August 2011

EAC extraction logfile from 5. January 2014, 20:35

The Mamas & The Papas / The Mamas & The Papas

Used drive  : PLEXTOR BD-R  PX-B950SA   Adapter: 6  ID: 0

Read mode               : Secure
Utilize accurate stream : Yes
Defeat audio cache      : Yes
Make use of C2 pointers : No

Read offset correction                      : 6
Overread into Lead-In and Lead-Out          : No
Fill up missing offset samples with silence : Yes
Delete leading and trailing silent blocks   : No
Null samples used in CRC calculations       : Yes
Used interface                              : Native Win32 interface for Win NT & 2000

Used output format : Internal WAV Routines
Sample format      : 44.100 Hz; 16 Bit; Stereo

TOC of the extracted CD

     Track |   Start  |  Length  | Start sector | End sector
    ---------------------------------------------------------
        1  |  0:00.00 |  2:46.02 |         0    |    12451
        2  |  2:46.02 |  2:41.45 |     12452    |    24571
        3  |  5:27.47 |  4:12.17 |     24572    |    43488
        4  |  9:39.64 |  2:16.44 |     43489    |    53732
        5  | 11:56.33 |  1:45.37 |     53733    |    61644
        6  | 13:41.70 |  3:51.11 |     61645    |    78980
        7  | 17:33.06 |  3:16.05 |     78981    |    93685
        8  | 20:49.11 |  2:56.54 |     93686    |   106939
        9  | 23:45.65 |  2:45.49 |    106940    |   119363
       10  | 26:31.39 |  2:45.39 |    119364    |   131777
       11  | 29:17.03 |  2:40.46 |    131778    |   143823
       12  | 31:57.49 |  1:00.01 |    143824    |   148324

Range status and errors

Selected range

     Filename C:\Users\Meijin\Desktop\Lossless Galaxy ALLexxess\Mamas & Papas\1966 The Mamas & The Papas (Mini LP SHM-CD USM Japan 2013)\The Mamas & The Papas - The Mamas & The Papas.wav

     Peak level 93.7 %
     Extraction speed 6.4 X
     Range quality 100.0 %
     Test CRC 516D8A8D
     Copy CRC 516D8A8D
     Copy OK

No errors occurred

AccurateRip summary

Track  1  accurately ripped (confidence 1)  [4A3339C9]  (AR v2)
Track  2  accurately ripped (confidence 1)  [182634C8]  (AR v2)
Track  3  accurately ripped (confidence 1)  [0F5B7F97]  (AR v2)
Track  4  accurately ripped (confidence 1)  [C89963D5]  (AR v2)
Track  5  accurately ripped (confidence 1)  [2CE260DF]  (AR v2)
Track  6  accurately ripped (confidence 1)  [3A283674]  (AR v2)
Track  7  accurately ripped (confidence 1)  [FA8583D9]  (AR v2)
Track  8  accurately ripped (confidence 1)  [E74242DD]  (AR v2)
Track  9  accurately ripped (confidence 1)  [B908E5EE]  (AR v2)
Track 10  accurately ripped (confidence 1)  [1FC5BE3D]  (AR v2)
Track 11  accurately ripped (confidence 1)  [9E5FA181]  (AR v2)
Track 12  accurately ripped (confidence 1)  [1653E563]  (AR v2)

All tracks accurately ripped

End of status report

==== Log checksum 2391CD072C313EE3EA216227289D7FA8E1DFADC1109914319CF6E0C8DD7BF33A ====
Код:
Код:
-----------------------

DON'T MODIFY THIS FILE

-----------------------

PERFORMER: auCDtect Task Manager, ver. 1.5.1RC3 build 1.5.1.4
Copyright (c) 2008-2010 y-soft. All rights reserved
http:/y-soft.org

ANALYZER: auCDtect: CD records authenticity detector, version 0.8.2
Copyright (c) 2004 Oleg Berngardt. All rights reserved.
Copyright (c) 2004 Alexander Djourik. All rights reserved.

FILE: The Mamas & The Papas - The Mamas & The Papas.wav
  Size: 348860444 Hash: CA79511AB4AD6BB4731EEF887D6AE69B Accuracy: -m8
  Conclusion: CDDA 100%
  Signature: DA857BB3D54512BB46C8927B88305D89C36AEB71
FILE: The Mamas & The Papas - The Mamas & The Papas.flac
  Size: 215791418 Hash: CA79511AB4AD6BB4731EEF887D6AE69B Accuracy: -m8
  Conclusion: CDDA 100%
  Signature: FCA78F076BD63C3C1FCEDCC2CE721189B2180354
#777
Продолжительноcть:
00:37:40
Трек лист:

01. Dedicated To The One I Love 02:59
02. My Girl
03. Creeque Alley
04. Sing For Your Supper
05. Twist And Shout
06. Free Advice
07. Look Through My Window
08. Boys & Girls Together
09. String Man
10. Frustration
11. Did You Ever Want To Cry
12. John's Music Box
13. Glad To Be Unhappy
Код:
Код:
Exact Audio Copy V1.0 beta 3 from 29. August 2011

EAC extraction logfile from 5. January 2014, 19:56

The Mamas & The Papas / Deliver

Used drive  : PLEXTOR BD-R  PX-B950SA   Adapter: 6  ID: 0

Read mode               : Secure
Utilize accurate stream : Yes
Defeat audio cache      : Yes
Make use of C2 pointers : No

Read offset correction                      : 6
Overread into Lead-In and Lead-Out          : No
Fill up missing offset samples with silence : Yes
Delete leading and trailing silent blocks   : No
Null samples used in CRC calculations       : Yes
Used interface                              : Native Win32 interface for Win NT & 2000

Used output format : Internal WAV Routines
Sample format      : 44.100 Hz; 16 Bit; Stereo

TOC of the extracted CD

     Track |   Start  |  Length  | Start sector | End sector
    ---------------------------------------------------------
        1  |  0:00.00 |  2:59.47 |         0    |    13471
        2  |  2:59.47 |  3:33.04 |     13472    |    29450
        3  |  6:32.51 |  3:47.41 |     29451    |    46516
        4  | 10:20.17 |  2:49.57 |     46517    |    59248
        5  | 13:09.74 |  2:55.31 |     59249    |    72404
        6  | 16:05.30 |  3:21.09 |     72405    |    87488
        7  | 19:26.39 |  3:07.39 |     87489    |   101552
        8  | 22:34.03 |  3:15.55 |    101553    |   116232
        9  | 25:49.58 |  3:02.33 |    116233    |   129915
       10  | 28:52.16 |  2:57.22 |    129916    |   143212
       11  | 31:49.38 |  2:56.47 |    143213    |   156459
       12  | 34:46.10 |  1:10.63 |    156460    |   161772
       13  | 35:56.73 |  1:43.13 |    161773    |   169510

Range status and errors

Selected range

     Filename C:\Users\Meijin\Desktop\Lossless Galaxy ALLexxess\Mamas & Papas\1967 Deliver (Mini LP SHM-CD USM Japan 2013)\The Mamas & The Papas - Deliver.wav

     Peak level 100.0 %
     Extraction speed 6.6 X
     Range quality 100.0 %
     Test CRC 97AACCF5
     Copy CRC 97AACCF5
     Copy OK

No errors occurred

AccurateRip summary

Track  1  accurately ripped (confidence 1)  [69D9FF8F]  (AR v2)
Track  2  accurately ripped (confidence 1)  [61B2B37E]  (AR v2)
Track  3  accurately ripped (confidence 1)  [3C0B1CAC]  (AR v2)
Track  4  accurately ripped (confidence 1)  [ADCBF297]  (AR v2)
Track  5  accurately ripped (confidence 1)  [8F310817]  (AR v2)
Track  6  accurately ripped (confidence 1)  [D7D85DCE]  (AR v2)
Track  7  accurately ripped (confidence 1)  [0203C57B]  (AR v2)
Track  8  accurately ripped (confidence 1)  [857FA20B]  (AR v2)
Track  9  accurately ripped (confidence 1)  [70571000]  (AR v2)
Track 10  accurately ripped (confidence 1)  [07D4D326]  (AR v2)
Track 11  accurately ripped (confidence 1)  [12856BB3]  (AR v2)
Track 12  accurately ripped (confidence 1)  [D6030D0B]  (AR v2)
Track 13  accurately ripped (confidence 1)  [4F6A030D]  (AR v2)

All tracks accurately ripped

End of status report

==== Log checksum 4E7A6569C761768D7245E0012D7EE6AB68E6613E25F648919FFDF62FC165CAFD ====
Код:
Код:
-----------------------

DON'T MODIFY THIS FILE

-----------------------

PERFORMER: auCDtect Task Manager, ver. 1.5.1RC3 build 1.5.1.4
Copyright (c) 2008-2010 y-soft. All rights reserved
http:/y-soft.org

ANALYZER: auCDtect: CD records authenticity detector, version 0.8.2
Copyright (c) 2004 Oleg Berngardt. All rights reserved.
Copyright (c) 2004 Alexander Djourik. All rights reserved.

FILE: The Mamas & The Papas - Deliver.wav
  Size: 398689916 Hash: EFBAEB1D32E233ECB7322ACD99D1EE08 Accuracy: -m8
  Conclusion: CDDA 100%
  Signature: 762EF2A2D20CB914EE84EAE8F69841F079E3CB1D
FILE: The Mamas & The Papas - Deliver.flac
  Size: 221463454 Hash: EFBAEB1D32E233ECB7322ACD99D1EE08 Accuracy: -m8
  Conclusion: CDDA 100%
  Signature: 0EB94F1B4B80D582E8CAAC1E1F31F4B70CD6622A
#777
Продолжительноcть:
00:40:20
Трек лист:

01. The Right Somebody To Love
02. Safe In My Garden 03:15
03. Meditation Mama (Transcendental Women Travels)
04. For The Love Of Ivy
05. Dream A Little Dream Of Me
06. Mansions 03:49
07. Gemini Childe 04:07
08. Nothing's Too Good For My Little Girl
09. Too Late
10. Twelve Thirty
11. Rooms
12. Midnight Voyage
Код:
Код:
Exact Audio Copy V1.0 beta 3 from 29. August 2011

EAC extraction logfile from 5. January 2014, 19:09

The Mamas & The Papas / The Papas & The Mamas

Used drive  : PLEXTOR BD-R  PX-B950SA   Adapter: 6  ID: 0

Read mode               : Secure
Utilize accurate stream : Yes
Defeat audio cache      : Yes
Make use of C2 pointers : No

Read offset correction                      : 6
Overread into Lead-In and Lead-Out          : No
Fill up missing offset samples with silence : Yes
Delete leading and trailing silent blocks   : No
Null samples used in CRC calculations       : Yes
Used interface                              : Native Win32 interface for Win NT & 2000

Used output format : Internal WAV Routines
Sample format      : 44.100 Hz; 16 Bit; Stereo

TOC of the extracted CD

     Track |   Start  |  Length  | Start sector | End sector
    ---------------------------------------------------------
        1  |  0:00.00 |  0:44.16 |         0    |     3315
        2  |  0:44.16 |  3:15.73 |      3316    |    18013
        3  |  4:00.14 |  4:25.38 |     18014    |    37926
        4  |  8:25.52 |  3:45.31 |     37927    |    54832
        5  | 12:11.08 |  3:17.56 |     54833    |    69663
        6  | 15:28.64 |  3:49.63 |     69664    |    86901
        7  | 19:18.52 |  4:07.42 |     86902    |   105468
        8  | 23:26.19 |  3:09.30 |    105469    |   119673
        9  | 26:35.49 |  4:10.45 |    119674    |   138468
       10  | 30:46.19 |  3:26.23 |    138469    |   153941
       11  | 34:12.42 |  2:52.52 |    153942    |   166893
       12  | 37:05.19 |  3:14.50 |    166894    |   181493

Range status and errors

Selected range

     Filename C:\Users\Meijin\Desktop\Lossless Galaxy ALLexxess\Mamas & Papas\1968 The Papas & The Mamas (Mini LP SHM-CD USM Japan 2013)\The Mamas & The Papas - The Papas & The Mamas.wav

     Peak level 99.3 %
     Extraction speed 2.9 X
     Range quality 99.9 %
     Test CRC 6E4DF5B9
     Copy CRC 6E4DF5B9
     Copy OK

No errors occurred

AccurateRip summary

Track  1  accurately ripped (confidence 1)  [4ECF9920]  (AR v2)
Track  2  accurately ripped (confidence 1)  [E32CCAA1]  (AR v2)
Track  3  accurately ripped (confidence 1)  [82ED65C2]  (AR v2)
Track  4  accurately ripped (confidence 1)  [87955865]  (AR v2)
Track  5  accurately ripped (confidence 1)  [15C1EC61]  (AR v2)
Track  6  accurately ripped (confidence 1)  [61432BC4]  (AR v2)
Track  7  accurately ripped (confidence 1)  [2662834D]  (AR v2)
Track  8  accurately ripped (confidence 1)  [1A421896]  (AR v2)
Track  9  accurately ripped (confidence 1)  [2717C71C]  (AR v2)
Track 10  accurately ripped (confidence 1)  [8C71D6E5]  (AR v2)
Track 11  accurately ripped (confidence 1)  [2000EB1F]  (AR v2)
Track 12  accurately ripped (confidence 1)  [AF352CD7]  (AR v2)

All tracks accurately ripped

End of status report

==== Log checksum 1B29DC72A4F490747C33A895F59FC0CD4A80FE6B48651F0FB25998769779C857 ====
Код:
Код:
-----------------------

DON'T MODIFY THIS FILE

-----------------------

PERFORMER: auCDtect Task Manager, ver. 1.5.1RC3 build 1.5.1.4
Copyright (c) 2008-2010 y-soft. All rights reserved
http:/y-soft.org

ANALYZER: auCDtect: CD records authenticity detector, version 0.8.2
Copyright (c) 2004 Oleg Berngardt. All rights reserved.
Copyright (c) 2004 Alexander Djourik. All rights reserved.

FILE: The Mamas & The Papas - The Papas & The Mamas.wav
  Size: 426873932 Hash: 8F2A2FA3EBBAFA860C7432431D63D9D3 Accuracy: -m8
  Conclusion: CDDA 100%
  Signature: 3B78E39B4AB6E1D21BA19BBC5AF11500F27F54A0
FILE: The Mamas & The Papas - The Papas & The Mamas.flac
  Size: 257280348 Hash: 8F2A2FA3EBBAFA860C7432431D63D9D3 Accuracy: -m8
  Conclusion: CDDA 100%
  Signature: 4BA8E0F879D10A64B740AE6E364A2F6DB5882DC7
#777
Продолжительноcть:
00:34:35
Трек лист:

01. Straight Shooter
02. Got A Feelin'
03. California Dreamin'
04. Spanish Harlem
05. Somebody Groovy
06. I Call Your Name
07. Monday, Monday
08. Dancing In The Street
Код:
Код:
Exact Audio Copy V1.0 beta 3 from 29. August 2011

EAC extraction logfile from 5. January 2014, 14:04

The Mamas & The Papas / Historic Performances At The Monterey International Pop Festival

Used drive  : PLEXTOR BD-R  PX-B950SA   Adapter: 6  ID: 0

Read mode               : Secure
Utilize accurate stream : Yes
Defeat audio cache      : Yes
Make use of C2 pointers : No

Read offset correction                      : 6
Overread into Lead-In and Lead-Out          : No
Fill up missing offset samples with silence : Yes
Delete leading and trailing silent blocks   : No
Null samples used in CRC calculations       : Yes
Used interface                              : Native Win32 interface for Win NT & 2000

Used output format : Internal WAV Routines
Sample format      : 44.100 Hz; 16 Bit; Stereo

TOC of the extracted CD

     Track |   Start  |  Length  | Start sector | End sector
    ---------------------------------------------------------
        1  |  0:00.00 |  4:18.60 |         0    |    19409
        2  |  4:18.60 |  3:06.37 |     19410    |    33396
        3  |  7:25.22 |  3:56.00 |     33397    |    51096
        4  | 11:21.22 |  4:06.19 |     51097    |    69565
        5  | 15:27.41 |  3:00.05 |     69566    |    83070
        6  | 18:27.46 |  4:19.08 |     83071    |   102503
        7  | 22:46.54 |  6:53.23 |    102504    |   133501
        8  | 29:40.02 |  4:54.08 |    133502    |   155559

Range status and errors

Selected range

     Filename C:\Users\Meijin\Desktop\Lossless Galaxy ALLexxess\Mamas & Papas\1970 Historic Performances (Mini LP SHM-CD USM Japan 2013)\The Mamas & The Papas - Historic Performances.wav

     Peak level 100.0 %
     Extraction speed 6.5 X
     Range quality 100.0 %
     Test CRC 75504D77
     Copy CRC 75504D77
     Copy OK

No errors occurred

AccurateRip summary

Track  1  not present in database
Track  2  not present in database
Track  3  not present in database
Track  4  not present in database
Track  5  not present in database
Track  6  not present in database
Track  7  not present in database
Track  8  not present in database

None of the tracks are present in the AccurateRip database

End of status report

==== Log checksum 23253BC8142EF5882479DEA0E36637F021265E2F4E45D9FCD2FAA4BCC0F96A28 ====
Код:
Код:
-----------------------

DON'T MODIFY THIS FILE

-----------------------

PERFORMER: auCDtect Task Manager, ver. 1.5.1RC3 build 1.5.1.4
Copyright (c) 2008-2010 y-soft. All rights reserved
http:/y-soft.org

ANALYZER: auCDtect: CD records authenticity detector, version 0.8.2
Copyright (c) 2004 Oleg Berngardt. All rights reserved.
Copyright (c) 2004 Alexander Djourik. All rights reserved.

FILE: The Mamas & The Papas - Historic Performances.wav
  Size: 365877164 Hash: 3697FF7748A93BD77AB1744470BB605D Accuracy: -m8
  Conclusion: CDDA 100%
  Signature: 534635F62020B2593F60D712CF1C75BAD5FF727F
FILE: The Mamas & The Papas - Historic Performances.flac
  Size: 214046780 Hash: 3697FF7748A93BD77AB1744470BB605D Accuracy: -m8
  Conclusion: CDDA 100%
  Signature: F2FA3EEF767FB91FBC15C870CCD524D3AFE89539
#777
Продолжительноcть:
00:36:26
Трек лист:

01. People Like Us
02. Pacific Coast Highway
03. Snowqueen Of Texas
04. Shooting Star
05. Step Out
06. Lady Genevieve
07. No Dough
08. European Blueboy
09. Pearl
10. I Wanna Be A Star
11. Grasshopper
12. Blueberries For Breakfast
Код:
Код:
Exact Audio Copy V1.0 beta 3 from 29. August 2011

EAC extraction logfile from 5. January 2014, 13:13

The Mamas & The Papas / People Like Us

Used drive  : PLEXTOR BD-R  PX-B950SA   Adapter: 6  ID: 0

Read mode               : Secure
Utilize accurate stream : Yes
Defeat audio cache      : Yes
Make use of C2 pointers : No

Read offset correction                      : 6
Overread into Lead-In and Lead-Out          : No
Fill up missing offset samples with silence : Yes
Delete leading and trailing silent blocks   : No
Null samples used in CRC calculations       : Yes
Used interface                              : Native Win32 interface for Win NT & 2000

Used output format : Internal WAV Routines
Sample format      : 44.100 Hz; 16 Bit; Stereo

TOC of the extracted CD

     Track |   Start  |  Length  | Start sector | End sector
    ---------------------------------------------------------
        1  |  0:00.00 |  3:27.09 |         0    |    15533
        2  |  3:27.09 |  3:05.46 |     15534    |    29454
        3  |  6:32.55 |  2:38.33 |     29455    |    41337
        4  |  9:11.13 |  2:54.23 |     41338    |    54410
        5  | 12:05.36 |  3:03.50 |     54411    |    68185
        6  | 15:09.11 |  3:49.24 |     68186    |    85384
        7  | 18:58.35 |  3:05.61 |     85385    |    99320
        8  | 22:04.21 |  3:39.59 |     99321    |   115804
        9  | 25:44.05 |  2:24.43 |    115805    |   126647
       10  | 28:08.48 |  2:17.68 |    126648    |   136990
       11  | 30:26.41 |  2:57.27 |    136991    |   150292
       12  | 33:23.68 |  3:02.47 |    150293    |   163989

Range status and errors

Selected range

     Filename C:\Users\Meijin\Desktop\Lossless Galaxy ALLexxess\Mamas & Papas\1971 People Like Us (Mini LP SHM-CD USM Japan 2013)\The Mamas & The Papas - People Like Us.wav

     Peak level 100.0 %
     Extraction speed 6.4 X
     Range quality 99.9 %
     Test CRC 0F96D025
     Copy CRC 0F96D025
     Copy OK

No errors occurred

AccurateRip summary

Track  1  accurately ripped (confidence 1)  [76C2776A]  (AR v2)
Track  2  accurately ripped (confidence 1)  [70AF5EA1]  (AR v2)
Track  3  accurately ripped (confidence 1)  [215256D8]  (AR v2)
Track  4  accurately ripped (confidence 1)  [A12CB162]  (AR v2)
Track  5  accurately ripped (confidence 1)  [0A17F334]  (AR v2)
Track  6  accurately ripped (confidence 1)  [7C3D4B69]  (AR v2)
Track  7  accurately ripped (confidence 1)  [64659F28]  (AR v2)
Track  8  accurately ripped (confidence 1)  [C89DC94C]  (AR v2)
Track  9  accurately ripped (confidence 1)  [6DAA3B67]  (AR v2)
Track 10  accurately ripped (confidence 1)  [AFAD1CD6]  (AR v2)
Track 11  accurately ripped (confidence 1)  [EFEE2247]  (AR v2)
Track 12  accurately ripped (confidence 1)  [1F3AA5B5]  (AR v2)

All tracks accurately ripped

End of status report

==== Log checksum 13E89222E716FAF1A37838AED3ECAFCB39E31AE14CB63A5266FBDCC19888879B ====
Код:
Код:
-----------------------

DON'T MODIFY THIS FILE

-----------------------

PERFORMER: auCDtect Task Manager, ver. 1.5.1RC3 build 1.5.1.4
Copyright (c) 2008-2010 y-soft. All rights reserved
http:/y-soft.org

ANALYZER: auCDtect: CD records authenticity detector, version 0.8.2
Copyright (c) 2004 Oleg Berngardt. All rights reserved.
Copyright (c) 2004 Alexander Djourik. All rights reserved.

FILE: The Mamas & The Papas - People Like Us.wav
  Size: 385704524 Hash: D554EA064CFBBF3E6F7EA04CB5176746 Accuracy: -m8
  Conclusion: CDDA 100%
  Signature: A21629C7819212CA3978FBDDCBE90EEF9FC7CDB4
FILE: The Mamas & The Papas - People Like Us.flac
  Size: 225064796 Hash: D554EA064CFBBF3E6F7EA04CB5176746 Accuracy: -m8
  Conclusion: CDDA 100%
  Signature: E7ECE8D02EE2770ABE9729A42C6F81263A8D34E7
Правила, инструкции, FAQ!!!
Торрент  Добавлен [16 мар 2014, 00:01] Скачать торрент Магнет ссылка
Скачать торрент
[ Размер 27.47 КБ / Просмотров 60 ]

Статус  
 
Размер  2.32 ГБ
Приватный: Нет (DHT включён)
.torrent скачан  3
 


     Отправить личное сообщение
   
Страница 1 из 1
Показать сообщения за:  Поле сортировки  
Начать новую тему Ответить на тему


Сейчас этот форум просматривают: нет зарегистрированных пользователей и гости: 0


Вы не можете начинать темы
Вы не можете отвечать на сообщения
Вы не можете редактировать свои сообщения
Вы не можете удалять свои сообщения
Вы не можете добавлять вложения

Перейти:  
cron