Начать новую тему Ответить на тему
Статистика раздачи
Размер: 697.25 МБ | Добавлен: 16 мар 2014, 00:55 | Скачали: 2
Сидеров: 1  [0 байт/сек]    Личеров: 0  [0 байт/сек]
Пред. тема | След. тема 

Автор
Сообщение

СообщениеДобавлено: 16 мар 2014, 00:55 

Ответить с цитатой 


The Letter Black
- 2 Альбома





Год выпуска: 2010-2013
Жанр: Alt. Metal | Alt. Rock | Female Vocal
Продолжительность: 01:23:45
Тип издания: Дискография
Страна: USA



Треклист:

01. Fire With Fire
02. Invisible
03. Hanging On By A Thread
04. Believe
05. There'll Come A Day
06. My Disease
07. I'm Just Fine
08. Best Of Me
09. All I Wan't
10. Moving On
11. More To This
12. Care Too Much
13. Wounded

Продолжительность: 00:43:33

Код:
Код:
Exact Audio Copy V0.99 prebeta 5 from 4. May 2009
EAC extraction logfile from 3. May 2010, 20:41
The Letter Black / Hanging On By A Thread
Used drive  : ATAPI   iHAS124   Y   Adapter: 1  ID: 1
Read mode               : Secure
Utilize accurate stream : Yes
Defeat audio cache      : Yes
Make use of C2 pointers : No
Read offset correction                      : 48
Overread into Lead-In and Lead-Out          : No
Fill up missing offset samples with silence : Yes
Delete leading and trailing silent blocks   : No
Null samples used in CRC calculations       : Yes
Used interface                              : Native Win32 interface for Win NT & 2000
Gap handling                                : Appended to previous track
Used output format              : User Defined Encoder
Selected bitrate                : 768 kBit/s
Quality                         : High
Add ID3 tag                     : No
Command line compressor         : C:\Program Files (x86)\Exact Audio Copy\Flac\flac.exe
Additional command line options : -6 -V -T "ARTIST=%a" -T "TITLE=%t" -T "ALBUM=%g" -T "DATE=%y" -T "TRACKNUMBER=%n" -T "GENRE=%m" -T "COMMENT=%e" %s -o %d
TOC of the extracted CD
     Track |   Start  |  Length  | Start sector | End sector
    ---------------------------------------------------------
        1  |  0:00.00 |  3:05.58 |         0    |    13932
        2  |  3:05.58 |  3:20.22 |     13933    |    28954
        3  |  6:26.05 |  3:03.11 |     28955    |    42690
        4  |  9:29.16 |  4:01.37 |     42691    |    60802
        5  | 13:30.53 |  3:23.16 |     60803    |    76043
        6  | 16:53.69 |  2:55.57 |     76044    |    89225
        7  | 19:49.51 |  2:50.34 |     89226    |   102009
        8  | 22:40.10 |  3:45.51 |    102010    |   118935
        9  | 26:25.61 |  3:20.60 |    118936    |   133995
       10  | 29:46.46 |  3:38.69 |    133996    |   150414
       11  | 33:25.40 |  4:21.05 |    150415    |   169994
       12  | 37:46.45 |  3:21.68 |    169995    |   185137
       13  | 41:08.38 |  3:25.25 |    185138    |   200537
Track  1
     Filename C:\To upload\The Letter Black - 2010 - Hanging On By A Thread\01 - Fire With Fire.wav
     Pre-gap length  0:00:02.00
     Peak level 99.8 %
     Track quality 100.0 %
     Test CRC A3EFCC67
     Copy CRC A3EFCC67
     Track not present in AccurateRip database
     Copy OK
Track  2
     Filename C:\To upload\The Letter Black - 2010 - Hanging On By A Thread\02 - Invisible.wav
     Peak level 99.7 %
     Track quality 100.0 %
     Test CRC D7430D37
     Copy CRC D7430D37
     Track not present in AccurateRip database
     Copy OK
Track  3
     Filename C:\To upload\The Letter Black - 2010 - Hanging On By A Thread\03 - Hanging On By A Thread.wav
     Peak level 99.8 %
     Track quality 100.0 %
     Test CRC 0CEA2B6A
     Copy CRC 0CEA2B6A
     Track not present in AccurateRip database
     Copy OK
Track  4
     Filename C:\To upload\The Letter Black - 2010 - Hanging On By A Thread\04 - Believe.wav
     Peak level 99.8 %
     Track quality 100.0 %
     Test CRC 5A3E4D62
     Copy CRC 5A3E4D62
     Track not present in AccurateRip database
     Copy OK
Track  5
     Filename C:\To upload\The Letter Black - 2010 - Hanging On By A Thread\05 - There'll Come A Day.wav
     Peak level 99.7 %
     Track quality 99.9 %
     Test CRC 7E0E763B
     Copy CRC 7E0E763B
     Track not present in AccurateRip database
     Copy OK
Track  6
     Filename C:\To upload\The Letter Black - 2010 - Hanging On By A Thread\06 - My Disease.wav
     Peak level 99.7 %
     Track quality 100.0 %
     Test CRC ACC3866F
     Copy CRC ACC3866F
     Track not present in AccurateRip database
     Copy OK
Track  7
     Filename C:\To upload\The Letter Black - 2010 - Hanging On By A Thread\07 - I'm Just Fine.wav
     Peak level 99.8 %
     Track quality 100.0 %
     Test CRC 1324FFC5
     Copy CRC 1324FFC5
     Track not present in AccurateRip database
     Copy OK
Track  8
     Filename C:\To upload\The Letter Black - 2010 - Hanging On By A Thread\08 - Best Of Me.wav
     Peak level 99.7 %
     Track quality 100.0 %
     Test CRC 06604CA4
     Copy CRC 06604CA4
     Track not present in AccurateRip database
     Copy OK
Track  9
     Filename C:\To upload\The Letter Black - 2010 - Hanging On By A Thread\09 - All I Wan't.wav
     Peak level 99.8 %
     Track quality 100.0 %
     Test CRC 7D56D529
     Copy CRC 7D56D529
     Track not present in AccurateRip database
     Copy OK
Track 10
     Filename C:\To upload\The Letter Black - 2010 - Hanging On By A Thread\10 - Moving On.wav
     Peak level 99.8 %
     Track quality 100.0 %
     Test CRC 0B3015C7
     Copy CRC 0B3015C7
     Track not present in AccurateRip database
     Copy OK
Track 11
     Filename C:\To upload\The Letter Black - 2010 - Hanging On By A Thread\11 - More To This.wav
     Peak level 99.8 %
     Track quality 100.0 %
     Test CRC C1CCC159
     Copy CRC C1CCC159
     Track not present in AccurateRip database
     Copy OK
Track 12
     Filename C:\To upload\The Letter Black - 2010 - Hanging On By A Thread\12 - Care Too Much.wav
     Peak level 99.8 %
     Track quality 99.9 %
     Test CRC 96C074B9
     Copy CRC 96C074B9
     Track not present in AccurateRip database
     Copy OK
Track 13
     Filename C:\To upload\The Letter Black - 2010 - Hanging On By A Thread\13 - Wounded.wav
     Peak level 99.8 %
     Track quality 100.0 %
     Test CRC ADD8F952
     Copy CRC ADD8F952
     Track not present in AccurateRip database
     Copy OK
None of the tracks are present in the AccurateRip database
No errors occurred
End of status report

Код:
Код:
-----------------------

DON'T MODIFY THIS FILE

-----------------------

PERFORMER: auCDtect Task Manager, ver. 1.6.0 RC1 build 1.6.0.1
Copyright (c) 2008-2010 y-soft. All rights reserved
http:/y-soft.org

ANALYZER: auCDtect: CD records authenticity detector, version 0.8.2
Copyright (c) 2004 Oleg Berngardt. All rights reserved.
Copyright (c) 2004 Alexander Djourik. All rights reserved.

FILE: 13. The Letter Black - Wounded.flac
  Size: 26753294 Hash: 6861C638F7C12727E204705FADA0A18A Accuracy: -m0
  Conclusion: CDDA 100%
  Signature: 64CD0B971D20892F52AC2D7433F0496E76431334
FILE: 12. The Letter Black - Care Too Much.flac
  Size: 27639461 Hash: AB077B7154B31591EC93F58AEC133A84 Accuracy: -m0
  Conclusion: CDDA 100%
  Signature: 0EB96D2555FEFE614AAB00F1376D38546DA5239F
FILE: 11. The Letter Black - More To This.flac
  Size: 33634649 Hash: AA00C923EB909AE5EF1FF2FCABE552E7 Accuracy: -m0
  Conclusion: CDDA 100%
  Signature: DE6EDD4E7F3ADCB4777CDAB119702B1164F09F15
FILE: 10. The Letter Black - Moving On.flac
  Size: 28312253 Hash: 9D5A22E54786043F003D84CE71D2D500 Accuracy: -m0
  Conclusion: CDDA 100%
  Signature: 5662FBAC4EF9C648561ED17AA8C949820C946D79
FILE: 09. The Letter Black - All I Wan't.flac
  Size: 28214237 Hash: 538A20EB95E77E84D2F722B17FB77449 Accuracy: -m0
  Conclusion: CDDA 100%
  Signature: 4A2E33ADAC090EC5CD5520F5B8E39FC1DDCB62F3
FILE: 08. The Letter Black - Best Of Me.flac
  Size: 30223927 Hash: FDEE24CA1E4310C552DF2BEA8C963F16 Accuracy: -m0
  Conclusion: CDDA 99%
  Signature: B84A018BA230FFA81A7CEBD5473C9347BE7E1B8A
FILE: 07. The Letter Black - I'm Just Fine.flac
  Size: 23171756 Hash: 4F2E0B7D2E8502054C8340F463209BB7 Accuracy: -m0
  Conclusion: CDDA 100%
  Signature: D894F32F59B63ED01DFDF72D7D10EE623AC83762
FILE: 06. The Letter Black - My Disease.flac
  Size: 23132584 Hash: 415094E3F97F13687823F7BE1AD4E606 Accuracy: -m0
  Conclusion: CDDA 100%
  Signature: A24C5ABD7F19356CA46EBE68226013ABDBC7BCE1
FILE: 05. The Letter Black - There'll Come A Day.flac
  Size: 27089227 Hash: 8719596538F57CDDF6C2F71A1C7BCBA7 Accuracy: -m0
  Conclusion: CDDA 100%
  Signature: 2A459FC88E6BFA50A700B4432C5263FD6CC54939
FILE: 04. The Letter Black - Believe.flac
  Size: 32693732 Hash: 8FF829F0A97DD10B6688E7D08421C87E Accuracy: -m0
  Conclusion: CDDA 100%
  Signature: C2519D5D5D8D34F6352DB7503C8F3EF118CA8EE1
FILE: 03. The Letter Black - Hanging On By A Thread.flac
  Size: 25509719 Hash: 3B8C61005CC0ECF07F57F7FDDDF712C9 Accuracy: -m0
  Conclusion: CDDA 100%
  Signature: BE61C31B000D485C08B7887DFDBA0A1125B4654E
FILE: 02. The Letter Black - Invisible.flac
  Size: 26747797 Hash: F53470F548D1A781AD3C532AB22CA932 Accuracy: -m0
  Conclusion: CDDA 100%
  Signature: 87995ECED4CCA39F9F5948706E4F45C74CB94D5E
FILE: 01. The Letter Black - Fire With Fire.flac
  Size: 25133589 Hash: 87EE74F9A331659E854A9F28F7B600B7 Accuracy: -m0
  Conclusion: CDDA 100%
  Signature: 6AC2B794C46789132DC70FAD08FF36907B56CB6E


#777Треклист:

01. Sick Charade
02. Break Out
03. Pain Killer
04. Found
05. Up From The Ashes
06. Outside Looking In
07. Rebuild
08. Smothering Walls
09. Shattered
10. Devil On Your Back
11. Branded

Продолжительность: 00:39:11



Код:
Код:
-----------------------

DON'T MODIFY THIS FILE

-----------------------

PERFORMER: auCDtect Task Manager, ver. 1.6.0 RC1 build 1.6.0.1
Copyright (c) 2008-2010 y-soft. All rights reserved
http:/y-soft.org

ANALYZER: auCDtect: CD records authenticity detector, version 0.8.2
Copyright (c) 2004 Oleg Berngardt. All rights reserved.
Copyright (c) 2004 Alexander Djourik. All rights reserved.

FILE: 11. The Letter Black - Branded.flac
  Size: 25644880 Hash: 4C7B736FE45E4D2BE6271B33686DE395 Accuracy: -m0
  Conclusion: CDDA 100%
  Signature: 299B68C8B70F5066E5309F6BC3019B637F4B36F5
FILE: 10. The Letter Black - Devil On Your Back.flac
  Size: 27088444 Hash: BC731EBA72C7B86949F4CC9C02F619FA Accuracy: -m0
  Conclusion: CDDA 100%
  Signature: AA9BDF02D79D0B066959400C46264866A40ECC0C
FILE: 09. The Letter Black - Shattered.flac
  Size: 24557912 Hash: D7B8B93C49B695D809EE9E622C0B3567 Accuracy: -m0
  Conclusion: MPEG 95%
  Signature: 724F3B749AD74391A0FA449DA99C214EFCF48FE3
FILE: 08. The Letter Black - Smothering Walls.flac
  Size: 25366012 Hash: BB02B4EB27EB5AF8A62C7D25444EBE41 Accuracy: -m0
  Conclusion: CDDA 100%
  Signature: C975ABD306EC0A457E8F811419BE7C34577CC1CA
FILE: 07. The Letter Black - Rebuild.flac
  Size: 28859159 Hash: BA341EAD2B5163D1F21D103BEC741EAD Accuracy: -m0
  Conclusion: CDDA 100%
  Signature: C41A05663F5BC5BF42BF1B374AED787D11CA81A0
FILE: 06. The Letter Black - Outside Looking In.flac
  Size: 32173896 Hash: 00083CBBAFCE2B526247E5E6FCAA2D89 Accuracy: -m0
  Conclusion: CDDA 100%
  Signature: 21DCC4007204D98296EE46B199C6838E2EFF07E9
FILE: 05. The Letter Black - Up From The Ashes.flac
  Size: 30777610 Hash: AB67B7CABE0C1DD745A3AC131B5756AB Accuracy: -m0
  Conclusion: CDDA 100%
  Signature: CA24AB0F856DED9D53DFDA0E01D265954DC51EAF
FILE: 04. The Letter Black - Found.flac
  Size: 31466435 Hash: B4BD08D1D3FEC1B5A4838AF14B8BFB18 Accuracy: -m0
  Conclusion: CDDA 100%
  Signature: 0ADD4BB454FD8AFA84623A151956C4F89DD74F35
FILE: 03. The Letter Black - Pain Killer.flac
  Size: 26811875 Hash: CD8277BE5322A2CF97AD548DDF9EF401 Accuracy: -m0
  Conclusion: CDDA 100%
  Signature: E9DD0C1B910F83C085B6C7961620FDD571E52813
FILE: 02. The Letter Black - Break Out.flac
  Size: 27386140 Hash: 067F1E212AFB2C7DF3D7817394CF79D9 Accuracy: -m0
  Conclusion: CDDA 99%
  Signature: 8F4DBB0A7D8DF8BD2197FE9CFA8E2212C7E64B11
FILE: 01. The Letter Black - Sick Charade.flac
  Size: 26104104 Hash: 7C2D6440342D929FEAE10FBD44231F3F Accuracy: -m0
  Conclusion: CDDA 99%
  Signature: F97348A2589599F4FC984D2E03C6A04C495169B6




Тип рипа: Tracks+.cue
Аудиокодек: FLAC
Битрейт аудио: lossless
Правила, инструкции, FAQ!!!
Торрент  Добавлен [16 мар 2014, 00:55] Скачать торрент Магнет ссылка
Скачать торрент
[ Размер 17.39 КБ / Просмотров 41 ]

Статус  
 
Размер  697.25 МБ
Приватный: Нет (DHT включён)
.torrent скачан  2
 


     Отправить личное сообщение
   
Страница 1 из 1
Показать сообщения за:  Поле сортировки  
Начать новую тему Ответить на тему


Сейчас этот форум просматривают: нет зарегистрированных пользователей и гости: 0


Вы не можете начинать темы
Вы не можете отвечать на сообщения
Вы не можете редактировать свои сообщения
Вы не можете удалять свои сообщения
Вы не можете добавлять вложения

Перейти:  
cron