Начать новую тему Ответить на тему
Статистика раздачи
Размер: 545.42 МБ | Добавлен: 16 мар 2014, 00:46 | Скачали: 3
Сидеров: 5  [0 байт/сек]    Личеров: 2  [0 байт/сек]
Пред. тема | След. тема 

Автор
Сообщение

СообщениеДобавлено: 16 мар 2014, 00:46 

Ответить с цитатой 


The Killers - Direct Hits (2013) Deluxe Edition

Год: 2013 (2003-2013)
Жанр: Indie Rock, Brit Pop
Продолжительность: 01:16:24
Тип рипа: tracks + cue
Кодек: FLAC
Битрейт: Lossless
Страна: USA
Издатель: Island Records
Номер по каталогу: B0019323-10
Наличие сканов: нет
Источник: stark


Треклист:
01. Mr. Brightside (3:44)
02. Somebody Told Me (3:18)
03. Smile Like You Mean It (3:57)
04. All These Things That I've Done (5:03)
05. When You Were Young (3:40)
06. Read My Mind (4:07)
07. For Reasons Unknown (3:33)
08. Human (4:05)
09. Spaceman (4:45)
10. A Dustland Fairytale (3:45)
11. Runaways (4:05)
12. Miss Atomic Bomb (4:55)
13. The Way It Was (3:52)
14. Shot At The Night (4:03)
15. Just Another Girl (4:22)
16. Mr. Brightside (Original Demo) (4:23)
17. When You Were Young (Calvin Harris Remix) (6:13)
18. Be Still (4:33)
Код:
Код:
Exact Audio Copy V1.0 beta 3 from 29. August 2011

EAC extraction logfile from 21. November 2013, 17:03

The Killers / Direct Hits

Used drive  : ASUS    DRW-22B2ST   Adapter: 1  ID: 1

Read mode               : Secure
Utilize accurate stream : Yes
Defeat audio cache      : Yes
Make use of C2 pointers : No

Read offset correction                      : 6
Overread into Lead-In and Lead-Out          : No
Fill up missing offset samples with silence : Yes
Delete leading and trailing silent blocks   : No
Null samples used in CRC calculations       : Yes
Used interface                              : Native Win32 interface for Win NT & 2000
Gap handling                                : Appended to previous track

Used output format              : User Defined Encoder
Selected bitrate                : 1024 kBit/s
Quality                         : High
Add ID3 tag                     : Yes
Command line compressor         : C:\Program Files\Exact Audio Copy\Flac\flac.exe
Additional command line options : -8 -V -T "ARTIST=%artist%" -T "TITLE=%title%" -T "ALBUM=%albumtitle%" -T "DATE=%year%" -T "TRACKNUMBER=%tracknr%" -T "GENRE=%genre%" -T "PERFORMER=%albuminterpret%" -T "COMPOSER=%composer%" %haslyrics%--tag-from-file=LYRICS="%lyricsfile%"%haslyrics% -T "ALBUMARTIST=%albumartist%" -T "DISCNUMBER=%cdnumber%" -T "TOTALDISCS=%totalcds%" -T "TOTALTRACKS=%numtracks%" -T "COMMENT=%comment%" %source% -o %dest%

TOC of the extracted CD

     Track |   Start  |  Length  | Start sector | End sector
    ---------------------------------------------------------
        1  |  0:00.00 |  3:43.73 |         0    |    16797
        2  |  3:43.73 |  3:18.14 |     16798    |    31661
        3  |  7:02.12 |  3:57.13 |     31662    |    49449
        4  | 10:59.25 |  5:03.16 |     49450    |    72190
        5  | 16:02.41 |  3:40.31 |     72191    |    88721
        6  | 19:42.72 |  4:06.60 |     88722    |   107231
        7  | 23:49.57 |  3:33.21 |    107232    |   123227
        8  | 27:23.03 |  4:05.24 |    123228    |   141626
        9  | 31:28.27 |  4:45.26 |    141627    |   163027
       10  | 36:13.53 |  3:45.10 |    163028    |   179912
       11  | 39:58.63 |  4:05.12 |    179913    |   198299
       12  | 44:04.00 |  4:54.57 |    198300    |   220406
       13  | 48:58.57 |  3:52.23 |    220407    |   237829
       14  | 52:51.05 |  4:02.38 |    237830    |   256017
       15  | 56:53.43 |  4:22.00 |    256018    |   275667
       16  | 61:15.43 |  4:22.42 |    275668    |   295359
       17  | 65:38.10 |  6:12.60 |    295360    |   323319
       18  | 71:50.70 |  4:33.19 |    323320    |   343813

Track  1

     Filename D:\WHATCD\The Killers\2013 - Direct Hits\01 - Mr. Brightside.wav

     Pre-gap length  0:00:02.00

     Peak level 89.4 %
     Extraction speed 3.7 X
     Track quality 100.0 %
     Test CRC 56C92E6D
     Copy CRC 56C92E6D
     Track not present in AccurateRip database
     Copy OK

Track  2

     Filename D:\WHATCD\The Killers\2013 - Direct Hits\02 - Somebody Told Me.wav

     Peak level 98.8 %
     Extraction speed 3.1 X
     Track quality 99.9 %
     Test CRC FBC6AE85
     Copy CRC FBC6AE85
     Track not present in AccurateRip database
     Copy OK

Track  3

     Filename D:\WHATCD\The Killers\2013 - Direct Hits\03 - Smile Like You Mean It.wav

     Peak level 91.1 %
     Extraction speed 4.4 X
     Track quality 100.0 %
     Test CRC AA3D1295
     Copy CRC AA3D1295
     Track not present in AccurateRip database
     Copy OK

Track  4

     Filename D:\WHATCD\The Killers\2013 - Direct Hits\04 - All These Things That I've Done.wav

     Peak level 98.8 %
     Extraction speed 4.9 X
     Track quality 100.0 %
     Test CRC 56B7590E
     Copy CRC 56B7590E
     Track not present in AccurateRip database
     Copy OK

Track  5

     Filename D:\WHATCD\The Killers\2013 - Direct Hits\05 - When You Were Young.wav

     Peak level 98.8 %
     Extraction speed 4.0 X
     Track quality 99.9 %
     Test CRC C7F80D65
     Copy CRC C7F80D65
     Track not present in AccurateRip database
     Copy OK

Track  6

     Filename D:\WHATCD\The Killers\2013 - Direct Hits\06 - Read My Mind.wav

     Peak level 97.7 %
     Extraction speed 5.3 X
     Track quality 100.0 %
     Test CRC D5370000
     Copy CRC D5370000
     Track not present in AccurateRip database
     Copy OK

Track  7

     Filename D:\WHATCD\The Killers\2013 - Direct Hits\07 - For Reasons Unknown.wav

     Peak level 98.4 %
     Extraction speed 5.3 X
     Track quality 100.0 %
     Test CRC 4737D6AE
     Copy CRC 4737D6AE
     Track not present in AccurateRip database
     Copy OK

Track  8

     Filename D:\WHATCD\The Killers\2013 - Direct Hits\08 - Human.wav

     Peak level 98.4 %
     Extraction speed 4.7 X
     Track quality 99.9 %
     Test CRC C8F61DDD
     Copy CRC C8F61DDD
     Track not present in AccurateRip database
     Copy OK

Track  9

     Filename D:\WHATCD\The Killers\2013 - Direct Hits\09 - Spaceman.wav

     Peak level 97.6 %
     Extraction speed 6.1 X
     Track quality 100.0 %
     Test CRC D901B67E
     Copy CRC D901B67E
     Track not present in AccurateRip database
     Copy OK

Track 10

     Filename D:\WHATCD\The Killers\2013 - Direct Hits\10 - A Dustland Fairytale.wav

     Peak level 99.9 %
     Extraction speed 6.1 X
     Track quality 100.0 %
     Test CRC 624338E6
     Copy CRC 624338E6
     Track not present in AccurateRip database
     Copy OK

Track 11

     Filename D:\WHATCD\The Killers\2013 - Direct Hits\11 - Runaways.wav

     Peak level 100.0 %
     Extraction speed 6.4 X
     Track quality 100.0 %
     Test CRC 3A37EBCA
     Copy CRC 3A37EBCA
     Track not present in AccurateRip database
     Copy OK

Track 12

     Filename D:\WHATCD\The Killers\2013 - Direct Hits\12 - Miss Atomic Bomb.wav

     Peak level 100.0 %
     Extraction speed 6.7 X
     Track quality 100.0 %
     Test CRC 10A25DBA
     Copy CRC 10A25DBA
     Track not present in AccurateRip database
     Copy OK

Track 13

     Filename D:\WHATCD\The Killers\2013 - Direct Hits\13 - The Way It Was.wav

     Peak level 100.0 %
     Extraction speed 6.8 X
     Track quality 100.0 %
     Test CRC 984B8708
     Copy CRC 984B8708
     Track not present in AccurateRip database
     Copy OK

Track 14

     Filename D:\WHATCD\The Killers\2013 - Direct Hits\14 - Shot At The Night.wav

     Peak level 100.0 %
     Extraction speed 7.0 X
     Track quality 100.0 %
     Test CRC DDF6AC78
     Copy CRC DDF6AC78
     Track not present in AccurateRip database
     Copy OK

Track 15

     Filename D:\WHATCD\The Killers\2013 - Direct Hits\15 - Just Another Girl.wav

     Peak level 100.0 %
     Extraction speed 7.3 X
     Track quality 100.0 %
     Test CRC 4F7B8853
     Copy CRC 4F7B8853
     Track not present in AccurateRip database
     Copy OK

Track 16

     Filename D:\WHATCD\The Killers\2013 - Direct Hits\16 - Mr. Brightside (Original Demo).wav

     Peak level 98.8 %
     Extraction speed 7.3 X
     Track quality 100.0 %
     Test CRC 2F04C045
     Copy CRC 2F04C045
     Track not present in AccurateRip database
     Copy OK

Track 17

     Filename D:\WHATCD\The Killers\2013 - Direct Hits\17 - When You Were Young (Calvin Harris Remix).wav

     Peak level 94.4 %
     Extraction speed 2.1 X
     Track quality 99.9 %
     Test CRC 3C882A9F
     Copy CRC 3C882A9F
     Track not present in AccurateRip database
     Copy OK

Track 18

     Filename D:\WHATCD\The Killers\2013 - Direct Hits\18 - Be Still.wav

     Peak level 98.4 %
     Extraction speed 6.5 X
     Track quality 99.9 %
     Test CRC D48CA8A2
     Copy CRC D48CA8A2
     Track not present in AccurateRip database
     Copy OK

None of the tracks are present in the AccurateRip database

No errors occurred

End of status report

==== Log checksum C560D81058C220D118778EF7E370906F73A3F38B4B2326341D4D9678B48973F0 ====
Код:
Код:
-----------------------

DON'T MODIFY THIS FILE

-----------------------

PERFORMER: auCDtect Task Manager, ver. 1.5.1RC4 build 1.5.1.5
Copyright (c) 2008-2010 y-soft. All rights reserved
http:/y-soft.org

ANALYZER: auCDtect: CD records authenticity detector, version 0.8.2
Copyright (c) 2004 Oleg Berngardt. All rights reserved.
Copyright (c) 2004 Alexander Djourik. All rights reserved.

FILE: 16 - Mr. Brightside (Original Demo).flac
  Size: 34102153 Hash: 4A498B5349AF3B42E811CF8622FB274C Accuracy: -m0
  Conclusion: MPEG 100%
  Signature: EF686E21588ABB90D17D79E3B6A287C5E89DC0FA
FILE: 15 - Just Another Girl.flac
  Size: 32283644 Hash: 32DB90F4571DA1D53C25A6A27FA9D2F7 Accuracy: -m0
  Conclusion: CDDA 100%
  Signature: 7F216FAE9C3DAEFD0DE49271296979A0AD3C6688
FILE: 14 - Shot At The Night.flac
  Size: 28841713 Hash: 1D811DD6C5203C93AEDD8714C5C4A77F Accuracy: -m0
  Conclusion: CDDA 100%
  Signature: 47991CC6FD2D04F57B6670DFCE118C83E380F70D
FILE: 13 - The Way It Was.flac
  Size: 27572849 Hash: 9D438BBEDD75B080C63690DE203AF9A8 Accuracy: -m0
  Conclusion: CDDA 100%
  Signature: 1D2E572814C0E9B3174A475D11DA731BBBC5C4AE
FILE: 12 - Miss Atomic Bomb.flac
  Size: 33376822 Hash: 3031CE5624DA8169020A0E41FC50956D Accuracy: -m0
  Conclusion: CDDA 100%
  Signature: 1E3100F407F05ACD4420F7F0D73C695398EC908A
FILE: 11 - Runaways.flac
  Size: 30089926 Hash: D8A0770F119F0B5D881C71C070AC6180 Accuracy: -m0
  Conclusion: CDDA 100%
  Signature: 6514F163BEDD31EC0D673C8D04CB6EA91998AC62
FILE: 10 - A Dustland Fairytale.flac
  Size: 25869817 Hash: B6F080D38756B9AF016463C8B0D2D68C Accuracy: -m0
  Conclusion: CDDA 100%
  Signature: 93041DA3C2DBDF523ADE8C68AF6387087F31FB60
FILE: 09 - Spaceman.flac
  Size: 35160363 Hash: FE56B57EB18DFF3BCF8B6DB0701678ED Accuracy: -m0
  Conclusion: CDDA 100%
  Signature: 51A2B2DD1428956AEF354601577AD8B69063284B
FILE: 08 - Human.flac
  Size: 29804685 Hash: 1B367F14BA07740AACFC76CABB753758 Accuracy: -m0
  Conclusion: CDDA 100%
  Signature: FDBC427C22B35C3E8A26F3FC7A8765133F19EBC6
FILE: 07 - For Reasons Unknown.flac
  Size: 29093681 Hash: D2885C73554FAC4F19FB20FC6949DB7C Accuracy: -m0
  Conclusion: CDDA 100%
  Signature: 72B9D6E8304E84E4FA3FD6E447B1270CAD304B7D
FILE: 06 - Read My Mind.flac
  Size: 32776070 Hash: 450B88EAD628E90D27EF3C68979775D6 Accuracy: -m0
  Conclusion: CDDA 100%
  Signature: 949658C6CC4BB071DC3522E8B4FC862CA9251305
FILE: 05 - When You Were Young.flac
  Size: 28707738 Hash: A7B4F0F13E171597F001C1BD1B53AF4B Accuracy: -m0
  Conclusion: CDDA 99%
  Signature: 75637BF14060D7BEFAF62C9CE7F76BE0CE316EEA
FILE: 04 - All These Things That I've Done.flac
  Size: 35705632 Hash: 9C4316BAEC7014157BE2153135FC9722 Accuracy: -m0
  Conclusion: CDDA 100%
  Signature: 52D52B62358E0C807013CC07DB62E3C704BCDD43
FILE: 03 - Smile Like You Mean It.flac
  Size: 31295025 Hash: CF364CCADC50DF7B9EBF4EE7E0B1D1EF Accuracy: -m0
  Conclusion: CDDA 100%
  Signature: 17E722CB2F694915E6F207520A0014363F58FCEE
FILE: 02 - Somebody Told Me.flac
  Size: 26491932 Hash: 9F2FC398A3BD746EED4F1BF37B90A056 Accuracy: -m0
  Conclusion: CDDA 99%
  Signature: FFAA4A3EA3C508423E633A383994EE55B38B9F28
FILE: 01 - Mr. Brightside.flac
  Size: 31148468 Hash: BC19E59AF6BEE13B1E4F5949904D8AAF Accuracy: -m0
  Conclusion: CDDA 100%
  Signature: F593D2F7B552103379B8CFC49E24A7303AAFF228
FILE: 18 - Be Still.flac
  Size: 27286275 Hash: 43A476CB6AD416A3650861A511222CF0 Accuracy: -m0
  Conclusion: CDDA 100%
  Signature: 4FD352EB8C13941B7C8E0913608A264EE822E708
FILE: 17 - When You Were Young (Calvin Harris Remix).flac
  Size: 51773890 Hash: B3ED85EB71349B2C65E7DD62770AC927 Accuracy: -m0
  Conclusion: CDDA 100%
  Signature: B11903F0C1FB5BCEA5F1A62C8E125C5392C9A481
Код:
Код:
REM DATE 2013
REM DISCID F011E812
REM COMMENT "ExactAudioCopy v1.0b3"
PERFORMER "The Killers"
TITLE "Direct Hits"
FILE "01 - Mr. Brightside.wav" WAVE
  TRACK 01 AUDIO
    TITLE "Mr. Brightside"
    PERFORMER "The Killers"
    INDEX 01 00:00:00
FILE "02 - Somebody Told Me.wav" WAVE
  TRACK 02 AUDIO
    TITLE "Somebody Told Me"
    PERFORMER "The Killers"
    INDEX 01 00:00:00
FILE "03 - Smile Like You Mean It.wav" WAVE
  TRACK 03 AUDIO
    TITLE "Smile Like You Mean It"
    PERFORMER "The Killers"
    INDEX 01 00:00:00
FILE "04 - All These Things That I've Done.wav" WAVE
  TRACK 04 AUDIO
    TITLE "All These Things That I've Done"
    PERFORMER "The Killers"
    INDEX 01 00:00:00
FILE "05 - When You Were Young.wav" WAVE
  TRACK 05 AUDIO
    TITLE "When You Were Young"
    PERFORMER "The Killers"
    INDEX 01 00:00:00
FILE "06 - Read My Mind.wav" WAVE
  TRACK 06 AUDIO
    TITLE "Read My Mind"
    PERFORMER "The Killers"
    INDEX 01 00:00:00
FILE "07 - For Reasons Unknown.wav" WAVE
  TRACK 07 AUDIO
    TITLE "For Reasons Unknown"
    PERFORMER "The Killers"
    INDEX 01 00:00:00
FILE "08 - Human.wav" WAVE
  TRACK 08 AUDIO
    TITLE "Human"
    PERFORMER "The Killers"
    INDEX 01 00:00:00
FILE "09 - Spaceman.wav" WAVE
  TRACK 09 AUDIO
    TITLE "Spaceman"
    PERFORMER "The Killers"
    INDEX 01 00:00:00
FILE "10 - A Dustland Fairytale.wav" WAVE
  TRACK 10 AUDIO
    TITLE "A Dustland Fairytale"
    PERFORMER "The Killers"
    INDEX 01 00:00:00
FILE "11 - Runaways.wav" WAVE
  TRACK 11 AUDIO
    TITLE "Runaways"
    PERFORMER "The Killers"
    INDEX 01 00:00:00
FILE "12 - Miss Atomic Bomb.wav" WAVE
  TRACK 12 AUDIO
    TITLE "Miss Atomic Bomb"
    PERFORMER "The Killers"
    INDEX 01 00:00:00
FILE "13 - The Way It Was.wav" WAVE
  TRACK 13 AUDIO
    TITLE "The Way It Was"
    PERFORMER "The Killers"
    INDEX 01 00:00:00
FILE "14 - Shot At The Night.wav" WAVE
  TRACK 14 AUDIO
    TITLE "Shot At The Night"
    PERFORMER "The Killers"
    INDEX 01 00:00:00
FILE "15 - Just Another Girl.wav" WAVE
  TRACK 15 AUDIO
    TITLE "Just Another Girl"
    PERFORMER "The Killers"
    INDEX 01 00:00:00
FILE "16 - Mr. Brightside (Original Demo).wav" WAVE
  TRACK 16 AUDIO
    TITLE "Mr. Brightside (Original Demo)"
    PERFORMER "The Killers"
    INDEX 01 00:00:00
FILE "17 - When You Were Young (Calvin Harris Remix).wav" WAVE
  TRACK 17 AUDIO
    TITLE "When You Were Young (Calvin Harris Remix)"
    PERFORMER "The Killers"
    INDEX 01 00:00:00
FILE "18 - Be Still.wav" WAVE
  TRACK 18 AUDIO
    TITLE "Be Still"
    PERFORMER "The Killers"
    INDEX 01 00:00:00
Правила, инструкции, FAQ!!!
Торрент  Добавлен [16 мар 2014, 00:46] Скачать торрент Магнет ссылка
Скачать торрент
[ Размер 12.77 КБ / Просмотров 85 ]

Статус  
 
Размер  545.42 МБ
Приватный: Нет (DHT включён)
.torrent скачан  3
 


     Отправить личное сообщение
   
Страница 1 из 1
Показать сообщения за:  Поле сортировки  
Начать новую тему Ответить на тему


Сейчас этот форум просматривают: нет зарегистрированных пользователей и гости: 0


Вы не можете начинать темы
Вы не можете отвечать на сообщения
Вы не можете редактировать свои сообщения
Вы не можете удалять свои сообщения
Вы не можете добавлять вложения

Перейти:  
cron
cron