Начать новую тему Ответить на тему
Статистика раздачи
Размер: 249.5 МБ | Добавлен: 05 дек 2013, 10:36 | Скачали: 0
Сидеров: 1  [0 байт/сек]    Личеров: 3  [0 байт/сек]
Пред. тема | След. тема 

Автор
Сообщение

СообщениеДобавлено: 05 дек 2013, 10:36 

Ответить с цитатой 

The Hollies - All Time Greatest Hits (1990)

Год: 1990
Жанр: Classic Rock
Продолжительность: 00:40:19
Лейбл: CURB Records
Каталог: D2-77377

Кодек: FLAC (image+.cue + log)
Битрейт: Lossless

Треклист:
01. Just One Loolk (2:32)
02. Look Through Any Window (2:21)
03. Bus Stop (2:59)
04. Stop, Stop, Stop (2:53)
05. On A Carousel (3:17)
06. Carrie Ann (2:58)
07. Dear Eloise (3:08)
08. He Ain't Heavy He's My Brother (4:23)
09. Long Cool Woman (In A Black Dress) (3:21)
10. Long Dark Road (4:21)
11. The Air That I Breathe (4:14)
12. Another Night (3:53)
Код:
Код:
Exact Audio Copy V0.99 prebeta 4 from 23. January 2008

Отчёт EAC об извлечении, выполненном 12. января 2009, 15:20

THE HOLLIES / All-Time Greatest Hits

Дисковод: Optiarc DVD RW AD-7200A   Adapter: 0  ID: 0

Режим чтения                 : Достоверность
Использование точного потока : Да
Отключение кэша аудио        : Да
Использование указателей C2  : Нет

Коррекция смещения при чтении                     : 48
Способность читать области Lead-in и Lead-out     : Нет
Заполнение пропущенных сэмплов тишиной            : Да
Удаление блоков с тишиной в начале и конце        : Нет
При вычислениях CRC использовались нулевые сэмплы : Нет
Интерфейс                                         : Установленный внешний ASPI-интерфейс

Выходной формат          : Пользовательский кодировщик
Выбранный битрейт        : 768 kBit/s
Качество                 : Высокий
Добавление ID3-тэга      : Да
Утилита сжатия           : C:\Program Files\Exact Audio Copy\Flac\flac.exe
Дополнительные параметры : -6 -V -T "ARTIST=%a" -T "TITLE=%t" -T "ALBUM=%g" -T "DATE=%y" -T "TRACKNUMBER=%n" -T "GENRE=%m" -T "COMMENT=%e" %s -o %d

TOC извлечённого CD

     Трек |   Старт  | Длительность | Начальный сектор | Конечный сектор
    ---------------------------------------------------------------------
       1  |  0:00.32 |    2:31.68   |          32      |      11424
       2  |  2:32.25 |    2:20.70   |       11425      |      21994
       3  |  4:53.20 |    2:58.40   |       21995      |      35384
       4  |  7:51.60 |    2:52.50   |       35385      |      48334
       5  | 10:44.35 |    3:16.42   |       48335      |      63076
       6  | 14:01.02 |    2:58.05   |       63077      |      76431
       7  | 16:59.07 |    3:08.03   |       76432      |      90534
       8  | 20:07.10 |    4:23.22   |       90535      |     110281
       9  | 24:30.32 |    3:20.58   |      110282      |     125339
      10  | 27:51.15 |    4:20.40   |      125340      |     144879
      11  | 32:11.55 |    4:14.32   |      144880      |     163961
      12  | 36:26.12 |    3:53.35   |      163962      |     181471

Характеристики диапазона извлечения и сообщения об ошибках

Выбранный диапазон

     Имя файла D:\Раздачи\THE HOLLIES - All-Time Greatest Hits\THE HOLLIES - All-Time Greatest Hits.wav

     Пиковый уровень 82.3 %
     Качество диапазона 99.9 %
     CRC копии 0F988D75
     Копирование... OK

Ошибок не произошло

AccurateRip: сводка

Трек  1  точное извлечение (доверие 2)  [592889FA]
Трек  2  точное извлечение (доверие 2)  [2FEFD2CE]
Трек  3  точное извлечение (доверие 2)  [54FF524B]
Трек  4  точное извлечение (доверие 2)  [A75DE398]
Трек  5  точное извлечение (доверие 2)  [04EACFCA]
Трек  6  точное извлечение (доверие 2)  [CE758DB8]
Трек  7  точное извлечение (доверие 2)  [25CFAB6F]
Трек  8  точное извлечение (доверие 2)  [BDD8D4F7]
Трек  9  точное извлечение (доверие 2)  [3F1013FE]
Трек 10  точное извлечение (доверие 2)  [6F78A8DD]
Трек 11  точное извлечение (доверие 2)  [F9E9E342]
Трек 12  точное извлечение (доверие 2)  [DA8D7165]

Все треки извлечены точно

Конец отчёта
Код:
Код:
-----------------------

DON'T MODIFY THIS FILE

-----------------------

PERFORMER: auCDtect Task Manager, ver. 1.6.0 RC1 build 1.6.0.1
Copyright (c) 2008-2010 y-soft. All rights reserved
http:/y-soft.org

ANALYZER: auCDtect: CD records authenticity detector, version 0.8.2
Copyright (c) 2004 Oleg Berngardt. All rights reserved.
Copyright (c) 2004 Alexander Djourik. All rights reserved.

FILE: THE HOLLIES - All-Time Greatest Hits.flac
  Size: 250964520 Hash: C1C7BD6AE6C9143F6A3C0E8C3E644533 Accuracy: -m8
  Conclusion: CDDA 100%
  Signature: 315E1D9144C71C4F8CE0678C9FC2EF5FFF1FFA02
Правила, инструкции, FAQ!!!
Торрент  Добавлен [05 дек 2013, 10:36] Скачать торрент Магнет ссылка
Скачать торрент
[ Размер 20.73 КБ / Просмотров 21 ]

Статус  
 
Размер  249.5 МБ
Приватный: Нет (DHT включён)
.torrent скачан  0
 


     Отправить личное сообщение
   
Страница 1 из 1
Показать сообщения за:  Поле сортировки  
Начать новую тему Ответить на тему


Сейчас этот форум просматривают: нет зарегистрированных пользователей и гости: 0


Вы не можете начинать темы
Вы не можете отвечать на сообщения
Вы не можете редактировать свои сообщения
Вы не можете удалять свои сообщения
Вы не можете добавлять вложения

Перейти:  
cron