Начать новую тему Ответить на тему
Статистика раздачи
Размер: 742.71 МБ | Добавлен: 16 мар 2014, 00:46 | Скачали: 7
Сидеров: 4  [0 байт/сек]    Личеров: 0  [0 байт/сек]
Пред. тема | След. тема 

Автор
Сообщение

СообщениеДобавлено: 16 мар 2014, 00:46 

Ответить с цитатой 

The Heavy - 3 Albums (2007-2012)

Жанр: Alternative Rock
Год выпуска: 2007-2012
Страна: UK
Label: Counter Records
Аудио кодек: FLAC
Тип рипа: image+.cue/tracks/tracks+.cue
Битрейт аудио: lossless
Продолжительность: 01:51:20

    Состав:
    Dan Taylor - гитара
    Kelvin Swaby - вокал
    Spencer Page - бас-гитара
    Chris Ellul - барабаны

В 2007-м году The Heavy, четверо простых английских парней из крошечной деревеньки Нойд, расположенной к юго-западу от Бата, буквально разнесли в клочья привычные понятия о жанровых рамках, явив музыкальному миру свой дебютный альбом Great Vengeance and Furious Fire - абсолютно сумасшедший как по звуку, так и по энергетике рок-н-ролльный «коктейль», приготовленный под чутким руководством «старших братьев» с Ninja Tune.
Рецепт прост: возьмите равные доли блюза, гаражного рока, соула, фанка и кантри, добавьте несколько тысяч мегаватт чистой энергии, приправьте умопомрачительным вокалом, взрывными риффами и сметающей все и вся на своем пути ритм-секцией, после чего перемешайте с «фирменным» грязным звучанием - именно так в двух словах можно описать стиль ребят из The Heavy.

#777
Great Vengeance and Furious Fire
Год: 2007
Catalog#: B00G2J11MO
Тип рипа: image+.cue
Продолжительность: 00:33:57
Источник/релизер: lazdo
Трек лист:
01. Brukpocket's Lament (2:52)
02. Colleen (3:11)
03. Set Me Free (3:37)
04. That Kind of Man (3:41)
05. Doing Fine (4:30)
06. Dignity (2:38)
07. Our Special Place (3:37)
08. Girl (2:49)
09. In the Morning (2:51)
10. Who Needs the Sunshine? (4:09)
Код:
Код:
Exact Audio Copy V0.99 prebeta 3 from 28. July 2007

Отчёт EAC об извлечении, выполненном 18. декабря 2008, 7:44

Great Vengeance and Furious Fire / The Heavy

Дисковод: TOSHIBA CD/DVDW SD-R5372   Adapter: 0  ID: 1

Режим чтения                 : Достоверность
Использование точного потока : Да
Отключение кэша аудио        : Да
Использование указателей C2  : Нет

Коррекция смещения при чтении                     : 704
Способность читать области Lead-in и Lead-out     : Нет
Заполнение пропущенных сэмплов тишиной            : Да
Удаление блоков с тишиной в начале и конце        : Нет
При вычислениях CRC использовались нулевые сэмплы : Да
Интерфейс                                         : Установленный внешний ASPI-интерфейс

Выходной формат : Внутренние WAV-операции
Формат сэмплов  : 44.100 Гц; 16 бит; стерео

TOC извлечённого CD

     Трек |   Старт  | Длительность | Начальный сектор | Конечный сектор
    ---------------------------------------------------------------------
       1  |  0:00.00 |    2:52.23   |           0      |      12922
       2  |  2:52.23 |    3:11.33   |       12923      |      27280
       3  |  6:03.56 |    3:37.29   |       27281      |      43584
       4  |  9:41.10 |    3:41.04   |       43585      |      60163
       5  | 13:22.14 |    4:30.16   |       60164      |      80429
       6  | 17:52.30 |    2:38.21   |       80430      |      92300
       7  | 20:30.51 |    3:37.25   |       92301      |     108600
       8  | 24:08.01 |    2:48.56   |      108601      |     121256
       9  | 26:56.57 |    2:51.16   |      121257      |     134097
      10  | 29:47.73 |    4:09.19   |      134098      |     152791

Характеристики диапазона извлечения и сообщения об ошибках

Выбранный диапазон

     Имя файла Y:\_Lossless\The Heavy\2007. Great Vengeance and Furious Fire\Great Vengeance and Furious Fire - The Heavy (2007).wav

     Пиковый уровень 98.0 %
     Качество диапазона 99.9 %
     CRC копии 6D29F473
     Копирование... OK

Ошибок не произошло

AccurateRip: сводка

Трек  1  точное извлечение (доверие 3)  [70341750]
Трек  2  точное извлечение (доверие 3)  [2A5FC45F]
Трек  3  точное извлечение (доверие 3)  [899CDDF9]
Трек  4  точное извлечение (доверие 3)  [5312B5AA]
Трек  5  точное извлечение (доверие 3)  [88E5CAA2]
Трек  6  точное извлечение (доверие 3)  [6C10A00A]
Трек  7  точное извлечение (доверие 3)  [1980D50D]
Трек  8  точное извлечение (доверие 3)  [EFE52277]
Трек  9  точное извлечение (доверие 3)  [4C204258]
Трек 10  точное извлечение (доверие 3)  [32DCFC6F]

Все треки извлечены точно

Конец отчёта
Код:
Код:
-----------------------

DON'T MODIFY THIS FILE

-----------------------

PERFORMER: auCDtect Task Manager, ver. 1.6.0 RC1 build 1.6.0.1
Copyright (c) 2008-2010 y-soft. All rights reserved
http:/y-soft.org

ANALYZER: auCDtect: CD records authenticity detector, version 0.8.2
Copyright (c) 2004 Oleg Berngardt. All rights reserved.
Copyright (c) 2004 Alexander Djourik. All rights reserved.

FILE: Great Vengeance and Furious Fire - The Heavy (2007).flac
  Size: 220567498 Hash: A738147470A78C86B85C9D64F5508C52 Accuracy: -m0
  Conclusion: CDDA 100%
  Signature: C802DF932F3583CB942166EDDEA8F9C14281C85A
#777
House That Dirt Built
Год: 2009
Catalog#: LG-12885
Тип рипа: tracks+.cue
Продолжительность: 00:38:16
Источник/релизер: oneanight
Трек лист:
01. Intro (0:19)
02. Oh! Not You Again!! (1:54)
03. How You Like Me Now? (3:37)
04. Sixteen (3:02)
05. Short Change Hero (5:22)
06. No Time (4:31)
07. Long Way From Home (3:19)
08. Cause For Alarm (4:44)
09. Love Like That (2:39)
10. What You Want Me To Do? (3:23)
11. Stuck (5:26)
Код:
Код:
Exact Audio Copy V0.99 prebeta 4 from 23. January 2008

EAC extraction logfile from 23. February 2010, 16:39

The Heavy / The House That Dirt Built

Used drive  : HL-DT-STBD-RE  GGW-H20L   Adapter: 0  ID: 2

Read mode               : Secure
Utilize accurate stream : Yes
Defeat audio cache      : Yes
Make use of C2 pointers : No

Read offset correction                      : 667
Overread into Lead-In and Lead-Out          : No
Fill up missing offset samples with silence : Yes
Delete leading and trailing silent blocks   : No
Null samples used in CRC calculations       : Yes
Used interface                              : Installed external ASPI interface
Gap handling                                : Appended to previous track

Used output format              : User Defined Encoder
Selected bitrate                : 1024 kBit/s
Quality                         : High
Add ID3 tag                     : No
Command line compressor         : C:\Program Files\Exact Audio Copy\Flac\flac.exe
Additional command line options : -8 -V -T "ARTIST=%a" -T "TITLE=%t" -T "ALBUM=%g" -T "DATE=%y" -T "TRACKNUMBER=%n" -T "GENRE=%m" -T "COMMENT=EAC FLAC - 8 - oan" %s

TOC of the extracted CD

     Track |   Start  |  Length  | Start sector | End sector
    ---------------------------------------------------------
        1  |  0:00.00 |  0:18.40 |         0    |     1389
        2  |  0:18.40 |  1:53.67 |      1390    |     9931
        3  |  2:12.32 |  3:37.37 |      9932    |    26243
        4  |  5:49.69 |  3:02.11 |     26244    |    39904
        5  |  8:52.05 |  5:22.20 |     39905    |    64074
        6  | 14:14.25 |  4:31.09 |     64075    |    84408
        7  | 18:45.34 |  3:18.74 |     84409    |    99332
        8  | 22:04.33 |  4:43.41 |     99333    |   120598
        9  | 26:47.74 |  2:38.67 |    120599    |   132515
       10  | 29:26.66 |  3:22.51 |    132516    |   147716
       11  | 32:49.42 |  5:26.37 |    147717    |   172203

Track  1

     Filename C:\oan\01 - Intro.wav

     Pre-gap length  0:00:02.00

     Peak level 31.6 %
     Track quality 100.0 %
     Test CRC E393D242
     Copy CRC E393D242
     Accurately ripped (confidence 4)  [CCC687F1]
     Copy OK

Track  2

     Filename C:\oan\02 - Oh! Not You Again!!.wav

     Peak level 99.8 %
     Track quality 99.9 %
     Test CRC 6AC650C7
     Copy CRC 6AC650C7
     Accurately ripped (confidence 4)  [B0665795]
     Copy OK

Track  3

     Filename C:\oan\03 - How You Like Me Now .wav

     Peak level 99.8 %
     Track quality 99.9 %
     Test CRC 162187C3
     Copy CRC 162187C3
     Accurately ripped (confidence 4)  [BB7A20AA]
     Copy OK

Track  4

     Filename C:\oan\04 - Sixteen.wav

     Pre-gap length  0:00:02.90

     Peak level 93.3 %
     Track quality 100.0 %
     Test CRC 9A7D9F83
     Copy CRC 9A7D9F83
     Accurately ripped (confidence 4)  [55049C67]
     Copy OK

Track  5

     Filename C:\oan\05 - Short Change Hero.wav

     Peak level 99.0 %
     Track quality 100.0 %
     Test CRC 9CDDBAEC
     Copy CRC 9CDDBAEC
     Accurately ripped (confidence 4)  [68E5C4E9]
     Copy OK

Track  6

     Filename C:\oan\06 - No Time.wav

     Pre-gap length  0:00:02.78

     Peak level 96.3 %
     Track quality 100.0 %
     Test CRC 51A358C8
     Copy CRC 51A358C8
     Accurately ripped (confidence 4)  [CD5BC25B]
     Copy OK

Track  7

     Filename C:\oan\07 - Long Way From Home.wav

     Peak level 99.7 %
     Track quality 100.0 %
     Test CRC B8719C58
     Copy CRC B8719C58
     Accurately ripped (confidence 4)  [FC3E2CA0]
     Copy OK

Track  8

     Filename C:\oan\08 - Cause For Alarm.wav

     Pre-gap length  0:00:02.13

     Peak level 93.8 %
     Track quality 100.0 %
     Test CRC 576B3165
     Copy CRC 576B3165
     Accurately ripped (confidence 4)  [2C3FC36A]
     Copy OK

Track  9

     Filename C:\oan\09 - Love Like That.wav

     Pre-gap length  0:00:03.82

     Peak level 99.8 %
     Track quality 100.0 %
     Test CRC E4514590
     Copy CRC E4514590
     Accurately ripped (confidence 4)  [265BB8A1]
     Copy OK

Track 10

     Filename C:\oan\10 - What You Want Me To Do .wav

     Peak level 93.8 %
     Track quality 100.0 %
     Test CRC 1264DE07
     Copy CRC 1264DE07
     Accurately ripped (confidence 4)  [C2C87027]
     Copy OK

Track 11

     Filename C:\oan\11 - Stuck.wav

     Pre-gap length  0:00:01.58

     Peak level 99.8 %
     Track quality 100.0 %
     Test CRC C4DA887D
     Copy CRC C4DA887D
     Accurately ripped (confidence 4)  [2A9FEEAC]
     Copy OK

All tracks accurately ripped

No errors occurred

End of status report
Код:
Код:
-----------------------

DON'T MODIFY THIS FILE

-----------------------

PERFORMER: auCDtect Task Manager, ver. 1.6.0 RC1 build 1.6.0.1
Copyright (c) 2008-2010 y-soft. All rights reserved
http:/y-soft.org

ANALYZER: auCDtect: CD records authenticity detector, version 0.8.2
Copyright (c) 2004 Oleg Berngardt. All rights reserved.
Copyright (c) 2004 Alexander Djourik. All rights reserved.

FILE: 11 - Stuck.flac
  Size: 34977436 Hash: A3DE281010E9D591182D83ECFC702715 Accuracy: -m0
  Conclusion: CDDA 100%
  Signature: 561D64CE274DE504F3C65509290C4A86234ED293
FILE: 10 - What You Want Me To Do .flac
  Size: 23086926 Hash: C26986CF9B663102815DD2BB4868CEC6 Accuracy: -m0
  Conclusion: CDDA 100%
  Signature: 248A9D62519B8B8C0D1C6B012DB544D7BDFF511B
FILE: 09 - Love Like That.flac
  Size: 15452533 Hash: 4B5B426661F1C585448227A8914154B2 Accuracy: -m0
  Conclusion: CDDA 100%
  Signature: 2FA6AA06F42F36704113813A6A3371F824817B99
FILE: 08 - Cause For Alarm.flac
  Size: 30517495 Hash: 98E6CE8B84EAF9A64EBA9DFFAC09364B Accuracy: -m0
  Conclusion: CDDA 99%
  Signature: D0A79B085F5EB49E31BE2CCD3CDE2E4AC57F3DC0
FILE: 07 - Long Way From Home.flac
  Size: 24017052 Hash: 0D459BA37F49A9C8C98D1447B2711927 Accuracy: -m0
  Conclusion: CDDA 100%
  Signature: 9F101F17B69055B2AC704E8383C5789E2E39AEA5
FILE: 06 - No Time.flac
  Size: 31686367 Hash: D57FB83F0F70DA3CEE08C6189DF3CD23 Accuracy: -m0
  Conclusion: CDDA 100%
  Signature: 1E5BFBC8D8ED18E1567B3FB7CE89704CAB018DF9
FILE: 05 - Short Change Hero.flac
  Size: 32877408 Hash: 6A5BD7518E004F0D3211AC8E4EDCCBBC Accuracy: -m0
  Conclusion: CDDA 100%
  Signature: 58504ED6109370EDEA7A1A758D4CB27A20959A32
FILE: 04 - Sixteen.flac
  Size: 22978730 Hash: 97D28E427F7B1E647CC1DD3E47D8CC62 Accuracy: -m0
  Conclusion: CDDA 100%
  Signature: 16D264C7B450930DA83DF8DA6918784C3B7CB496
FILE: 03 - How You Like Me Now .flac
  Size: 25265814 Hash: 5E1488F0B6197547FA7BA035437786DE Accuracy: -m0
  Conclusion: CDDA 99%
  Signature: 02BF6B6E63AA9B276EBDE59A07FE6D9512ED2A35
FILE: 02 - Oh! Not You Again!!.flac
  Size: 14564235 Hash: AD30D0463A0D4109CF78C17E6E3D721F Accuracy: -m0
  Conclusion: CDDA 100%
  Signature: 3FD9C94D1CFB7A4F0032B37572B81084022C15D9
FILE: 01 - Intro.flac
  Size: 767556 Hash: 012446428C161EC9970E5CC743FF793E Accuracy: -m0
  Conclusion: MPEG 100%
  Signature: 9A6DC43E8A56C99B571B0AD3E8CB312D7092777D
#777
The Glorious Dead
Год: 2012
Catalog#: COUNT 046
Тип рипа: tracks
Продолжительность: 00:39:07
Источник/релизер: MarraM
Трек лист:
01. Can't Play Dead (4:20)
02. Curse Me Good (4:57)
03. What Makes A Good Man? (3:46)
04. The Big Bad Wolf (3:21)
05. Be Mine (4:14)
06. Same Ol' (4:00)
07. Just My Luck (3:00)
08. The Lonesome Road (3:56)
09. Don't Say Nothing (3:36)
10. Blood Dirt Love Stop (3:56)
Код:
Код:
Audiochecker v2.0 beta (build 457) - by Dester -
~~~~~~~~~~~~~~~~~~~~~~~~~~~~~~~~~~

Started at: понедельник, 01. 10. 2012. - 14:59.43
10 files found

01 -===- E:\Torrents\The Heavy - The Glorious Dead (2012) [Counter Records – COUNT 046] [WEB]\01 - Can't Play Dead.flac
  Extracted successfully
  Conclusion: this track is CDDA with probability 100%
  Tempfile successfully deleted.

02 -===- E:\Torrents\The Heavy - The Glorious Dead (2012) [Counter Records – COUNT 046] [WEB]\02 - Curse Me Good.flac
  Extracted successfully
  Conclusion: this track is CDDA with probability 100%
  Tempfile successfully deleted.

03 -===- E:\Torrents\The Heavy - The Glorious Dead (2012) [Counter Records – COUNT 046] [WEB]\03 - What Makes a Good Man (Original).flac
  Extracted successfully
  Conclusion: this track is CDDA with probability 99%
  Tempfile successfully deleted.

04 -===- E:\Torrents\The Heavy - The Glorious Dead (2012) [Counter Records – COUNT 046] [WEB]\04 - Big Bad Wolf.flac
  Extracted successfully
  Conclusion: this track is CDDA with probability 100%
  Tempfile successfully deleted.

05 -===- E:\Torrents\The Heavy - The Glorious Dead (2012) [Counter Records – COUNT 046] [WEB]\05 - Be Mine.flac
  Extracted successfully
  Conclusion: this track is CDDA with probability 100%
  Tempfile successfully deleted.

06 -===- E:\Torrents\The Heavy - The Glorious Dead (2012) [Counter Records – COUNT 046] [WEB]\06 - Same Ol'.flac
  Extracted successfully
  Conclusion: this track is CDDA with probability 100%
  Tempfile successfully deleted.

07 -===- E:\Torrents\The Heavy - The Glorious Dead (2012) [Counter Records – COUNT 046] [WEB]\07 - Just My Luck.flac
  Extracted successfully
  Conclusion: this track is CDDA with probability 100%
  Tempfile successfully deleted.

08 -===- E:\Torrents\The Heavy - The Glorious Dead (2012) [Counter Records – COUNT 046] [WEB]\08 - The Lonesome Road.flac
  Extracted successfully
  Conclusion: this track is CDDA with probability 100%
  Tempfile successfully deleted.

09 -===- E:\Torrents\The Heavy - The Glorious Dead (2012) [Counter Records – COUNT 046] [WEB]\09 - Don't Say Nothing.flac
  Extracted successfully
  Conclusion: this track is CDDA with probability 100%
  Tempfile successfully deleted.

10 -===- E:\Torrents\The Heavy - The Glorious Dead (2012) [Counter Records – COUNT 046] [WEB]\10 - Blood Dirt Love Stop.flac
  Extracted successfully
  Conclusion: this track is CDDA with probability 100%
  Tempfile successfully deleted.

Finished at: понедельник, 01. 10. 2012. - 15:03.51 (operation time: 0:04.08)
Код:
Код:
-----------------------

DON'T MODIFY THIS FILE

-----------------------

PERFORMER: auCDtect Task Manager, ver. 1.6.0 RC1 build 1.6.0.1
Copyright (c) 2008-2010 y-soft. All rights reserved
http:/y-soft.org

ANALYZER: auCDtect: CD records authenticity detector, version 0.8.2
Copyright (c) 2004 Oleg Berngardt. All rights reserved.
Copyright (c) 2004 Alexander Djourik. All rights reserved.

FILE: 10 - Blood Dirt Love Stop.flac
  Size: 26695136 Hash: F1F2A015A71731AE9A737E608563FB27 Accuracy: -m0
  Conclusion: CDDA 100%
  Signature: E032C8543D3E649C80734932286A8AB70E46A71F
FILE: 09 - Don't Say Nothing.flac
  Size: 26157596 Hash: C9BBBB847F2FAEFE27D4B7EDFA550D8F Accuracy: -m0
  Conclusion: CDDA 100%
  Signature: 45BF6DAF9A0AAD48FA52216E81785445AB29747C
FILE: 08 - The Lonesome Road.flac
  Size: 26713645 Hash: B09B66953340FCBB59486E576D782907 Accuracy: -m0
  Conclusion: CDDA 100%
  Signature: F0EE79335C176C7CAE06F2C5C472268E4BE5F773
FILE: 07 - Just My Luck.flac
  Size: 21759382 Hash: 4B9EDA3DC9C0EA94E609655F91F49450 Accuracy: -m0
  Conclusion: CDDA 100%
  Signature: 06178D89916A1001A47B59B1F16D7255FE773D25
FILE: 06 - Same Ol'.flac
  Size: 29701776 Hash: 95F82139F2153EF152DFB794F1E9B949 Accuracy: -m0
  Conclusion: CDDA 100%
  Signature: 07A0E436125701E6637962AA88DE8DEDA9A0B930
FILE: 05 - Be Mine.flac
  Size: 30194196 Hash: 205176185D1DB67FE7B24B42DAFC8504 Accuracy: -m0
  Conclusion: CDDA 100%
  Signature: F6E0A55335D578DFD7278C0791A36F94BF074DC2
FILE: 04 - Big Bad Wolf.flac
  Size: 23357999 Hash: 416E117F6560E9C0C91E29CA1CA1619D Accuracy: -m0
  Conclusion: CDDA 100%
  Signature: 6FAF55EF31E1B40DF7234BC46C1753EEE98452A9
FILE: 03 - What Makes a Good Man (Original).flac
  Size: 28063818 Hash: 381CAA33F5D8F91C5EF637B59F4CBD36 Accuracy: -m0
  Conclusion: CDDA 99%
  Signature: 361290FC79A60111F9D374BE7BC5120DBBE9CA19
FILE: 02 - Curse Me Good.flac
  Size: 34146144 Hash: 3E83349F287F67DA0EAA47323845DBB1 Accuracy: -m0
  Conclusion: CDDA 100%
  Signature: F81A8018901C69F3F15B78001748540B2C48F933
FILE: 01 - Can't Play Dead.flac
  Size: 29447009 Hash: C667AC76BE48A45981494FEE53836F38 Accuracy: -m0
  Conclusion: CDDA 100%
  Signature: 02DA6064709B3F3DDEB2F2B1F2E0E61F9D4E682A
Правила, инструкции, FAQ!!!
Торрент  Добавлен [16 мар 2014, 00:46] Скачать торрент Магнет ссылка
Скачать торрент
[ Размер 19.75 КБ / Просмотров 314 ]

Статус  
 
Размер  742.71 МБ
Приватный: Нет (DHT включён)
.torrent скачан  7
 


     Отправить личное сообщение
   
Страница 1 из 1
Показать сообщения за:  Поле сортировки  
Начать новую тему Ответить на тему


Сейчас этот форум просматривают: нет зарегистрированных пользователей и гости: 0


Вы не можете начинать темы
Вы не можете отвечать на сообщения
Вы не можете редактировать свои сообщения
Вы не можете удалять свои сообщения
Вы не можете добавлять вложения

Перейти:  
cron
cron