Начать новую тему Ответить на тему
Статистика раздачи
Размер: 291.62 МБ | Добавлен: 16 мар 2014, 00:40 | Скачали: 1
Сидеров: 2  [0 байт/сек]    Личеров: 0  [0 байт/сек]
Пред. тема | След. тема 

Автор
Сообщение

СообщениеДобавлено: 16 мар 2014, 00:40 

Ответить с цитатой 

The Fray - Helios (2014)

Год: 2014
Жанр: Alternative, Pop-Rock, Piano-Rock
Продолжительность: 00:42:23
Кодек: FLAC
Битрейт: Lossless
Тип рипа: tracks+.cue
Треклист:
01. Hold My Hand (3:42)
02. Love Don't Die (3:03)
03. Give It Away (3:21)
04. Closer to Me (2:47)
05. Hurricane (3:48)
06. Keep on Wanting (4:41)
07. Our Last Days (3:40)
08. Break Your Plans (3:47)
09. Wherever This Goes (3:38)
10. Shadow and a Dancer (4:49)
11. Same as You (5:06)


Код:
Код:
Exact Audio Copy V1.0 beta 3 from 29. August 2011

EAC extraction logfile from 21. February 2014, 20:24

The Fray / Helios

Used drive  : hp      DVD-RAM GH60L   Adapter: 0  ID: 1

Read mode               : Secure
Utilize accurate stream : Yes
Defeat audio cache      : Yes
Make use of C2 pointers : No

Read offset correction                      : 667
Overread into Lead-In and Lead-Out          : No
Fill up missing offset samples with silence : Yes
Delete leading and trailing silent blocks   : No
Null samples used in CRC calculations       : Yes
Used interface                              : Native Win32 interface for Win NT & 2000
Gap handling                                : Appended to previous track

Used output format              : User Defined Encoder
Selected bitrate                : 1024 kBit/s
Quality                         : High
Add ID3 tag                     : No
Command line compressor         : C:\Program Files (x86)\Exact Audio Copy\Flac\flac.exe
Additional command line options : -8 -V -T "ARTIST=%artist%" -T "TITLE=%title%" -T "ALBUM=%albumtitle%" -T "DATE=%year%" -T "TRACKNUMBER=%tracknr%" -T "GENRE=%genre%" -T "PERFORMER=%albuminterpret%" -T "COMPOSER=%composer%" %haslyrics%--tag-from-file=LYRICS="%lyricsfile%"%haslyrics% -T "ALBUMARTIST=%albumartist%" -T "DISCNUMBER=%cdnumber%" -T "TOTALDISCS=%totalcds%" -T "TOTALTRACKS=%numtracks%" -T "COMMENT=%comment%" %source% -o %dest%

TOC of the extracted CD

     Track |   Start  |  Length  | Start sector | End sector
    ---------------------------------------------------------
        1  |  0:00.00 |  3:41.46 |         0    |    16620
        2  |  3:41.46 |  3:03.07 |     16621    |    30352
        3  |  6:44.53 |  3:21.31 |     30353    |    45458
        4  | 10:06.09 |  2:47.37 |     45459    |    58020
        5  | 12:53.46 |  3:48.16 |     58021    |    75136
        6  | 16:41.62 |  4:41.29 |     75137    |    96240
        7  | 21:23.16 |  3:39.45 |     96241    |   112710
        8  | 25:02.61 |  3:47.12 |    112711    |   129747
        9  | 28:49.73 |  3:38.22 |    129748    |   146119
       10  | 32:28.20 |  4:48.63 |    146120    |   167782
       11  | 37:17.08 |  5:06.08 |    167783    |   190740

Track  1

     Filename C:\EAC\01 - Hold My Hand.wav

     Pre-gap length  0:00:02.00

     Peak level 100.0 %
     Extraction speed 4.3 X
     Track quality 100.0 %
     Test CRC 276A6661
     Copy CRC 276A6661
     Track not present in AccurateRip database
     Copy OK

Track  2

     Filename C:\EAC\02 - Love Don't Die.wav

     Peak level 100.0 %
     Extraction speed 4.7 X
     Track quality 100.0 %
     Test CRC 7FE0C87B
     Copy CRC 7FE0C87B
     Track not present in AccurateRip database
     Copy OK

Track  3

     Filename C:\EAC\03 - Give It Away.wav

     Peak level 89.1 %
     Extraction speed 4.8 X
     Track quality 100.0 %
     Test CRC F6065FB3
     Copy CRC F6065FB3
     Track not present in AccurateRip database
     Copy OK

Track  4

     Filename C:\EAC\04 - Closer to Me.wav

     Peak level 100.0 %
     Extraction speed 5.0 X
     Track quality 100.0 %
     Test CRC B0130BCF
     Copy CRC B0130BCF
     Track not present in AccurateRip database
     Copy OK

Track  5

     Filename C:\EAC\05 - Hurricane.wav

     Peak level 100.0 %
     Extraction speed 5.7 X
     Track quality 100.0 %
     Test CRC E21B2024
     Copy CRC E21B2024
     Track not present in AccurateRip database
     Copy OK

Track  6

     Filename C:\EAC\06 - Keep on Wanting.wav

     Peak level 100.0 %
     Extraction speed 6.1 X
     Track quality 100.0 %
     Test CRC 75E94796
     Copy CRC 75E94796
     Track not present in AccurateRip database
     Copy OK

Track  7

     Filename C:\EAC\07 - Our Last Days.wav

     Peak level 100.0 %
     Extraction speed 6.4 X
     Track quality 100.0 %
     Test CRC AC49CA2C
     Copy CRC AC49CA2C
     Track not present in AccurateRip database
     Copy OK

Track  8

     Filename C:\EAC\08 - Break Your Plans.wav

     Peak level 100.0 %
     Extraction speed 6.7 X
     Track quality 100.0 %
     Test CRC 11C5F988
     Copy CRC 11C5F988
     Track not present in AccurateRip database
     Copy OK

Track  9

     Filename C:\EAC\09 - Wherever This Goes.wav

     Peak level 100.0 %
     Extraction speed 6.9 X
     Track quality 100.0 %
     Test CRC 765E5B41
     Copy CRC 765E5B41
     Track not present in AccurateRip database
     Copy OK

Track 10

     Filename C:\EAC\10 - Shadow and a Dancer.wav

     Peak level 100.0 %
     Extraction speed 6.2 X
     Track quality 99.9 %
     Test CRC 8439A2B3
     Copy CRC 8439A2B3
     Track not present in AccurateRip database
     Copy OK

Track 11

     Filename C:\EAC\11 - Same as You.wav

     Peak level 100.0 %
     Extraction speed 6.7 X
     Track quality 99.9 %
     Test CRC 41648C0F
     Copy CRC 41648C0F
     Track not present in AccurateRip database
     Copy OK

None of the tracks are present in the AccurateRip database

No errors occurred

End of status report

---- CUETools DB Plugin V2.1.3

[CTDB TOCID: 62QaxepdpOg9f3gAJjQGjy_VfrU-] found, Submit result: already submitted
[60840876] (1/1) Accurately ripped

==== Log checksum 35B696842F66A17834DC604F761AA82B8A10A57FD6C8BBE4417BB3A02E6094D8 ====
Код:
Код:
-----------------------

DON'T MODIFY THIS FILE

-----------------------

PERFORMER: auCDtect Task Manager, ver. 1.6.0 RC1 build 1.6.0.1
Copyright (c) 2008-2010 y-soft. All rights reserved
http:/y-soft.org

ANALYZER: auCDtect: CD records authenticity detector, version 0.8.2
Copyright (c) 2004 Oleg Berngardt. All rights reserved.
Copyright (c) 2004 Alexander Djourik. All rights reserved.

FILE: 11 - Same as You.flac
  Size: 34953061 Hash: D9A6C3A7E8F5C2B81679D20837FE1F3F Accuracy: -m0
  Conclusion: CDDA 100%
  Signature: 2A6993BBA5D8493D4BDAFA4160486B6431979B28
FILE: 10 - Shadow and a Dancer.flac
  Size: 33505560 Hash: 7270FFD9E52D04F4D9A601343F41D59C Accuracy: -m0
  Conclusion: CDDA 99%
  Signature: B694E0D81009DB7850E74F99D0FA5471191510AD
FILE: 09 - Wherever This Goes.flac
  Size: 26118410 Hash: 5EF4A863130C1204F586E27414248089 Accuracy: -m0
  Conclusion: CDDA 100%
  Signature: ECA9586A090490F82E2B53A19EF382C4B6B31F9D
FILE: 08 - Break Your Plans.flac
  Size: 23652848 Hash: 82CAD1864408082088D33440EA330C6E Accuracy: -m0
  Conclusion: CDDA 100%
  Signature: CB0ADB92467DC575101F9A795FD1A899C4BDD36C
FILE: 07 - Our Last Days.flac
  Size: 25792508 Hash: 77CB84A9558EBB64D4FDB48632F49D80 Accuracy: -m0
  Conclusion: CDDA 100%
  Signature: 8231D9172E88AD53228288BA63B7FF42A500DB56
FILE: 06 - Keep on Wanting.flac
  Size: 34024683 Hash: B5895AA83777DB24B13FB040206C3DCF Accuracy: -m0
  Conclusion: CDDA 100%
  Signature: 2B5B4483ECD598962D4B26E18044D3400D005795
FILE: 05 - Hurricane.flac
  Size: 29654863 Hash: E85BBA8B54A7B6BD2D6D3CD25BD6417F Accuracy: -m0
  Conclusion: CDDA 100%
  Signature: 1450B4539C9CF677C96C5F7CFA9A4407DB00B5DA
FILE: 04 - Closer to Me.flac
  Size: 22466921 Hash: 6D1E3CEB2C37B5B7F662847A6A1975CD Accuracy: -m0
  Conclusion: CDDA 100%
  Signature: BAD8763CAA7EB7E6FD8808A5164CA30B0CC34A31
FILE: 03 - Give It Away.flac
  Size: 26181640 Hash: FE7FEA3EC19A666EDDAA64BAB0BC7CF7 Accuracy: -m0
  Conclusion: CDDA 100%
  Signature: BA87B43DC921B5245AD2ECAF68518E8477D141D4
FILE: 02 - Love Don't Die.flac
  Size: 22568792 Hash: CED2491AD62F32B099BBAA2C95E4CA1C Accuracy: -m0
  Conclusion: CDDA 100%
  Signature: CF69AEC8CC55229AC262650833C86EC0EEBA2EF9
FILE: 01 - Hold My Hand.flac
  Size: 26751829 Hash: 9B882D07545772A40C8F336DD25B5084 Accuracy: -m0
  Conclusion: CDDA 100%
  Signature: 5FDAC038D634DDD7AC3D33425AC89BE0C20547F4
Правила, инструкции, FAQ!!!
Торрент  Добавлен [16 мар 2014, 00:40] Скачать торрент Магнет ссылка
Скачать торрент
[ Размер 24.98 КБ / Просмотров 25 ]

Статус  
 
Размер  291.62 МБ
Приватный: Нет (DHT включён)
.torrent скачан  1
 


     Отправить личное сообщение
   
Страница 1 из 1
Показать сообщения за:  Поле сортировки  
Начать новую тему Ответить на тему


Сейчас этот форум просматривают: нет зарегистрированных пользователей и гости: 0


Вы не можете начинать темы
Вы не можете отвечать на сообщения
Вы не можете редактировать свои сообщения
Вы не можете удалять свои сообщения
Вы не можете добавлять вложения

Перейти:  
cron