Начать новую тему Ответить на тему
Статистика раздачи
Размер: 456.58 МБ | Добавлен: 05 дек 2013, 10:36 | Скачали: 0
Сидеров: 1  [0 байт/сек]    Личеров: 0  [0 байт/сек]
Пред. тема | След. тема 

Автор
Сообщение

СообщениеДобавлено: 05 дек 2013, 10:36 

Ответить с цитатой 

The Flock - 2 Альбома (1969-1970) CD released 1996

Жанр: Jazz Rock
Cтрана: US
Год: 1969/1970
Год выпуска дисков: 1996
Label: One Way Records
Аудио кодек: APE
Тип рипа: image+.cue
Битрейт аудио: lossless
Продолжительность: 01:26:16
Наличие сканов в раздаче: да
Спасибо: DavidC
    Band:
    Tom Webb (sax, flute, vocals & lyricist),
    Jerry Smith (bass & vocals),
    Frank Posa (trumpet & posaphone),
    Ron Karpman (drums & vocals),
    Jerry Goodman (violin, guitar & vocals),
    Fred Glickstein (Hammond organ, vocals, guitar & lyricist),
    John Gerber (sax, flute & banjo),
    Rick Canoff (vocals, sax & lyricist)

Одни из хронологических пионеров североамериканского прогрессив-рока. Корни The Flock уходят в 1965 год. Тогда чикагские музыканты Рик Кэнофф и Фред Гликштейн сформировали "гаражный" дуэт Exclusives. Вскоре состав заметно увеличился, название коллектива изменилось, однако на суть происходящего это повлияло слабо: парни продолжали штамповать синглы, периодически раскручиваемые местными радиостанциями. Но лейблы отчего-то не торопились привечать перспективную молодежь. Обстоятельство сильно удручало отцов-основателей, а как свершить прорыв в "горние медиа-сферы" Рик с Фредом не знали. Все решил случай. Вдруг выяснилось, что близкий друг бэнда Джерри Гудмен - виртуозный скрипач. Поразмыслив, приятели рекрутировали его в команду. Чуть погодя туда же влились двое духовиков. И к 1969 г. The Flock выглядели следующим образом: Рик Кэнофф (вокал, тенор-саксофон), Фред Гликштейн (гитара, вокал), Джерри Смит (бас, вокал), Рон Карпмен (ударные), Джерри Гудмен (скрипка, гитара, вокал), Том Уэбб (тенор-саксофон, флейта, гармоника), Фрэнк Роса (труба). Оригинальный саунд ансамбля привлек внимание менеджеров старейшей (учреждена в 1889 г.) звукозаписывающей фирмы Columbia. И дальше началось восхождение ребят к вершинам успеха...
Sergei Uvaroff
#777
The Flock
Год: 1969
Catalog#: A 26657
Продолжительность: 00:45:23
Трек лист:
01. Introduction (4:53)
02. Clown (7:45)
03. I Am The Tall Tree (5:39)
04. Tired Of Waiting (4:40)
05. Store Bought - Store Thought (7:02)
06. Truth (15:23)
Код:
Код:
Exact Audio Copy V0.99 prebeta 1 from 25. May 2007

EAC extraction logfile from 23. March 2008, 12:52

The Flock / The Flock

Used drive  : HL-DT-STDVD-RAM GSA-H55N   Adapter: 0  ID: 0

Read mode               : Secure
Utilize accurate stream : Yes
Defeat audio cache      : Yes
Make use of C2 pointers : No

Read offset correction                      : 102
Overread into Lead-In and Lead-Out          : No
Fill up missing offset samples with silence : Yes
Delete leading and trailing silent blocks   : No
Used interface                              : Native Win32 interface for Win NT & 2000

Used output format : Internal WAV Routines
Sample format      : 44.100 Hz; 16 Bit; Stereo

TOC of the extracted CD

     Track |   Start  |  Length  | Start sector | End sector
    ---------------------------------------------------------
        1  |  0:00.00 |  4:53.30 |         0    |    22004
        2  |  4:53.30 |  7:44.63 |     22005    |    56867
        3  | 12:38.18 |  5:39.25 |     56868    |    82317
        4  | 18:17.43 |  4:40.12 |     82318    |   103329
        5  | 22:57.55 |  7:01.38 |    103330    |   134942
        6  | 29:59.18 | 15:23.35 |    134943    |   204202

Range status and errors

Selected range

     Filename G:\Audio\The Flock - © 1969 - The Flock\The Flock - © 1969 - The Flock.wav

     Peak level 100.0 %
     Range quality 100.0 %
     Copy CRC 081009BF
     Copy OK

AccurateRip summary

Track  1  not present in database
Track  2  not present in database
Track  3  not present in database
Track  4  not present in database
Track  5  not present in database
Track  6  not present in database

No errors occurred

End of status report
Код:
Код:
-----------------------

DON'T MODIFY THIS FILE

-----------------------

PERFORMER: auCDtect Task Manager, ver. 1.6.0 RC1 build 1.6.0.1
Copyright (c) 2008-2010 y-soft. All rights reserved
http:/y-soft.org

ANALYZER: auCDtect: CD records authenticity detector, version 0.8.2
Copyright (c) 2004 Oleg Berngardt. All rights reserved.
Copyright (c) 2004 Alexander Djourik. All rights reserved.

FILE: The Flock - © 1969 - The Flock.ape
  Size: 248279108 Hash: B95A608EC8471B0E2685FD52B6938AC0 Accuracy: -m0
  Conclusion: CDDA 100%
  Signature: 4DCEB954C499B71E7E2922C46601A5ED081A2197
#777
Dinosaur Swamps
Год: 1970
Catalog#: A 26658
Продолжительность: 00:40:54
Трек лист:
01. Green Slice (2:03)
02. Big Bird (5:50)
03. Hornschmeyer's Island (7:26)
04. Lighthouse (5:18)
05. Crabfoot (8:14)
06. Mermaid (4:54)
07. Uranian Sircus (7:09)
Код:
Код:
Exact Audio Copy V0.99 prebeta 1 from 25. May 2007

EAC extraction logfile from 23. March 2008, 12:33

The Flock / Dinosaur Swamps

Used drive  : HL-DT-STDVD-RAM GSA-H55N   Adapter: 0  ID: 0

Read mode               : Secure
Utilize accurate stream : Yes
Defeat audio cache      : Yes
Make use of C2 pointers : No

Read offset correction                      : 102
Overread into Lead-In and Lead-Out          : No
Fill up missing offset samples with silence : Yes
Delete leading and trailing silent blocks   : No
Used interface                              : Native Win32 interface for Win NT & 2000

Used output format : Internal WAV Routines
Sample format      : 44.100 Hz; 16 Bit; Stereo

TOC of the extracted CD

     Track |   Start  |  Length  | Start sector | End sector
    ---------------------------------------------------------
        1  |  0:00.00 |  2:02.63 |         0    |     9212
        2  |  2:02.63 |  5:50.17 |      9213    |    35479
        3  |  7:53.05 |  7:25.58 |     35480    |    68912
        4  | 15:18.63 |  5:17.72 |     68913    |    92759
        5  | 20:36.60 |  8:13.60 |     92760    |   129794
        6  | 28:50.45 |  4:53.53 |    129795    |   151822
        7  | 33:44.23 |  7:09.15 |    151823    |   184012

Range status and errors

Selected range

     Filename G:\Audio\The Flock - © 1970 - Dinosaur Swamps\The Flock - © 1970 - Dinosaur Swamps.wav

     Peak level 64.2 %
     Range quality 100.0 %
     Copy CRC A6A48592
     Copy OK

AccurateRip summary

Track  1  not present in database
Track  2  not present in database
Track  3  not present in database
Track  4  not present in database
Track  5  not present in database
Track  6  not present in database
Track  7  not present in database

No errors occurred

End of status report
Код:
Код:
-----------------------

DON'T MODIFY THIS FILE

-----------------------

PERFORMER: auCDtect Task Manager, ver. 1.6.0 RC1 build 1.6.0.1
Copyright (c) 2008-2010 y-soft. All rights reserved
http:/y-soft.org

ANALYZER: auCDtect: CD records authenticity detector, version 0.8.2
Copyright (c) 2004 Oleg Berngardt. All rights reserved.
Copyright (c) 2004 Alexander Djourik. All rights reserved.

FILE: The Flock - © 1970 - Dinosaur Swamps.ape
  Size: 229014232 Hash: 1DC44DDE57947D7C1208BAF549A47817 Accuracy: -m0
  Conclusion: CDDA 100%
  Signature: 3F27FAA711BFD89C83DA05CE0FD77DFE248C15FB
Правила, инструкции, FAQ!!!
Торрент  Добавлен [05 дек 2013, 10:36] Скачать торрент Магнет ссылка
Скачать торрент
[ Размер 20.05 КБ / Просмотров 19 ]

Статус  
 
Размер  456.58 МБ
Приватный: Нет (DHT включён)
.torrent скачан  0
 


     Отправить личное сообщение
   
Страница 1 из 1
Показать сообщения за:  Поле сортировки  
Начать новую тему Ответить на тему


Сейчас этот форум просматривают: нет зарегистрированных пользователей и гости: 0


Вы не можете начинать темы
Вы не можете отвечать на сообщения
Вы не можете редактировать свои сообщения
Вы не можете удалять свои сообщения
Вы не можете добавлять вложения

Перейти:  
cron
cron