Начать новую тему Ответить на тему
Статистика раздачи
Размер: 419.76 МБ | Добавлен: 16 мар 2014, 00:54 | Скачали: 0
Сидеров: 1  [0 байт/сек]    Личеров: 0  [0 байт/сек]
Пред. тема | След. тема 

Автор
Сообщение

СообщениеДобавлено: 16 мар 2014, 00:54 

Ответить с цитатой 

The Escape - Faith And Decay (1999)

Год: 1999
Жанр: Gothic-Rock, Darkwave
Продолжительность: 1:05:02

Кодек: FLAC
Битрейт: Lossless
Тип битрейта: VBR

Треклист:
01. Where Have You Been (6:13)
02. Tears In December (5:10)
03. I Remember (5:21)
04. Fear (4:04)
05. Pale Angel (3:18)
06. End Of Time (5:08)
07. The Final Curtain (6:21)
08. Psychosis (5:26)
09. Inner Silence (4:32)
10. Under Ice (4:31)
11. Inside (5:25)
12. Illomened (2:35)
13. Point Of No Return (6:52)
Код:
Код:
Exact Audio Copy V0.99 prebeta 4 from 23. January 2008
EAC extraction logfile from 11. May 2009, 21:01
The Escape / Faith And Decay
[code]Used drive : HL-DT-STDVD-RAM GSA-H55N Adapter: 4 ID: 0
Read mode : Secure
Utilize accurate stream : Yes
Defeat audio cache : Yes
Make use of C2 pointers : No
Read offset correction : 102
Overread into Lead-In and Lead-Out : No
Fill up missing offset samples with silence : Yes
Delete leading and trailing silent blocks : No
Null samples used in CRC calculations : Yes
Used interface : Installed external ASPI interface
Used output format : User Defined Encoder
Selected bitrate : 1024 kBit/s[/code]
Quality : High
Add ID3 tag : No
Command line compressor : C:\Program Files\Exact Audio Copy\FLAC\FLAC.EXE
Additional command line options : -6 -V -T "ARTIST=%a" -T "TITLE=%t" -T "ALBUM=%g" -T "DATE=%y" -T "TRACKNUMBER=%n" -T "GENRE=%m" -T "COMMENT=%e" %s -o %d
TOC of the extracted CD
Track | Start | Length | Start sector | End sector
---------------------------------------------------------
1 | 0:00.00 | 6:13.22 | 0 | 27996
2 | 6:13.22 | 5:10.46 | 27997 | 51292
3 | 11:23.68 | 5:21.05 | 51293 | 75372
4 | 16:44.73 | 4:03.56 | 75373 | 93653
5 | 20:48.54 | 3:18.25 | 93654 | 108528
6 | 24:07.04 | 5:08.71 | 108529 | 131699
7 | 29:16.00 | 6:21.68 | 131700 | 160342
8 | 35:37.68 | 5:26.44 | 160343 | 184836
9 | 41:04.37 | 4:32.49 | 184837 | 205285
10 | 45:37.11 | 4:31.66 | 205286 | 225676
11 | 50:09.02 | 5:25.41 | 225677 | 250092
12 | 55:34.43 | 2:35.01 | 250093 | 261718
13 | 58:09.44 | 6:52.17 | 261719 | 292635
Range status and errors
Selected range
Filename G:\The Escape - Faith And Decay.wav
Peak level 100.0 %
Range quality 100.0 %
Copy CRC CA5D0595
Copy OK
No errors occurred
End of status report
Код:
Код:
-----------------------

DON'T MODIFY THIS FILE

-----------------------

PERFORMER: auCDtect Task Manager, ver. 1.6.0 RC1 build 1.6.0.1
Copyright (c) 2008-2010 y-soft. All rights reserved
http:/y-soft.org

ANALYZER: auCDtect: CD records authenticity detector, version 0.8.2
Copyright (c) 2004 Oleg Berngardt. All rights reserved.
Copyright (c) 2004 Alexander Djourik. All rights reserved.

FILE: The Escape - Faith And Decay.flac
  Size: 440112508 Hash: 5695AD087915E61870051F803C572571 Accuracy: -m0
  Conclusion: CDDA 100%
  Signature: 29CAA46155AA9F95392944C2428F51A5D250C5A0
Правила, инструкции, FAQ!!!
Торрент  Добавлен [16 мар 2014, 00:54] Скачать торрент Магнет ссылка
Скачать торрент
[ Размер 33.77 КБ / Просмотров 10 ]

Статус  
 
Размер  419.76 МБ
Приватный: Нет (DHT включён)
.torrent скачан  0
 


     Отправить личное сообщение
   
Страница 1 из 1
Показать сообщения за:  Поле сортировки  
Начать новую тему Ответить на тему


Сейчас этот форум просматривают: нет зарегистрированных пользователей и гости: 0


Вы не можете начинать темы
Вы не можете отвечать на сообщения
Вы не можете редактировать свои сообщения
Вы не можете удалять свои сообщения
Вы не можете добавлять вложения

Перейти:  
cron