Начать новую тему Ответить на тему
Статистика раздачи
Размер: 291.12 МБ | Добавлен: 16 мар 2014, 00:19 | Скачали: 2
Сидеров: 4  [0 байт/сек]    Личеров: 2  [0 байт/сек]
Пред. тема | След. тема 

Автор
Сообщение

СообщениеДобавлено: 16 мар 2014, 00:19 

Ответить с цитатой 

The Doors - Remixed And Ready (2007)

Год: 2007
Жанр: Electronic, Rock
Продолжительность: 00:48:12
Издатель (лейбл): Rhino Entertainment Company
Номер по каталогу: 45 PRCD 400185-2
Страна: US
Кодек: FLAC
Битрейт: Lossless

Треклист:
01. (Excerpt) Break On Through (Rock Version)
02. Hello, I Love You (Adam Freeland Remix)
03. Petrified (Fort Minor Remix)
04. Strange Days (Thievery Corporation Remix)
05. L.A. Woman (Paul Oakenfold Remix)
06. Love Me Two Times (Infected Mushroom Remix)
07. People Are Strange (Infected Mushroom Remix)
08. Roadhouse Blues (Crystal Method Remix)
09. Roadhouse Blues (Crystal Method Dub Version)
10. When The Music's Over (DJ Lethal Remix)
11. Rapture Riders (Blondie Vs. The Doors)
Код:
Код:
Exact Audio Copy V1.0 beta 3 from 29. August 2011

EAC extraction logfile from 10. May 2012, 15:29

The Doors / Remixed And Ready

Used drive  : HL-DT-STDVD-RAM GSA-H55N   Adapter: 0  ID: 0

Read mode               : Secure
Utilize accurate stream : Yes
Defeat audio cache      : Yes
Make use of C2 pointers : No

Read offset correction                      : 102
Overread into Lead-In and Lead-Out          : No
Fill up missing offset samples with silence : Yes
Delete leading and trailing silent blocks   : No
Null samples used in CRC calculations       : Yes
Used interface                              : Native Win32 interface for Win NT & 2000
Gap handling                                : Appended to previous track

Used output format              : User Defined Encoder
Selected bitrate                : 128 kBit/s
Quality                         : High
Add ID3 tag                     : No
Command line compressor         : C:\Program Files (x86)\Exact Audio Copy\Flac\flac.exe
Additional command line options : -V -8 -T "Genre=%genre%" -T "Artist=%artist%" -T "Title=%title%" -T "Album=%albumtitle%" -T "Date=%year%" -T "Tracknumber=%tracknr%" -T "Comment=%comment%" %source%

TOC of the extracted CD

     Track |   Start  |  Length  | Start sector | End sector
    ---------------------------------------------------------
        1  |  0:00.00 |  1:51.30 |         0    |     8354
        2  |  1:51.30 |  3:47.16 |      8355    |    25395
        3  |  5:38.46 |  3:45.16 |     25396    |    42286
        4  |  9:23.62 |  4:32.19 |     42287    |    62705
        5  | 13:56.06 |  4:21.40 |     62706    |    82320
        6  | 18:17.46 |  4:00.12 |     82321    |   100332
        7  | 22:17.58 |  4:58.69 |    100333    |   122751
        8  | 27:16.52 |  4:59.06 |    122752    |   145182
        9  | 32:15.58 |  6:22.29 |    145183    |   173861
       10  | 38:38.12 |  3:53.53 |    173862    |   191389
       11  | 42:31.65 |  5:41.08 |    191390    |   216972

Track  1

     Filename L:\Indie, Post-Rock, Rock (lossless)\The Doors - Remixed And Ready - FLAC - 2007\01. (Excerpt) Break On Through (Rock Version).wav

     Pre-gap length  0:00:02.00

     Peak level 100.0 %
     Extraction speed 0.9 X
     Track quality 99.8 %
     Test CRC A75F727F
     Copy CRC A75F727F
     Accurately ripped (confidence 1)  [7095A2A8]  (AR v2)
     Copy OK

Track  2

     Filename L:\Indie, Post-Rock, Rock (lossless)\The Doors - Remixed And Ready - FLAC - 2007\02. Hello, I Love You (Adam Freeland Remix).wav

     Pre-gap length  0:00:02.00

     Peak level 100.0 %
     Extraction speed 1.3 X
     Track quality 99.9 %
     Test CRC D8D7BF5E
     Copy CRC D8D7BF5E
     Accurately ripped (confidence 1)  [D7BB14CC]  (AR v2)
     Copy OK

Track  3

     Filename L:\Indie, Post-Rock, Rock (lossless)\The Doors - Remixed And Ready - FLAC - 2007\03. Petrified (Fort Minor Remix).wav

     Pre-gap length  0:00:02.00

     Peak level 100.0 %
     Extraction speed 1.9 X
     Track quality 100.0 %
     Test CRC 25D6D31B
     Copy CRC 25D6D31B
     Accurately ripped (confidence 1)  [36B6FF6C]  (AR v2)
     Copy OK

Track  4

     Filename L:\Indie, Post-Rock, Rock (lossless)\The Doors - Remixed And Ready - FLAC - 2007\04. Strange Days (Thievery Corporation Remix).wav

     Pre-gap length  0:00:02.00

     Peak level 100.0 %
     Extraction speed 1.9 X
     Track quality 99.9 %
     Test CRC 0EB547E9
     Copy CRC 0EB547E9
     Accurately ripped (confidence 1)  [15A6C9A6]  (AR v2)
     Copy OK

Track  5

     Filename L:\Indie, Post-Rock, Rock (lossless)\The Doors - Remixed And Ready - FLAC - 2007\05. L.A. Woman (Paul Oakenfold Remix).wav

     Pre-gap length  0:00:02.00

     Peak level 100.0 %
     Extraction speed 2.2 X
     Track quality 100.0 %
     Test CRC 23CF5156
     Copy CRC 23CF5156
     Accurately ripped (confidence 1)  [45A389DC]  (AR v2)
     Copy OK

Track  6

     Filename L:\Indie, Post-Rock, Rock (lossless)\The Doors - Remixed And Ready - FLAC - 2007\06. Love Me Two Times (Infected Mushroom Remix).wav

     Pre-gap length  0:00:02.00

     Peak level 100.0 %
     Extraction speed 2.3 X
     Track quality 100.0 %
     Test CRC AD9A6526
     Copy CRC AD9A6526
     Accurately ripped (confidence 1)  [CCA15790]  (AR v2)
     Copy OK

Track  7

     Filename L:\Indie, Post-Rock, Rock (lossless)\The Doors - Remixed And Ready - FLAC - 2007\07. People Are Strange (Infected Mushroom Remix).wav

     Pre-gap length  0:00:02.00

     Peak level 100.0 %
     Extraction speed 2.5 X
     Track quality 100.0 %
     Test CRC FC168D4E
     Copy CRC FC168D4E
     Accurately ripped (confidence 1)  [B1DCBB2A]  (AR v2)
     Copy OK

Track  8

     Filename L:\Indie, Post-Rock, Rock (lossless)\The Doors - Remixed And Ready - FLAC - 2007\08. Roadhouse Blues (Crystal Method Remix).wav

     Pre-gap length  0:00:02.00

     Peak level 100.0 %
     Extraction speed 2.7 X
     Track quality 100.0 %
     Test CRC E5EF61C0
     Copy CRC E5EF61C0
     Accurately ripped (confidence 1)  [22CC72FC]  (AR v2)
     Copy OK

Track  9

     Filename L:\Indie, Post-Rock, Rock (lossless)\The Doors - Remixed And Ready - FLAC - 2007\09. Roadhouse Blues (Crystal Method Dub Version).wav

     Pre-gap length  0:00:02.00

     Peak level 100.0 %
     Extraction speed 2.9 X
     Track quality 100.0 %
     Test CRC 2AFC2907
     Copy CRC 2AFC2907
     Accurately ripped (confidence 1)  [CDEC21E9]  (AR v2)
     Copy OK

Track 10

     Filename L:\Indie, Post-Rock, Rock (lossless)\The Doors - Remixed And Ready - FLAC - 2007\10. When The Music's Over (DJ Lethal Remix).wav

     Pre-gap length  0:00:02.00

     Peak level 77.7 %
     Extraction speed 2.5 X
     Track quality 99.9 %
     Test CRC 4AD9FAB5
     Copy CRC 4AD9FAB5
     Accurately ripped (confidence 1)  [E16D9BF7]  (AR v2)
     Copy OK

Track 11

     Filename L:\Indie, Post-Rock, Rock (lossless)\The Doors - Remixed And Ready - FLAC - 2007\11. Rapture Riders (Blondie Vs. The Doors).wav

     Pre-gap length  0:00:02.00

     Peak level 100.0 %
     Extraction speed 3.2 X
     Track quality 100.0 %
     Test CRC F3404145
     Copy CRC F3404145
     Accurately ripped (confidence 1)  [9BCE2CFB]  (AR v2)
     Copy OK

All tracks accurately ripped

No errors occurred

End of status report

==== Log checksum B25F9325DBF8B943FD915AE6DC6B3D238B6B9EA4AAE5673BDFEB2DCB42AFAA75 ====
Код:
Код:
-----------------------

DON'T MODIFY THIS FILE

-----------------------

PERFORMER: auCDtect Task Manager, ver. 1.6.0 RC1 build 1.6.0.1
Copyright (c) 2008-2010 y-soft. All rights reserved
http:/y-soft.org

ANALYZER: auCDtect: CD records authenticity detector, version 0.8.2
Copyright (c) 2004 Oleg Berngardt. All rights reserved.
Copyright (c) 2004 Alexander Djourik. All rights reserved.

FILE: 11. Rapture Riders (Blondie Vs. The Doors).flac
  Size: 36556278 Hash: 87C7622552B55262126DF0527F9E79DA Accuracy: -m0
  Conclusion: MPEG 95%
  Signature: 89BA4C9C940078A30438F15422E9A4C35740473A
FILE: 10. When The Music's Over (DJ Lethal Remix).flac
  Size: 19158859 Hash: A84F7B60315B587542CD2B3B057A2B6E Accuracy: -m0
  Conclusion: MPEG 95%
  Signature: 1D6B9308954240A2ECE4CCA37D734A5B7A39D98F
FILE: 09. Roadhouse Blues (Crystal Method Dub Version).flac
  Size: 39616376 Hash: 019D122100C93D20904EF42C72015932 Accuracy: -m0
  Conclusion: MPEG 95%
  Signature: 7365D8110260CFBCBA27F1A9FA8F469F9A2BBCFD
FILE: 08. Roadhouse Blues (Crystal Method Remix).flac
  Size: 34044978 Hash: 07C85C81A31FB8066846DA515FA9D5C1 Accuracy: -m0
  Conclusion: MPEG 95%
  Signature: A71FB7695F5A24D8446AC9133E7840CE5198DE8F
FILE: 07. People Are Strange (Infected Mushroom Remix).flac
  Size: 27503360 Hash: 9D68DBCBDBCC5F32F22E8A4CFCD31D52 Accuracy: -m0
  Conclusion: MPEG 95%
  Signature: 4BB295B88404E1C0FC151BC08B72381C5372CBF7
FILE: 06. Love Me Two Times (Infected Mushroom Remix).flac
  Size: 25824247 Hash: 961ACD0C3087D46B447291526C7E0705 Accuracy: -m0
  Conclusion: MPEG 95%
  Signature: 953245CCA6C39D38E83A75D37F4DF1BB313822F1
FILE: 05. L.A. Woman (Paul Oakenfold Remix).flac
  Size: 31491770 Hash: 999CC7733EAC9B3F622176BFFB640FF1 Accuracy: -m0
  Conclusion: CDDA 100%
  Signature: 6769F19DA7CFB32D8C074FA4BCB3D87981356F1B
FILE: 04. Strange Days (Thievery Corporation Remix).flac
  Size: 28232986 Hash: 3E08B3C919014E8EEB77DD184CFF3FC2 Accuracy: -m0
  Conclusion: MPEG 95%
  Signature: 9B45DCF8391F235A0E518242A0306C37A95608A7
FILE: 03. Petrified (Fort Minor Remix).flac
  Size: 21618966 Hash: 9BAE1CBDE92B6010D68B9A15F0B611AE Accuracy: -m0
  Conclusion: MPEG 95%
  Signature: 4241699A2CFA8C0CA996C854F83134AA53365C7F
FILE: 02. Hello, I Love You (Adam Freeland Remix).flac
  Size: 26348247 Hash: FFFD38F402F8199A41FB8A33BFE4153E Accuracy: -m0
  Conclusion: MPEG 95%
  Signature: 53FB38F014C2E1E46B5AA9ECF854EAE5E083EA78
FILE: 01. (Excerpt) Break On Through (Rock Version).flac
  Size: 10859358 Hash: 81D8FB371DC06906FC030A93EFAF243E Accuracy: -m0
  Conclusion: CDDA 100%
  Signature: B7C59D0449A498389DAA17C1843B0A7DD6B72A11


Правила, инструкции, FAQ!!!
Торрент  Добавлен [16 мар 2014, 00:19] Скачать торрент Магнет ссылка
Скачать торрент
[ Размер 14.06 КБ / Просмотров 47 ]

Статус  
 
Размер  291.12 МБ
Приватный: Нет (DHT включён)
.torrent скачан  2
 


     Отправить личное сообщение
   
Страница 1 из 1
Показать сообщения за:  Поле сортировки  
Начать новую тему Ответить на тему


Сейчас этот форум просматривают: нет зарегистрированных пользователей и гости: 0


Вы не можете начинать темы
Вы не можете отвечать на сообщения
Вы не можете редактировать свои сообщения
Вы не можете удалять свои сообщения
Вы не можете добавлять вложения

Перейти:  
cron