Начать новую тему Ответить на тему
Статистика раздачи
Размер: 318.42 МБ | Добавлен: 16 мар 2014, 00:55 | Скачали: 0
Сидеров: 1  [0 байт/сек]    Личеров: 0  [0 байт/сек]
Пред. тема | След. тема 

Автор
Сообщение

СообщениеДобавлено: 16 мар 2014, 00:55 

Ответить с цитатой 

The Dismemberment Plan - Emergency & I (1999)

Год: 1999
Жанр: Indie Rock
Продолжительность: 00:45:13
Кодек: FLAC
Битрейт: Lossless
Тип битрейта: VBR
Треклист:
The Dismemberment Plan - A Life of Possibilities [04:34]
Memory Machine [02:43]
What Do You Want Me to Say? [04:18]
Spider in the Snow [03:50]
The Jitters [04:19]
I Love a Magician [02:38]
You Are Invited [04:52]
Gyroscope [02:29]
The City [04:26]
Girl O' Clock [02:54]
8 1/2 Minutes [02:57]
Back and Forth [05:07]
Код:
Код:
Exact Audio Copy V0.99 prebeta 3 from 28. July 2007

EAC extraction logfile from 20. August 2010, 19:54

The Dismemberment Plan / Emergency & I

Used drive  : VKBKPC  LAZ8L6JO   Adapter: 2  ID: 0

Read mode               : Secure
Utilize accurate stream : Yes
Defeat audio cache      : Yes
Make use of C2 pointers : Yes

Read offset correction                      : 0
Overread into Lead-In and Lead-Out          : No
Fill up missing offset samples with silence : Yes
Delete leading and trailing silent blocks   : No
Null samples used in CRC calculations       : No
Used interface                              : Installed external ASPI interface
Gap handling                                : Not detected, thus appended to previous track

Used output format : Internal WAV Routines
Sample format      : 44.100 Hz; 16 Bit; Stereo

TOC of the extracted CD

     Track |   Start  |  Length  | Start sector | End sector
    ---------------------------------------------------------
        1  |  0:00.00 |  4:34.54 |         0    |    20603
        2  |  4:34.54 |  2:43.09 |     20604    |    32837
        3  |  7:17.63 |  4:18.25 |     32838    |    52212
        4  | 11:36.13 |  3:50.41 |     52213    |    69503
        5  | 15:26.54 |  4:19.33 |     69504    |    88961
        6  | 19:46.12 |  2:38.52 |     88962    |   100863
        7  | 22:24.64 |  4:52.17 |    100864    |   122780
        8  | 27:17.06 |  2:29.66 |    122781    |   134021
        9  | 29:46.72 |  4:26.60 |    134022    |   154031
       10  | 34:13.57 |  2:54.67 |    154032    |   167148
       11  | 37:08.49 |  2:57.27 |    167149    |   180450
       12  | 40:06.01 |  5:07.46 |    180451    |   203521

Track  1

     Filename D:\Temp\Audio\DP\01 - A Life of Possibilities.wav

     Peak level 96.6 %
     Track quality 100.0 %
     Copy CRC CDDE1191
     Accurately ripped (confidence 25)  [8CC28A97]
     Copy OK

Track  2

     Filename Filename D:\Temp\Audio\DP\02 - Memory Machine.wav

     Peak level 96.6 %
     Track quality 100.0 %
     Copy CRC 8F94D9B4
     Accurately ripped (confidence 25)  [5F241B42]
     Copy OK

Track  3

     Filename D:\Temp\Audio\DP\03 - What Do You Want Me to Say .wav

     Peak level 96.6 %
     Track quality 100.0 %
     Copy CRC 98136147
     Accurately ripped (confidence 25)  [F87A6C7E]
     Copy OK

Track  4

     Filename D:\Temp\Audio\DP\04 - Spider in the Snow.wav

     Peak level 96.6 %
     Track quality 100.0 %
     Copy CRC 0EDF35CD
     Accurately ripped (confidence 26)  [910AE034]
     Copy OK

Track  5

     Filename D:\Temp\Audio\DP\05 - The Jitters.wav

     Peak level 96.6 %
     Track quality 100.0 %
     Copy CRC C058F4AA
     Accurately ripped (confidence 26)  [906C86DA]
     Copy OK

Track  6

     Filename D:\Temp\Audio\DP\06 - I Love a Magician.wav

     Peak level 96.6 %
     Track quality 100.0 %
     Copy CRC 72A8C9F6
     Accurately ripped (confidence 26)  [C9804A01]
     Copy OK

Track  7

     Filename D:\Temp\Audio\DP\07 - You Are Invited.wav

     Peak level 96.6 %
     Track quality 100.0 %
     Copy CRC 3F57C94C
     Accurately ripped (confidence 26)  [28C48954]
     Copy OK

Track  8

     Filename D:\Temp\Audio\DP\08 - Gyroscope.wav

     Peak level 96.6 %
     Track quality 100.0 %
     Copy CRC C42CCB67
     Accurately ripped (confidence 26)  [1FCDFA59]
     Copy OK

Track  9

     Filename D:\Temp\Audio\DP\09 - The City.wav

     Peak level 96.6 %
     Track quality 99.9 %
     Copy CRC E54528C3
     Accurately ripped (confidence 27)  [F7B6C64C]
     Copy OK

Track 10

     Filename D:\Temp\Audio\DP\10 - Girl O' Clock.wav

     Peak level 96.6 %
     Track quality 100.0 %
     Copy CRC C86EC286
     Accurately ripped (confidence 26)  [6CF04843]
     Copy OK

Track 11

     Filename D:\Temp\Audio\DP\11 - 8 1,2 Minutes.wav

     Peak level 96.6 %
     Track quality 100.0 %
     Copy CRC DACC1CA5
     Accurately ripped (confidence 26)  [E4700527]
     Copy OK

Track 12

     Filename D:\Temp\Audio\DP\12 - Back and Forth.wav

     Peak level 96.6 %
     Track quality 99.9 %
     Copy CRC 987EC37E
     Accurately ripped (confidence 26)  [D593F372]
     Copy OK

All tracks accurately ripped

No errors occurred

End of status report
Код:
Код:
-----------------------

DON'T MODIFY THIS FILE

-----------------------

PERFORMER: auCDtect Task Manager, ver. 1.6.0 RC1 build 1.6.0.1
Copyright (c) 2008-2010 y-soft. All rights reserved
http:/y-soft.org

ANALYZER: auCDtect: CD records authenticity detector, version 0.8.2
Copyright (c) 2004 Oleg Berngardt. All rights reserved.
Copyright (c) 2004 Alexander Djourik. All rights reserved.

FILE: 12 - Back and Forth.flac
  Size: 40884975 Hash: 0B3A46BC034F9D69F9C41CF2E32772D1 Accuracy: -m0
  Conclusion: CDDA 100%
  Signature: 8BDEB4E5E1155845F5F9F83131E9A0816A185104
FILE: 11 - 8 1,2 Minutes.flac
  Size: 22404616 Hash: 0A3E39BC2A9EE19523A8DAEC206E0231 Accuracy: -m0
  Conclusion: CDDA 100%
  Signature: BD75F8CDE6E866B266FE33E37D25302ADFA8A45F
FILE: 10 - Girl O' Clock.flac
  Size: 22813571 Hash: CAB8FBEEF6994C306B4DA6CA05379E4E Accuracy: -m0
  Conclusion: CDDA 100%
  Signature: 9A0D0C29780A98CF11396D95E0585BD1FCC6B802
FILE: 09 - The City.flac
  Size: 33523846 Hash: 2A9FC81B1104C42A7E4B91497E666749 Accuracy: -m0
  Conclusion: CDDA 100%
  Signature: 9ECE99CA15EB350FA4EB40F86770A9A3F922FFD3
FILE: 08 - Gyroscope.flac
  Size: 18927047 Hash: EFA5F6E2A09C37127BD1046893DD2BD2 Accuracy: -m0
  Conclusion: CDDA 100%
  Signature: 83CDF364B2B4EF5C5C51429CE8BF42E508EC15F5
FILE: 07 - You Are Invited.flac
  Size: 30265338 Hash: A8C8430A4A0F3D5EE868A5A993E3975F Accuracy: -m0
  Conclusion: CDDA 100%
  Signature: DCEB2226AB960AB73EEA479A4FEDB300E809B95A
FILE: 06 - I Love a Magician.flac
  Size: 21660525 Hash: 2F399404DEFC0689EB0EBA759DF4EF65 Accuracy: -m0
  Conclusion: CDDA 99%
  Signature: ECC7EB72CB907D4E4AD931547F65CBD36AD9DEAB
FILE: 05 - The Jitters.flac
  Size: 28218014 Hash: C795E52DCDB1F3A119E1E8379F549D86 Accuracy: -m0
  Conclusion: CDDA 100%
  Signature: 7BA55A265BE05DC21E3037509EAD17939F739A19
FILE: 04 - Spider in the Snow.flac
  Size: 27097825 Hash: 60EF646406CA27405DAD0BE594D0CB0A Accuracy: -m0
  Conclusion: CDDA 100%
  Signature: 71E6EE01A63B4E6746BB3FAC6472D6190C61D018
FILE: 03 - What Do You Want Me to Say .flac
  Size: 33080323 Hash: E405A2227A4576968DFAF8682B8D847B Accuracy: -m0
  Conclusion: CDDA 100%
  Signature: 679676ACA6BDC262CF5C9B1957020AE9464218B4
FILE: 02 - Memory Machine.flac
  Size: 22326263 Hash: 040DAB5CF1C7D42AF57B3AA128286EAC Accuracy: -m0
  Conclusion: CDDA 99%
  Signature: E999384BCF76E1CDC68DC1B3D21846AC3A8F890E
FILE: 01 - A Life of Possibilities.flac
  Size: 31903724 Hash: F63EB33DEDD788FE3F4763B4B5566C9B Accuracy: -m0
  Conclusion: CDDA 100%
  Signature: 67AADF3EA6860FE43A946CB944BA80B80E4AB015
Код:
Код:
REM GENRE Indie Rock
REM DATE 1999
REM DISCID B70A990C
REM COMMENT "ExactAudioCopy v0.99pb3"
PERFORMER "The Dismemberment Plan"
TITLE "Emergency & I"
FILE "01 - A Life of Possibilities.wav" WAVE
  TRACK 01 AUDIO
    TITLE "A Life of Possibilities"
    PERFORMER "The Dismemberment Plan"
    INDEX 01 00:00:00
FILE "02 - Memory Machine.wav" WAVE
  TRACK 02 AUDIO
    TITLE "Memory Machine"
    PERFORMER "The Dismemberment Plan"
    INDEX 01 00:00:00
FILE "03 - What Do You Want Me to Say .wav" WAVE
  TRACK 03 AUDIO
    TITLE "What Do You Want Me to Say?"
    PERFORMER "The Dismemberment Plan"
    INDEX 01 00:00:00
FILE "04 - Spider in the Snow.wav" WAVE
  TRACK 04 AUDIO
    TITLE "Spider in the Snow"
    PERFORMER "The Dismemberment Plan"
    INDEX 01 00:00:00
FILE "05 - The Jitters.wav" WAVE
  TRACK 05 AUDIO
    TITLE "The Jitters"
    PERFORMER "The Dismemberment Plan"
    INDEX 01 00:00:00
FILE "06 - I Love a Magician.wav" WAVE
  TRACK 06 AUDIO
    TITLE "I Love a Magician"
    PERFORMER "The Dismemberment Plan"
    INDEX 01 00:00:00
FILE "07 - You Are Invited.wav" WAVE
  TRACK 07 AUDIO
    TITLE "You Are Invited"
    PERFORMER "The Dismemberment Plan"
    INDEX 01 00:00:00
FILE "08 - Gyroscope.wav" WAVE
  TRACK 08 AUDIO
    TITLE "Gyroscope"
    PERFORMER "The Dismemberment Plan"
    INDEX 01 00:00:00
FILE "09 - The City.wav" WAVE
  TRACK 09 AUDIO
    TITLE "The City"
    PERFORMER "The Dismemberment Plan"
    INDEX 01 00:00:00
FILE "10 - Girl O' Clock.wav" WAVE
  TRACK 10 AUDIO
    TITLE "Girl O' Clock"
    PERFORMER "The Dismemberment Plan"
    INDEX 01 00:00:00
FILE "11 - 8 1,2 Minutes.wav" WAVE
  TRACK 11 AUDIO
    TITLE "8 1/2 Minutes"
    PERFORMER "The Dismemberment Plan"
    INDEX 01 00:00:00
FILE "12 - Back and Forth.wav" WAVE
  TRACK 12 AUDIO
    TITLE "Back and Forth"
    PERFORMER "The Dismemberment Plan"
    INDEX 01 00:00:00
Правила, инструкции, FAQ!!!
Торрент  Добавлен [16 мар 2014, 00:55] Скачать торрент Магнет ссылка
Скачать торрент
[ Размер 13.99 КБ / Просмотров 37 ]

Статус  
 
Размер  318.42 МБ
Приватный: Нет (DHT включён)
.torrent скачан  0
 


     Отправить личное сообщение
   
Страница 1 из 1
Показать сообщения за:  Поле сортировки  
Начать новую тему Ответить на тему


Сейчас этот форум просматривают: нет зарегистрированных пользователей и гости: 0


Вы не можете начинать темы
Вы не можете отвечать на сообщения
Вы не можете редактировать свои сообщения
Вы не можете удалять свои сообщения
Вы не можете добавлять вложения

Перейти:  
cron