Начать новую тему Ответить на тему
Статистика раздачи
Размер: 332.04 МБ | Добавлен: 16 мар 2014, 00:55 | Скачали: 4
Сидеров: 0  [0 байт/сек]    Личеров: 0  [0 байт/сек]
Пред. тема | След. тема 

Автор
Сообщение

СообщениеДобавлено: 16 мар 2014, 00:55 

Ответить с цитатой 

The Dismemberment Plan - Change (2001)

Год: 2001
Жанр: Indie Rock
Продолжительность: 00:47:16
Кодек: FLAC
Битрейт: Lossless
Тип битрейта: VBR
Треклист:
Sentimental Man [04:16]
The Face Of The Earth [04:46]
Superpowers [04:48]
Pay For The Piano [03:23]
Come Home [05:05]
Secret Curse [02:50]
Automatic [04:16]
Following Through [04:38]
Time Bomb [04:24]
The Other Side [03:45]
Ellen And Ben [05:01]
Код:
Код:
Exact Audio Copy V0.99 prebeta 3 from 28. July 2007

EAC extraction logfile from 26. July 2011, 23:29

The Dismemberment Plan / Change

Used drive  : VKBKPC  LAZ8L6JO   Adapter: 2  ID: 0

Read mode               : Secure
Utilize accurate stream : Yes
Defeat audio cache      : Yes
Make use of C2 pointers : Yes

Read offset correction                      : 0
Overread into Lead-In and Lead-Out          : No
Fill up missing offset samples with silence : Yes
Delete leading and trailing silent blocks   : No
Null samples used in CRC calculations       : No
Used interface                              : Installed external ASPI interface
Gap handling                                : Not detected, thus appended to previous track

Used output format : Internal WAV Routines
Sample format      : 44.100 Hz; 16 Bit; Stereo

TOC of the extracted CD

     Track |   Start  |  Length  | Start sector | End sector
    ---------------------------------------------------------
        1  |  0:00.00 |  4:16.35 |         0    |    19234
        2  |  4:16.35 |  4:46.16 |     19235    |    40700
        3  |  9:02.51 |  4:48.15 |     40701    |    62315
        4  | 13:50.66 |  3:23.46 |     62316    |    77586
        5  | 17:14.37 |  5:05.17 |     77587    |   100478
        6  | 22:19.54 |  2:50.31 |    100479    |   113259
        7  | 25:10.10 |  4:16.16 |    113260    |   132475
        8  | 29:26.26 |  4:38.54 |    132476    |   153379
        9  | 34:05.05 |  4:24.31 |    153380    |   173210
       10  | 38:29.36 |  3:45.19 |    173211    |   190104
       11  | 42:14.55 |  5:01.52 |    190105    |   212731

Track  1

     D:\Temp\The Dismemberment Plan - 2001 - Change \01 - Sentimental Man.wav

     Peak level 97.9 %
     Track quality 100.0 %
     Copy CRC 7204A5C0
     Accurately ripped (confidence 38)  [45D4FCBB]
     Copy OK

Track  2

     D:\Temp\The Dismemberment Plan - 2001 - Change \02 - The Face Of The Earth.wav

     Peak level 98.1 %
     Track quality 100.0 %
     Copy CRC FE1103C3
     Accurately ripped (confidence 37)  [2F08926D]
     Copy OK

Track  3

     D:\Temp\The Dismemberment Plan - 2001 - Change \03 - Superpowers.wav

     Peak level 99.1 %
     Track quality 100.0 %
     Copy CRC CAF428E7
     Accurately ripped (confidence 36)  [E7CFD39F]
     Copy OK

Track  4

     D:\Temp\The Dismemberment Plan - 2001 - Change \04 - Pay For The Piano.wav

     Peak level 96.8 %
     Track quality 100.0 %
     Copy CRC 30B9FACF
     Accurately ripped (confidence 37)  [70E8C9CC]
     Copy OK

Track  5

     D:\Temp\The Dismemberment Plan - 2001 - Change \05 - Come Home.wav

     Peak level 97.7 %
     Track quality 100.0 %
     Copy CRC 9EDF86B1
     Accurately ripped (confidence 36)  [4E5BA25E]
     Copy OK

Track  6

     D:\Temp\The Dismemberment Plan - 2001 - Change \06 - Secret Curse.wav

     Peak level 97.5 %
     Track quality 100.0 %
     Copy CRC 6F74A7F2
     Accurately ripped (confidence 36)  [78111FD4]
     Copy OK

Track  7

     D:\Temp\The Dismemberment Plan - 2001 - Change \07 - Automatic.wav

     Peak level 95.3 %
     Track quality 100.0 %
     Copy CRC 4F7805B7
     Accurately ripped (confidence 36)  [AEE48C44]
     Copy OK

Track  8

     D:\Temp\The Dismemberment Plan - 2001 - Change \08 - Following Through.wav

     Peak level 97.2 %
     Track quality 100.0 %
     Copy CRC E8C47F34
     Accurately ripped (confidence 36)  [17F6925A]
     Copy OK

Track  9

     D:\Temp\The Dismemberment Plan - 2001 - Change \09 - Time Bomb.wav

     Peak level 98.1 %
     Track quality 100.0 %
     Copy CRC 036955B4
     Accurately ripped (confidence 37)  [D02C4CD4]
     Copy OK

Track 10

     D:\Temp\The Dismemberment Plan - 2001 - Change \10 - The Other Side.wav

     Peak level 99.1 %
     Track quality 100.0 %
     Copy CRC 438B7994
     Accurately ripped (confidence 36)  [077A4A06]
     Copy OK

Track 11

     D:\Temp\The Dismemberment Plan - 2001 - Change \11 - Ellen And Ben.wav

     Peak level 97.6 %
     Track quality 100.0 %
     Copy CRC B03A2061
     Accurately ripped (confidence 36)  [DEFEE0E5]
     Copy OK

All tracks accurately ripped

No errors occurred

End of status report
Код:
Код:
-----------------------

DON'T MODIFY THIS FILE

-----------------------

PERFORMER: auCDtect Task Manager, ver. 1.6.0 RC1 build 1.6.0.1
Copyright (c) 2008-2010 y-soft. All rights reserved
http:/y-soft.org

ANALYZER: auCDtect: CD records authenticity detector, version 0.8.2
Copyright (c) 2004 Oleg Berngardt. All rights reserved.
Copyright (c) 2004 Alexander Djourik. All rights reserved.

FILE: 11 - Ellen And Ben.flac
  Size: 38246283 Hash: BF957447F026532409053631D1B1607F Accuracy: -m0
  Conclusion: CDDA 100%
  Signature: EA121F646A2E5F2D5E909DD2BF89D5640A2F4C9B
FILE: 10 - The Other Side.flac
  Size: 27209458 Hash: 307D48694E83281EEA772CCE43EBAC64 Accuracy: -m0
  Conclusion: CDDA 100%
  Signature: 3A5527F280EB5D3725355C72EE0948275D7FA568
FILE: 09 - Time Bomb.flac
  Size: 33655366 Hash: 07474489C7D917CAF2E39CCE59D18FBC Accuracy: -m0
  Conclusion: CDDA 100%
  Signature: 34C7671F764083837AA55EC46B68EF42A332DF69
FILE: 08 - Following Through.flac
  Size: 34417412 Hash: 72F5F81FD39D7DD84475C4947B4D770E Accuracy: -m0
  Conclusion: CDDA 100%
  Signature: 85E7AC0D81E9C83095E938ACD0002B234C015972
FILE: 07 - Automatic.flac
  Size: 22923203 Hash: 27A695CC0D8DD51532F8472545A35F87 Accuracy: -m0
  Conclusion: CDDA 99%
  Signature: E109E486BC684F82137CEBF43ED8C46043938A3F
FILE: 06 - Secret Curse.flac
  Size: 20147255 Hash: F00EAC86BB28FA2B6E764CE4507CBC66 Accuracy: -m0
  Conclusion: CDDA 99%
  Signature: 99A1B4D321D6DCB8D60AD414A2D5CDC7B742A646
FILE: 05 - Come Home.flac
  Size: 37446374 Hash: 1AEEB9CE38127C6376D35CD5F9E00CCB Accuracy: -m0
  Conclusion: CDDA 100%
  Signature: 480B79920EEFE483524E6A1DC1F812FFDB01DA4C
FILE: 04 - Pay For The Piano.flac
  Size: 26372101 Hash: 3D4DA0CC5C33E71E5943E23F084365DE Accuracy: -m0
  Conclusion: CDDA 100%
  Signature: C4E4C5D4861B555568A049C4A05B6B82FB3402EA
FILE: 03 - Superpowers.flac
  Size: 37887082 Hash: 56AFEF22BD34E0FDB0D2AC1ECBA63F7B Accuracy: -m0
  Conclusion: CDDA 100%
  Signature: 07C673EF77802E35A0F970B751AA2D3142EB509B
FILE: 02 - The Face Of The Earth.flac
  Size: 37423666 Hash: 45FB4BD158DE0DF6D1C61FFF1EEF64E6 Accuracy: -m0
  Conclusion: CDDA 100%
  Signature: 41BF2512627A4E2F893D8123FF5FEC60AF4D93F6
FILE: 01 - Sentimental Man.flac
  Size: 32279227 Hash: 56E21ECCC7464558F27283FB7EB7EA47 Accuracy: -m0
  Conclusion: CDDA 100%
  Signature: DB1509E8825DCE7999227D7D117D172D2851CCAE
Код:
Код:
REM GENRE Indie Rock
REM DATE 2001
REM DISCID 810B140B
REM COMMENT "ExactAudioCopy v0.99pb3"
PERFORMER "The Dismemberment Plan"
TITLE "Change"
FILE "01 - Sentimental Man.wav" WAVE
  TRACK 01 AUDIO
    TITLE "Sentimental Man"
    PERFORMER "The Dismemberment Plan"
    INDEX 01 00:00:00
FILE "02 - The Face Of The Earth.wav" WAVE
  TRACK 02 AUDIO
    TITLE "The Face Of The Earth"
    PERFORMER "The Dismemberment Plan"
    INDEX 01 00:00:00
FILE "03 - Superpowers.wav" WAVE
  TRACK 03 AUDIO
    TITLE "Superpowers"
    PERFORMER "The Dismemberment Plan"
    INDEX 01 00:00:00
FILE "04 - Pay For The Piano.wav" WAVE
  TRACK 04 AUDIO
    TITLE "Pay For The Piano"
    PERFORMER "The Dismemberment Plan"
    INDEX 01 00:00:00
FILE "05 - Come Home.wav" WAVE
  TRACK 05 AUDIO
    TITLE "Come Home"
    PERFORMER "The Dismemberment Plan"
    INDEX 01 00:00:00
FILE "06 - Secret Curse.wav" WAVE
  TRACK 06 AUDIO
    TITLE "Secret Curse"
    PERFORMER "The Dismemberment Plan"
    INDEX 01 00:00:00
FILE "07 - Automatic.wav" WAVE
  TRACK 07 AUDIO
    TITLE "Automatic"
    PERFORMER "The Dismemberment Plan"
    INDEX 01 00:00:00
FILE "08 - Following Through.wav" WAVE
  TRACK 08 AUDIO
    TITLE "Following Through"
    PERFORMER "The Dismemberment Plan"
    INDEX 01 00:00:00
FILE "09 - Time Bomb.wav" WAVE
  TRACK 09 AUDIO
    TITLE "Time Bomb"
    PERFORMER "The Dismemberment Plan"
    INDEX 01 00:00:00
FILE "10 - The Other Side.wav" WAVE
  TRACK 10 AUDIO
    TITLE "The Other Side"
    PERFORMER "The Dismemberment Plan"
    INDEX 01 00:00:00
FILE "11 - Ellen And Ben.wav" WAVE
  TRACK 11 AUDIO
    TITLE "Ellen And Ben"
    PERFORMER "The Dismemberment Plan"
    INDEX 01 00:00:00
Правила, инструкции, FAQ!!!
Торрент  Добавлен [16 мар 2014, 00:55] Скачать торрент Магнет ссылка
Скачать торрент
[ Размер 14.39 КБ / Просмотров 27 ]

Статус  
 
Размер  332.04 МБ
Приватный: Нет (DHT включён)
.torrent скачан  4
 


     Отправить личное сообщение
   
Страница 1 из 1
Показать сообщения за:  Поле сортировки  
Начать новую тему Ответить на тему


Сейчас этот форум просматривают: нет зарегистрированных пользователей и гости: 0


Вы не можете начинать темы
Вы не можете отвечать на сообщения
Вы не можете редактировать свои сообщения
Вы не можете удалять свои сообщения
Вы не можете добавлять вложения

Перейти:  
cron