Начать новую тему Ответить на тему
Статистика раздачи
Размер: 312.14 МБ | Добавлен: 16 мар 2014, 00:45 | Скачали: 2
Сидеров: 1  [0 байт/сек]    Личеров: 13  [0 байт/сек]
Пред. тема | След. тема 

Автор
Сообщение

СообщениеДобавлено: 16 мар 2014, 00:45 

Ответить с цитатой 

The Charm The Fury
- A Shade of My Former Self


Год выпуска: 2013
Жанр: Post-Hardcore | Female Vocal
Продолжительность: 00:41:35
Тип издания: Альбом
Страна: Netherlands



Треклист:

01. The Unveiling
02. A Testament
03. Carte Blanche
04. A Shade Of My Former Self
05. The Enemy (feat. Jamie Graham)
06. Colorblind (feat. Danil de Jongh)
07. In The Wake Of Pride
08. Living Saints
09. Heartless, Breathless
10. Virtue Of Leadership
11. A New State Of Mind
12. Deliverance


Код:
Код:
Exact Audio Copy V1.0 beta 3 from 29. August 2011

EAC extraction logfile from 1. October 2013, 14:15

The Charm The Fury / A Shade Of My Former Self

Used drive  : PIONEER BD-RW   BDR-208D   Adapter: 0  ID: 0

Read mode               : Secure
Utilize accurate stream : Yes
Defeat audio cache      : Yes
Make use of C2 pointers : No

Read offset correction                      : 667
Overread into Lead-In and Lead-Out          : No
Fill up missing offset samples with silence : Yes
Delete leading and trailing silent blocks   : No
Null samples used in CRC calculations       : Yes
Used interface                              : Native Win32 interface for Win NT & 2000
Gap handling                                : Appended to previous track

Used output format              : User Defined Encoder
Selected bitrate                : 1024 kBit/s
Quality                         : High
Add ID3 tag                     : No
Command line compressor         : C:\Program Files (x86)\Exact Audio Copy\FLAC 1.2.1\flac.exe
Additional command line options : -8 -V %source%

TOC of the extracted CD

     Track |   Start  |  Length  | Start sector | End sector
    ---------------------------------------------------------
        1  |  0:00.00 |  1:56.51 |         0    |     8750
        2  |  1:56.51 |  3:17.41 |      8751    |    23566
        3  |  5:14.17 |  3:46.07 |     23567    |    40523
        4  |  9:00.24 |  4:22.54 |     40524    |    60227
        5  | 13:23.03 |  4:12.02 |     60228    |    79129
        6  | 17:35.05 |  3:12.15 |     79130    |    93544
        7  | 20:47.20 |  1:42.51 |     93545    |   101245
        8  | 22:29.71 |  3:22.72 |    101246    |   116467
        9  | 25:52.68 |  3:40.32 |    116468    |   132999
       10  | 29:33.25 |  3:42.12 |    133000    |   149661
       11  | 33:15.37 |  4:03.23 |    149662    |   167909
       12  | 37:18.60 |  4:16.18 |    167910    |   187127

Track  1

     Filename I:\FiH\The_Charm_The_Fury-A_Shade_Of_My_Former_Self-CD-FLAC-2013-FiH\01-The_Charm_The_Fury-The_Unveiling.wav

     Pre-gap length  0:00:02.00

     Peak level 100.0 %
     Extraction speed 3.7 X
     Track quality 100.0 %
     Test CRC 135AD143
     Copy CRC 135AD143
     Track not present in AccurateRip database
     Copy OK

Track  2

     Filename I:\FiH\The_Charm_The_Fury-A_Shade_Of_My_Former_Self-CD-FLAC-2013-FiH\02-The_Charm_The_Fury-A_Testament.wav

     Peak level 100.0 %
     Extraction speed 3.9 X
     Track quality 99.9 %
     Test CRC B9DB0D90
     Copy CRC B9DB0D90
     Track not present in AccurateRip database
     Copy OK

Track  3

     Filename I:\FiH\The_Charm_The_Fury-A_Shade_Of_My_Former_Self-CD-FLAC-2013-FiH\03-The_Charm_The_Fury-Carte_Blanche.wav

     Peak level 100.0 %
     Extraction speed 4.3 X
     Track quality 99.9 %
     Test CRC E448080E
     Copy CRC E448080E
     Track not present in AccurateRip database
     Copy OK

Track  4

     Filename I:\FiH\The_Charm_The_Fury-A_Shade_Of_My_Former_Self-CD-FLAC-2013-FiH\04-The_Charm_The_Fury-A_Shade_Of_My_Former_Self.wav

     Peak level 100.0 %
     Extraction speed 5.4 X
     Track quality 100.0 %
     Test CRC B12FED16
     Copy CRC B12FED16
     Track not present in AccurateRip database
     Copy OK

Track  5

     Filename I:\FiH\The_Charm_The_Fury-A_Shade_Of_My_Former_Self-CD-FLAC-2013-FiH\05-The_Charm_The_Fury-The_Enemy_(Ft._Jamie_Graham).wav

     Peak level 100.0 %
     Extraction speed 5.7 X
     Track quality 100.0 %
     Test CRC 61EA6270
     Copy CRC 61EA6270
     Track not present in AccurateRip database
     Copy OK

Track  6

     Filename I:\FiH\The_Charm_The_Fury-A_Shade_Of_My_Former_Self-CD-FLAC-2013-FiH\06-The_Charm_The_Fury-Colorblind_(Ft._Daniel_De_Jongh).wav

     Peak level 100.0 %
     Extraction speed 5.0 X
     Track quality 99.9 %
     Test CRC C229A179
     Copy CRC C229A179
     Track not present in AccurateRip database
     Copy OK

Track  7

     Filename I:\FiH\The_Charm_The_Fury-A_Shade_Of_My_Former_Self-CD-FLAC-2013-FiH\07-The_Charm_The_Fury-In_The_Wake_Of_Pride.wav

     Peak level 100.0 %
     Extraction speed 5.1 X
     Track quality 100.0 %
     Test CRC 784341F4
     Copy CRC 784341F4
     Track not present in AccurateRip database
     Copy OK

Track  8

     Filename I:\FiH\The_Charm_The_Fury-A_Shade_Of_My_Former_Self-CD-FLAC-2013-FiH\08-The_Charm_The_Fury-Living_Saints.wav

     Peak level 100.0 %
     Extraction speed 6.0 X
     Track quality 100.0 %
     Test CRC AF6307AF
     Copy CRC AF6307AF
     Track not present in AccurateRip database
     Copy OK

Track  9

     Filename I:\FiH\The_Charm_The_Fury-A_Shade_Of_My_Former_Self-CD-FLAC-2013-FiH\09-The_Charm_The_Fury-Heartless,_Breathless.wav

     Peak level 100.0 %
     Extraction speed 5.6 X
     Track quality 99.9 %
     Test CRC 7D87FDE3
     Copy CRC 7D87FDE3
     Track not present in AccurateRip database
     Copy OK

Track 10

     Filename I:\FiH\The_Charm_The_Fury-A_Shade_Of_My_Former_Self-CD-FLAC-2013-FiH\10-The_Charm_The_Fury-Virtue_Of_Leadership.wav

     Peak level 100.0 %
     Extraction speed 6.7 X
     Track quality 100.0 %
     Test CRC 429B2F1B
     Copy CRC 429B2F1B
     Track not present in AccurateRip database
     Copy OK

Track 11

     Filename I:\FiH\The_Charm_The_Fury-A_Shade_Of_My_Former_Self-CD-FLAC-2013-FiH\11-The_Charm_The_Fury-A_New_State_Of_Mind.wav

     Peak level 100.0 %
     Extraction speed 7.0 X
     Track quality 100.0 %
     Test CRC DC1BFBA9
     Copy CRC DC1BFBA9
     Track not present in AccurateRip database
     Copy OK

Track 12

     Filename I:\FiH\The_Charm_The_Fury-A_Shade_Of_My_Former_Self-CD-FLAC-2013-FiH\12-The_Charm_The_Fury-Deliverance.wav

     Peak level 100.0 %
     Extraction speed 7.3 X
     Track quality 100.0 %
     Test CRC 8A660B05
     Copy CRC 8A660B05
     Track not present in AccurateRip database
     Copy OK

None of the tracks are present in the AccurateRip database

No errors occurred

End of status report

==== Log checksum 266E8820018C38C707F7709F3D82CCC28A7B59ECFA7B7E5B7BF6C0C58A11DA3B ====

Код:
Код:
-----------------------

DON'T MODIFY THIS FILE

-----------------------

PERFORMER: auCDtect Task Manager, ver. 1.6.0 RC1 build 1.6.0.1
Copyright (c) 2008-2010 y-soft. All rights reserved
http:/y-soft.org

ANALYZER: auCDtect: CD records authenticity detector, version 0.8.2
Copyright (c) 2004 Oleg Berngardt. All rights reserved.
Copyright (c) 2004 Alexander Djourik. All rights reserved.

FILE: 12. The Charm The Fury - Deliverance.flac
  Size: 34084457 Hash: 9344A8FC298C1CDF8297548D67F04204 Accuracy: -m0
  Conclusion: CDDA 100%
  Signature: 7F0B70D2D5B94BE208E518BF6A50D5DE0833EB35
FILE: 11. The Charm The Fury - A New State Of Mind.flac
  Size: 31549010 Hash: C132BE137DC443827EDA670E8B19524A Accuracy: -m0
  Conclusion: CDDA 100%
  Signature: B3F9162627648B019463C25BC2517F6B6EBF9D4D
FILE: 10. The Charm The Fury - Virtue Of Leadership.flac
  Size: 29503711 Hash: F6A22EE65288595C45C0B5B14033B9D2 Accuracy: -m0
  Conclusion: CDDA 100%
  Signature: FED763090FCF9A784EE40A8F18EDD3A967D87AB9
FILE: 09. The Charm The Fury - Heartless, Breathless.flac
  Size: 30193999 Hash: 8CEA58D812CF01F06E59461CECF59129 Accuracy: -m0
  Conclusion: CDDA 100%
  Signature: 37F35EB5F4B62F4F76ECFBD6AF4631CCFB86DD8A
FILE: 08. The Charm The Fury - Living Saints.flac
  Size: 27956243 Hash: C602CEF707980192266F566460E8AD03 Accuracy: -m0
  Conclusion: CDDA 100%
  Signature: 6AAC002992676CFC7C10D4E1194E9B9BDB1820AA
FILE: 07. The Charm The Fury - In The Wake Of Pride.flac
  Size: 10489249 Hash: C9E6490AE1F535049143CA7AC4A2DD40 Accuracy: -m0
  Conclusion: CDDA 100%
  Signature: 8BCD5A9E0C0834CD024B2F66CAC8A64292636E96
FILE: 06. The Charm The Fury - Colorblind (feat. Danil de Jongh).flac
  Size: 26626685 Hash: 74243CAD603D127BC93B55E78674019D Accuracy: -m0
  Conclusion: CDDA 100%
  Signature: 64D20905BAB0093059F024A2BCD70E79113BD43A
FILE: 05. The Charm The Fury - The Enemy (feat. Jamie Graham).flac
  Size: 34074693 Hash: 5C908C3A07FB8F66AD4F83939FB35B22 Accuracy: -m0
  Conclusion: CDDA 100%
  Signature: CCFBB81B3572E336AC7D865FA9ABE241EE39D744
FILE: 04. The Charm The Fury - A Shade Of My Former Self.flac
  Size: 35383149 Hash: 5C3DBE5A2F19086B35BFD850E1264D8F Accuracy: -m0
  Conclusion: CDDA 99%
  Signature: C99914101A159F4C5B640CDB2D73E7D979533DB4
FILE: 03. The Charm The Fury - Carte Blanche.flac
  Size: 28713179 Hash: AA475B16730777D77D8ECD0564051608 Accuracy: -m0
  Conclusion: CDDA 100%
  Signature: AA624232AE6409C1B9B4EB3CE6FF0FECB42CCF68
FILE: 02. The Charm The Fury - A Testament.flac
  Size: 26783043 Hash: 7151E42FBD160632CEC1ABE3211EACDC Accuracy: -m0
  Conclusion: CDDA 100%
  Signature: DFDED4EAF94A264E1F612F9A2E0C2789E2DA1DB2
FILE: 01. The Charm The Fury - The Unveiling.flac
  Size: 11491459 Hash: 591E926149C32330D86C75200916BDFD Accuracy: -m0
  Conclusion: CDDA 100%
  Signature: AADC22FCE2EB045F501AFB0F102072FB8986997E


Тип рипа: Tracks+.cue
Аудиокодек: FLAC
Битрейт аудио: lossless
Правила, инструкции, FAQ!!!
Торрент  Добавлен [16 мар 2014, 00:45] Скачать торрент Магнет ссылка
Скачать торрент
[ Размер 14.1 КБ / Просмотров 36 ]

Статус  
 
Размер  312.14 МБ
Приватный: Нет (DHT включён)
.torrent скачан  2
 


     Отправить личное сообщение
   
Страница 1 из 1
Показать сообщения за:  Поле сортировки  
Начать новую тему Ответить на тему


Сейчас этот форум просматривают: нет зарегистрированных пользователей и гости: 0


Вы не можете начинать темы
Вы не можете отвечать на сообщения
Вы не можете редактировать свои сообщения
Вы не можете удалять свои сообщения
Вы не можете добавлять вложения

Перейти:  
cron
cron