Начать новую тему Ответить на тему
Статистика раздачи
Размер: 260.14 МБ | Добавлен: 16 мар 2014, 00:40 | Скачали: 2
Сидеров: 5  [0 байт/сек]    Личеров: 2  [0 байт/сек]
Пред. тема | След. тема 

Автор
Сообщение

СообщениеДобавлено: 16 мар 2014, 00:40 

Ответить с цитатой 

The Black Keys - El Camino (2011)


Год: 2011
Издание: Nonesuch records
Catalog Nr: 529099-2
Жанр: Garage Rock / Blues Rock
Продолжительность: 00:38:26
Источник: Интернет

Кодек: FLAC (восстановлено CUETools)
Тип рипа: Image+.cue
Битрейт: Lossless
Трек лист:
01. Lonely Boy (3:13)
02. Dead And Gone (3:41)
03. Gold On The Ceiling (3:44)
04. Little Black Submarines (4:11)
05. Money Maker (2:57)
06. Run Right Back (3:17)
07. Sister (3:25)
08. Hell Of A Season (3:45)
09. Stop Stop (3:30)
10. Nova Baby (3:27)
11. Mind Eraser (3:15)
Код:
Код:
REM ACCURATERIPID 000ff71d-008a41d2-8f09010b
REM COMMENT "CUETools generated dummy CUE sheet"
PERFORMER "The Black Keys"
TITLE "El Camino"
REM DATE 2011
REM GENRE "Rock"
FILE "The Black Keys - El Camino.flac" WAVE
  TRACK 01 AUDIO
    PERFORMER "The Black Keys"
    TITLE "Lonely Boy"
    INDEX 01 00:00:00
  TRACK 02 AUDIO
    PERFORMER "The Black Keys"
    TITLE "Dead And Gone"
    INDEX 01 03:13:13
  TRACK 03 AUDIO
    PERFORMER "The Black Keys"
    TITLE "Gold On The Ceiling"
    INDEX 01 06:54:15
  TRACK 04 AUDIO
    PERFORMER "The Black Keys"
    TITLE "Little Black Submarines"
    INDEX 01 10:38:40
  TRACK 05 AUDIO
    PERFORMER "The Black Keys"
    TITLE "Money Maker"
    INDEX 01 14:49:60
  TRACK 06 AUDIO
    PERFORMER "The Black Keys"
    TITLE "Run Right Back"
    INDEX 01 17:47:03
  TRACK 07 AUDIO
    PERFORMER "The Black Keys"
    TITLE "Sister"
    INDEX 01 21:04:03
  TRACK 08 AUDIO
    PERFORMER "The Black Keys"
    TITLE "Hell Of A Season"
    INDEX 01 24:29:17
  TRACK 09 AUDIO
    PERFORMER "The Black Keys"
    TITLE "Stop Stop"
    INDEX 01 28:14:18
  TRACK 10 AUDIO
    PERFORMER "The Black Keys"
    TITLE "Nova Baby"
    INDEX 01 31:43:69
  TRACK 11 AUDIO
    PERFORMER "The Black Keys"
    TITLE "Mind Eraser"
    INDEX 01 35:10:72

Код:
Код:
Exact Audio Copy V1.0 beta 3 from 29. August 2011

EAC extraction logfile from 30. November 2011, 1:31

The Black Keys / El Camino

Used drive  : ATAPI   iHAS324   A   Adapter: 4  ID: 0

Read mode               : Secure
Utilize accurate stream : Yes
Defeat audio cache      : Yes
Make use of C2 pointers : No

Read offset correction                      : 6
Overread into Lead-In and Lead-Out          : No
Fill up missing offset samples with silence : Yes
Delete leading and trailing silent blocks   : No
Null samples used in CRC calculations       : Yes
Used interface                              : Native Win32 interface for Win NT & 2000
Gap handling                                : Appended to previous track

Used output format              : User Defined Encoder
Selected bitrate                : 1024 kBit/s
Quality                         : High
Add ID3 tag                     : No
Command line compressor         : C:\Program Files (x86)\Exact Audio Copy\Flac\flac.exe
Additional command line options : -8 -V -T "ARTIST=%artist%" -T "TITLE=%title%" -T "ALBUM=%albumtitle%" -T "DATE=%year%" -T "TRACKNUMBER=%tracknr%" -T "GENRE=%genre%" -T "PERFORMER=%albuminterpret%" -T "COMPOSER=%composer%" %haslyrics%--tag-from-file=LYRICS="%lyricsfile%"%haslyrics% -T "ALBUMARTIST=%albumartist%" -T "DISCNUMBER=%cdnumber%" -T "TOTALDISCS=%totalcds%" -T "TOTALTRACKS=%numtracks%" -T "COMMENT=%comment%" %source% -o %dest%

TOC of the extracted CD

     Track |   Start  |  Length  | Start sector | End sector
    ---------------------------------------------------------
        1  |  0:00.00 |  3:13.13 |         0    |    14487
        2  |  3:13.13 |  3:41.02 |     14488    |    31064
        3  |  6:54.15 |  3:44.25 |     31065    |    47889
        4  | 10:38.40 |  4:11.20 |     47890    |    66734
        5  | 14:49.60 |  2:57.18 |     66735    |    80027
        6  | 17:47.03 |  3:17.00 |     80028    |    94802
        7  | 21:04.03 |  3:25.14 |     94803    |   110191
        8  | 24:29.17 |  3:45.01 |    110192    |   127067
        9  | 28:14.18 |  3:29.51 |    127068    |   142793
       10  | 31:43.69 |  3:27.03 |    142794    |   158321
       11  | 35:10.72 |  3:14.44 |    158322    |   172915

Track  1

     Filename C:\EAC Rips\The Black Keys - El Camino (2011) [FLAC]\01 - Lonely Boy.wav

     Pre-gap length  0:00:02.00

     Peak level 96.9 %
     Extraction speed 2.7 X
     Track quality 99.9 %
     Test CRC 4D679358
     Copy CRC 4D679358
     Track not present in AccurateRip database
     Copy OK

Track  2

     Filename C:\EAC Rips\The Black Keys - El Camino (2011) [FLAC]\02 - Dead And Gone.wav

     Peak level 96.7 %
     Extraction speed 3.8 X
     Track quality 100.0 %
     Test CRC 8C8305A5
     Copy CRC 8C8305A5
     Track not present in AccurateRip database
     Copy OK

Track  3

     Filename C:\EAC Rips\The Black Keys - El Camino (2011) [FLAC]\03 - Gold On The Ceiling.wav

     Peak level 96.6 %
     Extraction speed 4.2 X
     Track quality 100.0 %
     Test CRC C34F76C8
     Copy CRC C34F76C8
     Track not present in AccurateRip database
     Copy OK

Track  4

     Filename C:\EAC Rips\The Black Keys - El Camino (2011) [FLAC]\04 - Little Black Submarines.wav

     Peak level 96.7 %
     Extraction speed 4.6 X
     Track quality 100.0 %
     Test CRC A93D022B
     Copy CRC A93D022B
     Track not present in AccurateRip database
     Copy OK

Track  5

     Filename C:\EAC Rips\The Black Keys - El Camino (2011) [FLAC]\05 - Money Maker.wav

     Peak level 96.8 %
     Extraction speed 4.5 X
     Track quality 100.0 %
     Test CRC F3F5ADDB
     Copy CRC F3F5ADDB
     Track not present in AccurateRip database
     Copy OK

Track  6

     Filename C:\EAC Rips\The Black Keys - El Camino (2011) [FLAC]\06 - Run Right Back.wav

     Peak level 96.8 %
     Extraction speed 4.8 X
     Track quality 100.0 %
     Test CRC 14A4564E
     Copy CRC 14A4564E
     Track not present in AccurateRip database
     Copy OK

Track  7

     Filename C:\EAC Rips\The Black Keys - El Camino (2011) [FLAC]\07 - Sister.wav

     Peak level 96.7 %
     Extraction speed 3.9 X
     Track quality 99.9 %
     Test CRC A0190FD7
     Copy CRC A0190FD7
     Track not present in AccurateRip database
     Copy OK

Track  8

     Filename C:\EAC Rips\The Black Keys - El Camino (2011) [FLAC]\08 - Hell Of A Season.wav

     Peak level 96.7 %
     Extraction speed 5.4 X
     Track quality 100.0 %
     Test CRC C0942FF6
     Copy CRC C0942FF6
     Track not present in AccurateRip database
     Copy OK

Track  9

     Filename C:\EAC Rips\The Black Keys - El Camino (2011) [FLAC]\09 - Stop Stop.wav

     Peak level 96.4 %
     Extraction speed 5.5 X
     Track quality 100.0 %
     Test CRC 8FFB78A7
     Copy CRC 8FFB78A7
     Track not present in AccurateRip database
     Copy OK

Track 10

     Filename C:\EAC Rips\The Black Keys - El Camino (2011) [FLAC]\10 - Nova Baby.wav

     Peak level 96.4 %
     Extraction speed 5.7 X
     Track quality 100.0 %
     Test CRC F70B8076
     Copy CRC F70B8076
     Track not present in AccurateRip database
     Copy OK

Track 11

     Filename C:\EAC Rips\The Black Keys - El Camino (2011) [FLAC]\11 - Mind Eraser.wav

     Peak level 96.7 %
     Extraction speed 5.8 X
     Track quality 100.0 %
     Test CRC BE88A97D
     Copy CRC BE88A97D
     Track not present in AccurateRip database
     Copy OK

None of the tracks are present in the AccurateRip database

No errors occurred

End of status report

---- CUETools DB Plugin V2.1.3

[CTDB TOCID: LwVYfxyzMPKWgYGhY86phm9gVs8-] disk not present in database, Submit result: LwVYfxyzMPKWgYGhY86phm9gVs8- has been uploaded

==== Log checksum 13CE180C1DDE2A22A05FCAAB6DFF24A3A892E64D5DE9F08A7BB60290AE6D387D ====

Код:
Код:
-----------------------

DON'T MODIFY THIS FILE

-----------------------

PERFORMER: auCDtect Task Manager, ver. 1.5.1RC4 build 1.5.1.5
Copyright (c) 2008-2010 y-soft. All rights reserved
http:/y-soft.org

ANALYZER: auCDtect: CD records authenticity detector, version 0.8.2
Copyright (c) 2004 Oleg Berngardt. All rights reserved.
Copyright (c) 2004 Alexander Djourik. All rights reserved.

FILE: The Black Keys - El Camino.flac
  Size: 270278870 Hash: DEE86FF0E8BB04ECEBB0744C67E6975A Accuracy: -m0
  Conclusion: CDDA 100%
  Signature: 47BC4911DDFFC8B5C85618D6D453984F662F69F3
Правила, инструкции, FAQ!!!
Торрент  Добавлен [16 мар 2014, 00:40] Скачать торрент Магнет ссылка
Скачать торрент
[ Размер 11.34 КБ / Просмотров 194 ]

Статус  
 
Размер  260.14 МБ
Приватный: Нет (DHT включён)
.torrent скачан  2
 


     Отправить личное сообщение
   
Страница 1 из 1
Показать сообщения за:  Поле сортировки  
Начать новую тему Ответить на тему


Сейчас этот форум просматривают: нет зарегистрированных пользователей и гости: 0


Вы не можете начинать темы
Вы не можете отвечать на сообщения
Вы не можете редактировать свои сообщения
Вы не можете удалять свои сообщения
Вы не можете добавлять вложения

Перейти:  
cron