Начать новую тему Ответить на тему
Статистика раздачи
Размер: 531.04 МБ | Добавлен: 16 мар 2014, 00:24 | Скачали: 0
Сидеров: 2  [0 байт/сек]    Личеров: 1  [0 байт/сек]
Пред. тема | След. тема 

Автор
Сообщение

СообщениеДобавлено: 16 мар 2014, 00:24 

Ответить с цитатой 

The Alan Parsons Project - I Robot (1977)


Год: 1977
Жанр: Art Rock, Progressive Rock
Лейбл: Arista Records, Legacy Recordings, Sony Music. Made in Japan.
Каталог #: SICP-301068~9
Продолжительность: 01:19:41
Кодек: FLAC
Тип рипа: image + .cue
Битрейт: Lossless
Треклист:
01. I Robot (6:02)
02. I Wouldn't Want To Be Like You (3:23)
03. Some Other Time (4:06)
04. Breakdown (3:53)
05. Don't Let It Show (4:26)
06. The Voice (5:23)
07. Nucleus (3:22)
08. Day After Day (The Show Must Go On) (3:57)
09. Total Eclipse (3:12)
10. Genesis Ch.1 V.32 (3:32)

Продолжительность: 00:41:17
Код:
Код:
Exact Audio Copy V1.0 beta 3 from 29. August 2011

EAC extraction logfile from 12. November 2013, 13:05

The Alan Parsons Project / I Robot (Legacy Edition) 1 BSCD2

Used drive  : PLEXTOR BD-R  PX-B950SA   Adapter: 6  ID: 0

Read mode               : Secure
Utilize accurate stream : Yes
Defeat audio cache      : Yes
Make use of C2 pointers : No

Read offset correction                      : 6
Overread into Lead-In and Lead-Out          : No
Fill up missing offset samples with silence : Yes
Delete leading and trailing silent blocks   : No
Null samples used in CRC calculations       : Yes
Used interface                              : Native Win32 interface for Win NT & 2000

Used output format : Internal WAV Routines
Sample format      : 44.100 Hz; 16 Bit; Stereo

TOC of the extracted CD

     Track |   Start  |  Length  | Start sector | End sector
    ---------------------------------------------------------
        1  |  0:00.00 |  6:02.37 |         0    |    27186
        2  |  6:02.37 |  3:23.13 |     27187    |    42424
        3  |  9:25.50 |  4:05.54 |     42425    |    60853
        4  | 13:31.29 |  3:53.09 |     60854    |    78337
        5  | 17:24.38 |  4:25.56 |     78338    |    98268
        6  | 21:50.19 |  5:23.20 |     98269    |   122513
        7  | 27:13.39 |  3:22.32 |    122514    |   137695
        8  | 30:35.71 |  3:57.12 |    137696    |   155482
        9  | 34:33.08 |  3:12.35 |    155483    |   169917
       10  | 37:45.43 |  3:31.68 |    169918    |   185810

Range status and errors

Selected range

     Filename C:\Users\Meijin\Desktop\Lossless Galaxy ALLexxess\Alan Parsons Project\1977 I Robot - Legacy Edition (2 BSCD2 Set Sony Music Japan 2013)\CD1\The Alan Parsons Project - I Robot (Legacy Edition) 1 BSCD2.wav

     Peak level 98.8 %
     Extraction speed 6.8 X
     Range quality 100.0 %
     Test CRC E391A3D7
     Copy CRC E391A3D7
     Copy OK

No errors occurred

AccurateRip summary

Track  1  accurately ripped (confidence 1)  [032EDD97]  (AR v2)
Track  2  accurately ripped (confidence 1)  [7319F6DE]  (AR v2)
Track  3  accurately ripped (confidence 1)  [87DBF9F2]  (AR v2)
Track  4  accurately ripped (confidence 1)  [B86862F3]  (AR v2)
Track  5  accurately ripped (confidence 1)  [A057C3EC]  (AR v2)
Track  6  accurately ripped (confidence 1)  [940786AD]  (AR v2)
Track  7  accurately ripped (confidence 1)  [DC7CF93E]  (AR v2)
Track  8  accurately ripped (confidence 1)  [35FE0323]  (AR v2)
Track  9  accurately ripped (confidence 1)  [2B70850C]  (AR v2)
Track 10  accurately ripped (confidence 1)  [9189DFA5]  (AR v2)

All tracks accurately ripped

End of status report

==== Log checksum 0CF7751B97B510FFA6E699D8783B859FF43F8CB0517B33612BCC1954779AA820 ====

Код:
Код:
-----------------------

DON'T MODIFY THIS FILE

-----------------------

PERFORMER: auCDtect Task Manager, ver. 1.6.0 RC1 build 1.6.0.1
Copyright (c) 2008-2010 y-soft. All rights reserved
http:/y-soft.org

ANALYZER: auCDtect: CD records authenticity detector, version 0.8.2
Copyright (c) 2004 Oleg Berngardt. All rights reserved.
Copyright (c) 2004 Alexander Djourik. All rights reserved.

FILE: The Alan Parsons Project - I Robot (Legacy Edition) 1 BSCD2.flac
  Size: 264122151 Hash: AA50AB407368861CC2239C5E0F1D775E Accuracy: -m0
  Conclusion: CDDA 100%
  Signature: DC03AF9E394DD86A78053FA2C9A8CE93D90994A9

Код:
Код:
REM GENRE "Progressive Rock"
REM DATE 1977
REM DISCID 8009AD0A
REM COMMENT "ExactAudioCopy v1.0b3"
PERFORMER "The Alan Parsons Project"
TITLE "I Robot (Legacy Edition) 1 BSCD2"
FILE "The Alan Parsons Project - I Robot (Legacy Edition) 1 BSCD2.flac" WAVE
  TRACK 01 AUDIO
    TITLE " I Robot"
    PERFORMER "The Alan Parsons Project"
    INDEX 01 00:00:00
  TRACK 02 AUDIO
    TITLE "I Wouldn't Want To Be Like You"
    PERFORMER "The Alan Parsons Project"
    INDEX 01 06:02:37
  TRACK 03 AUDIO
    TITLE "Some Other Time"
    PERFORMER "The Alan Parsons Project"
    INDEX 01 09:25:50
  TRACK 04 AUDIO
    TITLE "Breakdown"
    PERFORMER "The Alan Parsons Project"
    INDEX 01 13:31:29
  TRACK 05 AUDIO
    TITLE "Don't Let It Show"
    PERFORMER "The Alan Parsons Project"
    INDEX 01 17:24:38
  TRACK 06 AUDIO
    TITLE "The Voice"
    PERFORMER "The Alan Parsons Project"
    INDEX 01 21:50:19
  TRACK 07 AUDIO
    TITLE "Nucleus"
    PERFORMER "The Alan Parsons Project"
    INDEX 01 27:13:39
  TRACK 08 AUDIO
    TITLE "Day After Day (The Show Must Go On)"
    PERFORMER "The Alan Parsons Project"
    INDEX 01 30:35:71
  TRACK 09 AUDIO
    TITLE "Total Eclipse"
    PERFORMER "The Alan Parsons Project"
    INDEX 01 34:33:08
  TRACK 10 AUDIO
    TITLE "Genesis Ch.1 V.32"
    PERFORMER "The Alan Parsons Project"
    INDEX 01 37:45:43

Код:
Код:
[CUETools log; Date: 15.11.2013 15:32:53; Version: 2.1.4]
[CTDB TOCID: qmsJSJ6wtiP4FQVL_epV81CGUyM-] found.
Track | CTDB Status
  1   | (1/1) Accurately ripped
  2   | (1/1) Accurately ripped
  3   | (1/1) Accurately ripped
  4   | (1/1) Accurately ripped
  5   | (1/1) Accurately ripped
  6   | (1/1) Accurately ripped
  7   | (1/1) Accurately ripped
  8   | (1/1) Accurately ripped
  9   | (1/1) Accurately ripped
 10   | (1/1) Accurately ripped
[AccurateRip ID: 001074df-0081d250-8009ad0a] found.
Track   [  CRC   |   V2   ] Status
 01     [c9ac4b11|032edd97] (0+1/1) Accurately ripped
 02     [9ea7f6e1|7319f6de] (0+1/1) Accurately ripped
 03     [8ec6acac|87dbf9f2] (0+1/1) Accurately ripped
 04     [1eb9f70d|b86862f3] (0+1/1) Accurately ripped
 05     [3e23c228|a057c3ec] (0+1/1) Accurately ripped
 06     [117fc640|940786ad] (0+1/1) Accurately ripped
 07     [4e0a9da0|dc7cf93e] (0+1/1) Accurately ripped
 08     [baf75892|35fe0323] (0+1/1) Accurately ripped
 09     [33fdfa33|2b70850c] (0+1/1) Accurately ripped
 10     [cc9bacbe|9189dfa5] (0+1/1) Accurately ripped

Track Peak [ CRC32  ] [W/O NULL] [  LOG   ]
 --   98,8 [E391A3D7] [FC40019A]   CRC32
 01   98,8 [0AABF22F] [AECE9C2A]
 02   98,8 [36FD73B6] [F1C4A248]
 03   98,8 [7A736515] [4C949399]
 04   98,8 [C80073F2] [4490D1EC]
 05   98,8 [DAFDB49A] [F18AE1CB]
 06   98,8 [12D33904] [B3B9B0E9]
 07   98,8 [FA9D64B5] [ECCE8D39]
 08   98,8 [63BC6A15] [BA1B502A]
 09   98,8 [3A04D0BF] [AE2CE3EC]
 10   98,8 [34FC81C7] [D34DBCDD]

Треклист:
01. U.S Radio Commercial For I Robot (1:03)
02. Boules (I Robot Experiment) (2:02)
03. I Robot (Hilary Western Soprano Vocal Rehearsal) (1:34)
04. Extract 1 From The Alan Parsons Project Audio Guide (1:06)
05. Extract 2 From The Alan Parsons Project Audio Guide (0:59)
06. I Wouldn't Want To Be Like You (Backing Track Rough Mix) (3:30)
07. Some Other Time (Complete Vocal By Jaki Whitren) (3:46)
08. Breakdown (Early Demo Of Backing Riff) (2:11)
09. Extract 3 From The Alan Parsons Project Audio Guide (0:32)
10. Breakdown (The Choir) (1:53)
11. Don't Let It Show (Eric Woolfson Demo) (3:28)
12. Day After Day (Early Stage Rough Mix) (3:40)
13. Genesis Ch 1 V 32 (Choir Session) (2:20)
14. The Naked Robot (Early Instrumental Mixes) (10:20)

Продолжительность: 00:38:24
Код:
Код:
Exact Audio Copy V1.0 beta 3 from 29. August 2011

EAC extraction logfile from 12. November 2013, 12:24

The Alan Parsons Project / I Robot (Legacy Edition) 2 BSCD2

Used drive  : PLEXTOR BD-R  PX-B950SA   Adapter: 6  ID: 0

Read mode               : Secure
Utilize accurate stream : Yes
Defeat audio cache      : Yes
Make use of C2 pointers : No

Read offset correction                      : 6
Overread into Lead-In and Lead-Out          : No
Fill up missing offset samples with silence : Yes
Delete leading and trailing silent blocks   : No
Null samples used in CRC calculations       : Yes
Used interface                              : Native Win32 interface for Win NT & 2000

Used output format : Internal WAV Routines
Sample format      : 44.100 Hz; 16 Bit; Stereo

TOC of the extracted CD

     Track |   Start  |  Length  | Start sector | End sector
    ---------------------------------------------------------
        1  |  0:00.00 |  1:03.28 |         0    |     4752
        2  |  1:03.28 |  2:01.38 |      4753    |    13865
        3  |  3:04.66 |  1:34.33 |     13866    |    20948
        4  |  4:39.24 |  1:05.47 |     20949    |    25870
        5  |  5:44.71 |  0:58.71 |     25871    |    30291
        6  |  6:43.67 |  3:30.22 |     30292    |    46063
        7  | 10:14.14 |  3:45.43 |     46064    |    62981
        8  | 13:59.57 |  2:11.08 |     62982    |    72814
        9  | 16:10.65 |  0:31.45 |     72815    |    75184
       10  | 16:42.35 |  1:52.69 |     75185    |    83653
       11  | 18:35.29 |  3:28.17 |     83654    |    99270
       12  | 22:03.46 |  3:40.17 |     99271    |   115787
       13  | 25:43.63 |  2:20.23 |    115788    |   126310
       14  | 28:04.11 | 10:20.09 |    126311    |   172819

Range status and errors

Selected range

     Filename C:\Users\Meijin\Desktop\Lossless Galaxy ALLexxess\Alan Parsons Project\1977 I Robot - Legacy Edition (2 BSCD2 Set Sony Music Japan 2013)\CD2\The Alan Parsons Project - I Robot (Legacy Edition) 2 BSCD2.wav

     Peak level 97.7 %
     Extraction speed 6.7 X
     Range quality 100.0 %
     Test CRC CE618AE2
     Copy CRC CE618AE2
     Copy OK

No errors occurred

AccurateRip summary

Track  1  not present in database
Track  2  not present in database
Track  3  not present in database
Track  4  not present in database
Track  5  not present in database
Track  6  not present in database
Track  7  not present in database
Track  8  not present in database
Track  9  not present in database
Track 10  not present in database
Track 11  not present in database
Track 12  not present in database
Track 13  not present in database
Track 14  not present in database

None of the tracks are present in the AccurateRip database

End of status report

==== Log checksum 9E5DBB6301E8D59CAF83467D6F4A938612E3C70B5F829BB7AB4665BC9B167158 ====

Код:
Код:
-----------------------

DON'T MODIFY THIS FILE

-----------------------

PERFORMER: auCDtect Task Manager, ver. 1.6.0 RC1 build 1.6.0.1
Copyright (c) 2008-2010 y-soft. All rights reserved
http:/y-soft.org

ANALYZER: auCDtect: CD records authenticity detector, version 0.8.2
Copyright (c) 2004 Oleg Berngardt. All rights reserved.
Copyright (c) 2004 Alexander Djourik. All rights reserved.

FILE: The Alan Parsons Project - I Robot (Legacy Edition) 2 BSCD2.flac
  Size: 220182751 Hash: 4F22DD6E50F5F9023072DABDE88B2BE7 Accuracy: -m0
  Conclusion: CDDA 100%
  Signature: E42C0589143BA756CF67E50FC0D2E59E9A7E0B00

Код:
Код:
REM GENRE "Progressive Rock"
REM DATE 2013
REM DISCID A709000E
REM COMMENT "ExactAudioCopy v1.0b3"
PERFORMER "The Alan Parsons Project"
TITLE "I Robot (Legacy Edition) 2 BSCD2"
FILE "The Alan Parsons Project - I Robot (Legacy Edition) 2 BSCD2.flac" WAVE
  TRACK 01 AUDIO
    TITLE "U.S Radio Commercial For I Robot"
    PERFORMER "The Alan Parsons Project"
    INDEX 01 00:00:00
  TRACK 02 AUDIO
    TITLE "Boules (I Robot Experiment)"
    PERFORMER "The Alan Parsons Project"
    INDEX 00 01:01:68
    INDEX 01 01:03:28
  TRACK 03 AUDIO
    TITLE "I Robot (Hilary Western Soprano Vocal Rehearsal)"
    PERFORMER "The Alan Parsons Project"
    INDEX 00 03:03:12
    INDEX 01 03:04:66
  TRACK 04 AUDIO
    TITLE "Extract 1 From The Alan Parsons Project Audio Guide"
    PERFORMER "The Alan Parsons Project"
    INDEX 00 04:37:46
    INDEX 01 04:39:24
  TRACK 05 AUDIO
    TITLE "Extract 2 From The Alan Parsons Project Audio Guide"
    PERFORMER "The Alan Parsons Project"
    INDEX 00 05:43:32
    INDEX 01 05:44:71
  TRACK 06 AUDIO
    TITLE "I Wouldn't Want To Be Like You (Backing Track Rough Mix)"
    PERFORMER "The Alan Parsons Project"
    INDEX 00 06:42:29
    INDEX 01 06:43:67
  TRACK 07 AUDIO
    TITLE "Some Other Time (Complete Vocal By Jaki Whitren)"
    PERFORMER "The Alan Parsons Project"
    INDEX 00 10:12:71
    INDEX 01 10:14:14
  TRACK 08 AUDIO
    TITLE "Breakdown (Early Demo Of Backing Riff)"
    PERFORMER "The Alan Parsons Project"
    INDEX 00 13:58:14
    INDEX 01 13:59:57
  TRACK 09 AUDIO
    TITLE "Extract 3 From The Alan Parsons Project Audio Guide"
    PERFORMER "The Alan Parsons Project"
    INDEX 00 16:09:22
    INDEX 01 16:10:65
  TRACK 10 AUDIO
    TITLE "Breakdown (The Choir)"
    PERFORMER "The Alan Parsons Project"
    INDEX 01 16:42:35
  TRACK 11 AUDIO
    TITLE "Don't Let It Show (Eric Woolfson Demo)"
    PERFORMER "The Alan Parsons Project"
    INDEX 00 18:33:42
    INDEX 01 18:35:29
  TRACK 12 AUDIO
    TITLE "Day After Day (Early Stage Rough Mix)"
    PERFORMER "The Alan Parsons Project"
    INDEX 00 22:02:07
    INDEX 01 22:03:46
  TRACK 13 AUDIO
    TITLE "Genesis Ch 1 V 32 (Choir Session)"
    PERFORMER "The Alan Parsons Project"
    INDEX 00 25:42:43
    INDEX 01 25:43:63
  TRACK 14 AUDIO
    TITLE "The Naked Robot (Early Instrumental Mixes)"
    PERFORMER "The Alan Parsons Project"
    INDEX 00 28:02:26
    INDEX 01 28:04:11

Код:
Код:
[CUETools log; Date: 15.11.2013 15:35:17; Version: 2.1.4]
[CTDB TOCID: 1ZQ19PmvCxGuFhLALmNnRonq0SY-] found.
Track | CTDB Status
  1   | (1/1) Accurately ripped
  2   | (1/1) Accurately ripped
  3   | (1/1) Accurately ripped
  4   | (1/1) Accurately ripped
  5   | (1/1) Accurately ripped
  6   | (1/1) Accurately ripped
  7   | (1/1) Accurately ripped
  8   | (1/1) Accurately ripped
  9   | (1/1) Accurately ripped
 10   | (1/1) Accurately ripped
 11   | (1/1) Accurately ripped
 12   | (1/1) Accurately ripped
 13   | (1/1) Accurately ripped
 14   | (1/1) Accurately ripped
[AccurateRip ID: 000e815d-00a29c49-a709000e] disk not present in database.

Track Peak [ CRC32  ] [W/O NULL] [  LOG   ]
 --   97,7 [CE618AE2] [1B92A797]   CRC32
 01   95,0 [AFD2904E] [C26EDC66]
 02   96,6 [4DC400F6] [C6CA79B8]
 03   77,7 [B8C8E835] [8E3A5AFD]
 04   97,7 [5E710218] [DC12DA04]
 05   94,7 [E5633D20] [3FDA211F]
 06   96,6 [A0FF588E] [0313D353]
 07   76,4 [B3D9861B] [3D479E43]
 08   85,6 [5A93E4B2] [8D0B5AB0]
 09   87,3 [1E8EF974] [67882216]
 10   97,7 [205576C7] [C17C8B56]
 11   97,7 [E763B157] [872254ED]
 12   97,7 [127426A9] [9C953496]
 13   97,7 [331E02AD] [807511CB]
 14   88,1 [DEE60DAF] [B01103E7]

Правила, инструкции, FAQ!!!
Торрент  Добавлен [16 мар 2014, 00:24] Скачать торрент Магнет ссылка
Скачать торрент
[ Размер 14.11 КБ / Просмотров 31 ]

Статус  
 
Размер  531.04 МБ
Приватный: Нет (DHT включён)
.torrent скачан  0
 


     Отправить личное сообщение
   
Страница 1 из 1
Показать сообщения за:  Поле сортировки  
Начать новую тему Ответить на тему


Сейчас этот форум просматривают: нет зарегистрированных пользователей и гости: 0


Вы не можете начинать темы
Вы не можете отвечать на сообщения
Вы не можете редактировать свои сообщения
Вы не можете удалять свои сообщения
Вы не можете добавлять вложения

Перейти:  
cron