Начать новую тему Ответить на тему
Статистика раздачи
Размер: 893.83 МБ | Добавлен: 16 мар 2014, 00:08 | Скачали: 0
Сидеров: 4  [0 байт/сек]    Личеров: 0  [0 байт/сек]
Пред. тема | След. тема 

Автор
Сообщение

СообщениеДобавлено: 16 мар 2014, 00:08 

Ответить с цитатой 

The 69 Eyes - The Best of Helsinki Vampires (2013)


Год:
2013
Жанр: Gothic Rock
Лейбл: EMI Finland, Virgin
Каталог #: 3756378
Продолжительность:
Кодек: FLAC
Тип рипа: image + .cue
Битрейт: Lossless
Треклист:
01. Lost Boys (3:24)
02. Perfect Skin (3:45)
03. Brandon Lee (3:34)
04. Lost Without Love (4:02)
05. Feel Berlin (4:15)
06. The Chair (4:11)
07. Dead Girls are Easy (3:52)
08. Radical (3:56)
09. Tonight (3:47)
10. Dance d'Amour (3:58)
11. Borderline (3:54)
12. Angels (3:37)
13. Dead n' Gone (3:41)
14. Rosary Blue (feat. Kat Von D) (5:16)

Продолжительность: 00:55:11
Код:
Код:
Exact Audio Copy V1.0 beta 3 from 29. August 2011

EAC extraction logfile from 6. November 2013, 15:02

The 69 Eyes / The Best of Helsinki Vampires

Used drive  : ATAPI   iHAS124   B   Adapter: 4  ID: 0

Read mode               : Secure
Utilize accurate stream : Yes
Defeat audio cache      : Yes
Make use of C2 pointers : No

Read offset correction                      : 6
Overread into Lead-In and Lead-Out          : No
Fill up missing offset samples with silence : Yes
Delete leading and trailing silent blocks   : No
Null samples used in CRC calculations       : Yes
Used interface                              : Native Win32 interface for Win NT & 2000

Used output format : Internal WAV Routines
Sample format      : 44.100 Hz; 16 Bit; Stereo

TOC of the extracted CD

     Track |   Start  |  Length  | Start sector | End sector
    ---------------------------------------------------------
        1  |  0:00.00 |  3:24.06 |         0    |    15305
        2  |  3:24.06 |  3:45.27 |     15306    |    32207
        3  |  7:09.33 |  3:33.61 |     32208    |    48243
        4  | 10:43.19 |  4:01.40 |     48244    |    66358
        5  | 14:44.59 |  4:15.25 |     66359    |    85508
        6  | 19:00.09 |  4:10.51 |     85509    |   104309
        7  | 23:10.60 |  3:51.41 |    104310    |   121675
        8  | 27:02.26 |  3:55.59 |    121676    |   139359
        9  | 30:58.10 |  3:46.47 |    139360    |   156356
       10  | 34:44.57 |  3:58.31 |    156357    |   174237
       11  | 38:43.13 |  3:53.68 |    174238    |   191780
       12  | 42:37.06 |  3:37.20 |    191781    |   208075
       13  | 46:14.26 |  3:41.06 |    208076    |   224656
       14  | 49:55.32 |  5:15.42 |    224657    |   248323

Range status and errors

Selected range

     Filename G:\The 69 Eyes - The Best of Helsinki Vampires (2013) Lossless\CD1\The 69 Eyes - 2013 - The Best of Helsinki Vampires - CD1.wav

     Peak level 100.0 %
     Extraction speed 1.9 X
     Range quality 100.0 %
     Test CRC 2CF75EE0
     Copy CRC 2CF75EE0
     Copy OK

No errors occurred

AccurateRip summary

Track  1  not present in database
Track  2  not present in database
Track  3  not present in database
Track  4  not present in database
Track  5  not present in database
Track  6  not present in database
Track  7  not present in database
Track  8  not present in database
Track  9  not present in database
Track 10  not present in database
Track 11  not present in database
Track 12  not present in database
Track 13  not present in database
Track 14  not present in database

None of the tracks are present in the AccurateRip database

End of status report

---- CUETools DB Plugin V2.1.3

[CTDB TOCID: idQ0zsKCdJG3dDknDHaZ3T2PQ9o-] disk not present in database, Submit result: idQ0zsKCdJG3dDknDHaZ3T2PQ9o- has been uploaded

Код:
Код:
-----------------------

DON'T MODIFY THIS FILE

-----------------------

PERFORMER: auCDtect Task Manager, ver. 1.6.0 RC1 build 1.6.0.1
Copyright (c) 2008-2010 y-soft. All rights reserved
http:/y-soft.org

ANALYZER: auCDtect: CD records authenticity detector, version 0.8.2
Copyright (c) 2004 Oleg Berngardt. All rights reserved.
Copyright (c) 2004 Alexander Djourik. All rights reserved.

FILE: The 69 Eyes - The Best of Helsinki Vampires [CD1].flac
  Size: 413066978 Hash: 062444D7CC544041547A09A94240E22C Accuracy: -m0
  Conclusion: CDDA 100%
  Signature: 6C57677E97712E160712D2989F7FBBF9378EE6FD

Код:
Код:
REM GENRE "Gothic Rock"
REM DATE 2013
REM DISCID CC0CEE0E
REM COMMENT "ExactAudioCopy v1.0b3"
PERFORMER "The 69 Eyes"
TITLE "The Best of Helsinki Vampires [CD1]"
FILE "The 69 Eyes - The Best of Helsinki Vampires [CD1].flac" WAVE
  TRACK 01 AUDIO
    TITLE "Lost Boys"
    PERFORMER "The 69 Eyes"
    INDEX 01 00:00:00
  TRACK 02 AUDIO
    TITLE "Perfect Skin"
    PERFORMER "The 69 Eyes"
    INDEX 00 03:22:73
    INDEX 01 03:24:06
  TRACK 03 AUDIO
    TITLE "Brandon Lee"
    PERFORMER "The 69 Eyes"
    INDEX 00 07:08:05
    INDEX 01 07:09:33
  TRACK 04 AUDIO
    TITLE "Lost Without Love"
    PERFORMER "The 69 Eyes"
    INDEX 00 10:42:13
    INDEX 01 10:43:19
  TRACK 05 AUDIO
    TITLE "Feel Berlin"
    PERFORMER "The 69 Eyes"
    INDEX 00 14:43:61
    INDEX 01 14:44:59
  TRACK 06 AUDIO
    TITLE "The Chair"
    PERFORMER "The 69 Eyes"
    INDEX 00 18:59:02
    INDEX 01 19:00:09
  TRACK 07 AUDIO
    TITLE "Dead Girls are Easy"
    PERFORMER "The 69 Eyes"
    INDEX 00 23:10:28
    INDEX 01 23:10:60
  TRACK 08 AUDIO
    TITLE Radical
    PERFORMER "The 69 Eyes"
    INDEX 00 27:00:61
    INDEX 01 27:02:26
  TRACK 09 AUDIO
    TITLE Tonight
    PERFORMER "The 69 Eyes"
    INDEX 00 30:57:03
    INDEX 01 30:58:10
  TRACK 10 AUDIO
    TITLE "Dance d'Amour"
    PERFORMER "The 69 Eyes"
    INDEX 00 34:43:07
    INDEX 01 34:44:57
  TRACK 11 AUDIO
    TITLE Borderline
    PERFORMER "The 69 Eyes"
    INDEX 00 38:41:40
    INDEX 01 38:43:13
  TRACK 12 AUDIO
    TITLE Angels
    PERFORMER "The 69 Eyes"
    INDEX 00 42:36:24
    INDEX 01 42:37:06
  TRACK 13 AUDIO
    TITLE "Dead n' Gone"
    PERFORMER "The 69 Eyes"
    INDEX 00 46:13:34
    INDEX 01 46:14:26
  TRACK 14 AUDIO
    TITLE "Rosary Blue (feat. Kat Von D)"
    PERFORMER "The 69 Eyes"
    INDEX 00 49:54:63
    INDEX 01 49:55:32
Код:
Код:
[CUETools log; Date: 11.01.2014 7:24:58; Version: 2.1.4]
[CTDB TOCID: idQ0zsKCdJG3dDknDHaZ3T2PQ9o-] found.
Track | CTDB Status
  1   | (2/2) Accurately ripped
  2   | (2/2) Accurately ripped
  3   | (2/2) Accurately ripped
  4   | (2/2) Accurately ripped
  5   | (2/2) Accurately ripped
  6   | (2/2) Accurately ripped
  7   | (2/2) Accurately ripped
  8   | (2/2) Accurately ripped
  9   | (2/2) Accurately ripped
 10   | (2/2) Accurately ripped
 11   | (2/2) Accurately ripped
 12   | (2/2) Accurately ripped
 13   | (2/2) Accurately ripped
 14   | (2/2) Accurately ripped
[AccurateRip ID: 001bb755-01293bbe-cc0cee0e] found.
Track   [  CRC   |   V2   ] Status
 01     [f8c884e0|81ea9fb4] (0+0/0) No match
 02     [d52497f1|0056f482] (0+0/0) No match
 03     [f073196d|899cdd2a] (0+0/0) No match
 04     [7a4395f8|a7d0502d] (0+0/1) No match
 05     [5d04379a|5764bbf9] (0+0/0) No match
 06     [4a05d557|d52b3a2f] (0+0/0) No match
 07     [69783731|d12b6555] (0+0/0) No match
 08     [e2b9a7ed|bcaad6ad] (0+0/0) No match
 09     [e2467225|16470976] (0+0/0) No match
 10     [41ac1e2a|7069e107] (0+0/0) No match
 11     [6089135e|a608fd1c] (0+0/0) No match
 12     [94ff0b41|7e39fb74] (0+0/0) No match
 13     [558d40eb|c341a829] (0+0/0) No match
 14     [7c116da6|27331795] (0+0/0) No match
Offsetted by 6:
 01     [4d4aafa2] (0/0) No match
 02     [3aec9578] (0/0) No match
 03     [0c2254e1] (0/0) No match
 04     [f47db020] (0/1) No match (V2 was not tested)
 05     [7f0544f5] (0/0) No match
 06     [61c49c5e] (0/0) No match
 07     [9de9eb12] (0/0) No match
 08     [00a49075] (0/0) No match
 09     [4b5169fe] (0/0) No match
 10     [ed01ec21] (0/0) No match
 11     [b863101a] (0/0) No match
 12     [dc044495] (0/0) No match
 13     [c1dbc429] (0/0) No match
 14     [a38140b4] (0/0) No match

Track Peak [ CRC32  ] [W/O NULL] [  LOG   ]
 --  100,0 [2CF75EE0] [9B958762]   CRC32
 01   98,9 [1E3EB014] [5EBEDDA3]
 02   98,9 [639DC7F4] [20B601D3]
 03   98,9 [E171180A] [97FBA2B8]
 04  100,0 [E559E950] [146BA5DA]
 05   98,9 [F2BA0814] [AC2CAF77]
 06   98,9 [EC4F0E16] [247E3222]
 07   98,9 [9702EA7A] [581CB7C1]
 08   98,9 [79322832] [47F5CCCD]
 09   98,9 [E00B5C5F] [7EE2062B]
 10   98,9 [66D5222E] [0DA92A6E]
 11   98,9 [E2637CC0] [97E9B467]
 12   98,9 [8B4C549A] [5232243C]
 13   98,9 [23905647] [25E4BB96]
 14   98,9 [C36122D6] [7C8CB131]

#777Треклист:
01. Never Say Die (3:30)
02. Gothic Girl (4:31)
03. Betty Blue (3:38)
04. Sister of Charity (5:07)
05. Love Runs Away (4:25)
06. We Own the Night (4:00)
07. Red (3:49)
08. Devils (3:57)
09. Wrap Your Troubles in Dreams (4:33)
10. Wasting the Dawn (5:23)
11. Kiss Me Undead (3:56)
12. Crashing High (3:57)
13. Stolen Season (4:35)
14. Ghost (4:15)

Продолжительность: 00:58:36
Код:
Код:
Exact Audio Copy V1.0 beta 3 from 29. August 2011

EAC extraction logfile from 7. November 2013, 7:28

The 69 Eyes / The Best of Helsinki Vampires

Used drive  : ATAPI   iHAS124   B   Adapter: 4  ID: 0

Read mode               : Secure
Utilize accurate stream : Yes
Defeat audio cache      : Yes
Make use of C2 pointers : No

Read offset correction                      : 6
Overread into Lead-In and Lead-Out          : No
Fill up missing offset samples with silence : Yes
Delete leading and trailing silent blocks   : No
Null samples used in CRC calculations       : Yes
Used interface                              : Native Win32 interface for Win NT & 2000

Used output format : Internal WAV Routines
Sample format      : 44.100 Hz; 16 Bit; Stereo

TOC of the extracted CD

     Track |   Start  |  Length  | Start sector | End sector
    ---------------------------------------------------------
        1  |  0:00.00 |  3:29.63 |         0    |    15737
        2  |  3:29.63 |  4:31.18 |     15738    |    36080
        3  |  8:01.06 |  3:37.74 |     36081    |    52429
        4  | 11:39.05 |  5:06.70 |     52430    |    75449
        5  | 16:46.00 |  4:24.61 |     75450    |    95310
        6  | 21:10.61 |  3:59.73 |     95311    |   113308
        7  | 25:10.59 |  3:48.44 |    113309    |   130452
        8  | 28:59.28 |  3:57.25 |    130453    |   148252
        9  | 32:56.53 |  4:32.52 |    148253    |   168704
       10  | 37:29.30 |  5:23.32 |    168705    |   192961
       11  | 42:52.62 |  3:56.15 |    192962    |   210676
       12  | 46:49.02 |  3:57.31 |    210677    |   228482
       13  | 50:46.33 |  4:34.61 |    228483    |   249093
       14  | 55:21.19 |  4:15.00 |    249094    |   268218

Range status and errors

Selected range

     Filename G:\The 69 Eyes - The Best of Helsinki Vampires (2013) Lossless\CD2\The 69 Eyes - 2013 - The Best of Helsinki Vampires - CD2.wav

     Peak level 100.0 %
     Extraction speed 6.1 X
     Range quality 100.0 %
     Test CRC 7054B7A4
     Copy CRC 7054B7A4
     Copy OK

No errors occurred

AccurateRip summary

Track  1  not present in database
Track  2  not present in database
Track  3  not present in database
Track  4  not present in database
Track  5  not present in database
Track  6  not present in database
Track  7  not present in database
Track  8  not present in database
Track  9  not present in database
Track 10  not present in database
Track 11  not present in database
Track 12  not present in database
Track 13  not present in database
Track 14  not present in database

None of the tracks are present in the AccurateRip database

End of status report

---- CUETools DB Plugin V2.1.3

[CTDB TOCID: U8bWLsoKDWIVvi2RKa5hByYpQbA-] disk not present in database, Submit result: U8bWLsoKDWIVvi2RKa5hByYpQbA- has been uploaded

Код:
Код:
-----------------------

DON'T MODIFY THIS FILE

-----------------------

PERFORMER: auCDtect Task Manager, ver. 1.6.0 RC1 build 1.6.0.1
Copyright (c) 2008-2010 y-soft. All rights reserved
http:/y-soft.org

ANALYZER: auCDtect: CD records authenticity detector, version 0.8.2
Copyright (c) 2004 Oleg Berngardt. All rights reserved.
Copyright (c) 2004 Alexander Djourik. All rights reserved.

FILE: The 69 Eyes - The Best of Helsinki Vampires [CD2].flac
  Size: 460833825 Hash: 2021993A47E8CEBDF154759A4E7674D7 Accuracy: -m0
  Conclusion: CDDA 100%
  Signature: EBA84B0C6C15E53C121EB3FFC8D7362A6F0A5ED0

Код:
Код:
REM GENRE "Gothic Rock"
REM DATE 2013
REM DISCID A30DF80E
REM COMMENT "ExactAudioCopy v1.0b3"
PERFORMER "The 69 Eyes"
TITLE "The Best of Helsinki Vampires [CD2]"
FILE "The 69 Eyes - The Best of Helsinki Vampires [CD2].flac" WAVE
  TRACK 01 AUDIO
    TITLE "Never Say Die"
    PERFORMER "The 69 Eyes"
    INDEX 01 00:00:00
  TRACK 02 AUDIO
    TITLE "Gothic Girl"
    PERFORMER "The 69 Eyes"
    INDEX 00 03:28:69
    INDEX 01 03:29:63
  TRACK 03 AUDIO
    TITLE "Betty Blue"
    PERFORMER "The 69 Eyes"
    INDEX 00 08:00:15
    INDEX 01 08:01:06
  TRACK 04 AUDIO
    TITLE "Sister of Charity"
    PERFORMER "The 69 Eyes"
    INDEX 00 11:37:18
    INDEX 01 11:39:05
  TRACK 05 AUDIO
    TITLE "Love Runs Away"
    PERFORMER "The 69 Eyes"
    INDEX 01 16:46:00
  TRACK 06 AUDIO
    TITLE "We Own the Night"
    PERFORMER "The 69 Eyes"
    INDEX 00 21:08:63
    INDEX 01 21:10:61
  TRACK 07 AUDIO
    TITLE Red
    PERFORMER "The 69 Eyes"
    INDEX 00 25:09:42
    INDEX 01 25:10:59
  TRACK 08 AUDIO
    TITLE Devils
    PERFORMER "The 69 Eyes"
    INDEX 00 28:58:04
    INDEX 01 28:59:28
  TRACK 09 AUDIO
    TITLE "Wrap Your Troubles in Dreams"
    PERFORMER "The 69 Eyes"
    INDEX 00 32:55:29
    INDEX 01 32:56:53
  TRACK 10 AUDIO
    TITLE "Wasting the Dawn"
    PERFORMER "The 69 Eyes"
    INDEX 00 37:27:35
    INDEX 01 37:29:30
  TRACK 11 AUDIO
    TITLE "Kiss Me Undead"
    PERFORMER "The 69 Eyes"
    INDEX 00 42:51:32
    INDEX 01 42:52:62
  TRACK 12 AUDIO
    TITLE "Crashing High"
    PERFORMER "The 69 Eyes"
    INDEX 00 46:48:07
    INDEX 01 46:49:02
  TRACK 13 AUDIO
    TITLE "Stolen Season"
    PERFORMER "The 69 Eyes"
    INDEX 00 50:44:08
    INDEX 01 50:46:33
  TRACK 14 AUDIO
    TITLE Ghost
    PERFORMER "The 69 Eyes"
    INDEX 00 55:19:60
    INDEX 01 55:21:19
Код:
Код:
[CUETools log; Date: 11.01.2014 7:26:59; Version: 2.1.4]
[CTDB TOCID: U8bWLsoKDWIVvi2RKa5hByYpQbA-] found.
Track | CTDB Status
  1   | (2/2) Accurately ripped
  2   | (2/2) Accurately ripped
  3   | (2/2) Accurately ripped
  4   | (2/2) Accurately ripped
  5   | (2/2) Accurately ripped
  6   | (2/2) Accurately ripped
  7   | (2/2) Accurately ripped
  8   | (2/2) Accurately ripped
  9   | (2/2) Accurately ripped
 10   | (2/2) Accurately ripped
 11   | (2/2) Accurately ripped
 12   | (2/2) Accurately ripped
 13   | (2/2) Accurately ripped
 14   | (2/2) Accurately ripped
[AccurateRip ID: 001e4a8d-0144d540-a30df80e] disk not present in database.

Track Peak [ CRC32  ] [W/O NULL] [  LOG   ]
 --  100,0 [7054B7A4] [1C88A31F]   CRC32
 01   98,0 [BE1432B2] [C3210FD2]
 02   98,9 [FDE5AAE5] [5BA3CD48]
 03   98,9 [CBDD4043] [33930C53]
 04   98,9 [8171A0EE] [0456A584]
 05   98,9 [C1578062] [D2348785]
 06   98,9 [D4349CFF] [D480BCE8]
 07   98,9 [525DCBC2] [B0BA9C34]
 08   98,9 [BAB42EF9] [623C974C]
 09   98,9 [A3C659E2] [1424B262]
 10   98,9 [4E258FCF] [2A3C794B]
 11  100,0 [4431A241] [68A274F7]
 12   98,9 [42470B6D] [F556171B]
 13   98,9 [DEEEF09D] [64E2C5EF]
 14   98,9 [345BBEB4] [D03CB57B]

Правила, инструкции, FAQ!!!
Торрент  Добавлен [16 мар 2014, 00:08] Скачать торрент Магнет ссылка
Скачать торрент
[ Размер 19.2 КБ / Просмотров 105 ]

Статус  
 
Размер  893.83 МБ
Приватный: Нет (DHT включён)
.torrent скачан  0
 


     Отправить личное сообщение
   
Страница 1 из 1
Показать сообщения за:  Поле сортировки  
Начать новую тему Ответить на тему


Сейчас этот форум просматривают: нет зарегистрированных пользователей и гости: 0


Вы не можете начинать темы
Вы не можете отвечать на сообщения
Вы не можете редактировать свои сообщения
Вы не можете удалять свои сообщения
Вы не можете добавлять вложения

Перейти:  
cron
cron