Начать новую тему Ответить на тему
Статистика раздачи
Размер: 469.79 МБ | Добавлен: 01 июл 2017, 08:22 | Скачали: 1
Сидеров: 2  [0 байт/сек]    Личеров: 0  [0 байт/сек]
Пред. тема | След. тема 

Автор
Сообщение

СообщениеДобавлено: 01 июл 2017, 08:22 

Ответить с цитатой 

Tegan And Sara / Heartthrob
Формат записи/Источник записи: [TR24][OF]
Наличие водяных знаков: Нет
Год издания/переиздания диска: 2013
Жанр: Indie, Pop, Rock
Издатель (лейбл): Vapor/Warner Bros.
Продолжительность: 36:29
Наличие сканов в содержимом раздачи: Только обложка альбома
Треклист:
1. Closer
2. Goodbye, Goodbye
3. I Was A Fool
4. I'm Not Your Hero
5. Drove Me Wild
6. How Come You Don't Want Me
7. I Couldn't Be Your Friend
8. Love They Say
9. Now I'm All Messed Up
10. Shock To Your System
Контейнер: FLAC (*.flac)
Тип рипа: tracks
Разрядность: 24/44,1
Формат: PCM
Количество каналов: 2.0
Код:
foobar2000 1.3.13 / Замер динамического диапазона (DR) 1.1.1
Дата отчёта:  2017-04-14 17:05:44
--------------------------------------------------------------------------------
Анализ:   Tegan And Sara / Heartthrob
--------------------------------------------------------------------------------
DR         Пики         RMS           Продолжительность трека
--------------------------------------------------------------------------------
DR6       -0.14 дБ    -8.19 дБ      3:29 01-Closer
DR7       -0.10 дБ    -8.34 дБ      3:26 02-Goodbye, Goodbye
DR6       -0.10 дБ    -7.84 дБ      3:24 03-I Was A Fool
DR6       -0.15 дБ    -7.84 дБ      3:51 04-I'm Not Your Hero
DR5       -0.10 дБ    -6.45 дБ      3:49 05-Drove Me Wild
DR5       -0.37 дБ    -7.52 дБ      2:52 06-How Come You Don't Want Me
DR6       -0.10 дБ    -7.67 дБ      4:19 07-I Couldn't Be Your Friend
DR6       -0.10 дБ    -7.27 дБ      3:34 08-Love They Say
DR5       -0.10 дБ    -6.79 дБ      4:08 09-Now I'm All Messed Up
DR7       -0.10 дБ    -7.63 дБ      3:36 10-Shock To Your System
--------------------------------------------------------------------------------
Количество треков: 10
Реальные значения DR: DR6
Частота:   44100 Гц
Каналов:   2
Разрядность:   24
Битрейт:   1657 кбит/с
Кодек:   FLAC
================================================================================
Источник (релизер): Acousticsounds
Правила, инструкции, FAQ!!!
Торрент  Добавлен [01 июл 2017, 08:22] Скачать торрент Магнет ссылка
Скачать торрент
[ Размер 19.63 КБ / Просмотров 90 ]

Статус
Проверен 
 
Размер  469.79 МБ
Приватный: Нет (DHT включён)
.torrent скачан  1
 


     Отправить личное сообщение
   
Страница 1 из 1
Показать сообщения за:  Поле сортировки  
Начать новую тему Ответить на тему


Сейчас этот форум просматривают: нет зарегистрированных пользователей и гости: 0


Вы не можете начинать темы
Вы не можете отвечать на сообщения
Вы не можете редактировать свои сообщения
Вы не можете удалять свои сообщения
Вы не можете добавлять вложения

Перейти:  
cron