Начать новую тему Ответить на тему
Статистика раздачи
Размер: 1.36 ГБ | Добавлен: 01 апр 2019, 19:06 | Скачали: 0
Сидеров: 5  [0 байт/сек]    Личеров: 2  [0 байт/сек]
Пред. тема | След. тема 

Автор
Сообщение

СообщениеДобавлено: 01 апр 2019, 19:06 

Ответить с цитатой 

Teena Marie - Beautiful
Формат записи/Источник записи: [TR24][OF]
Наличие водяных знаков: Нет
Год издания/переиздания диска: 2013
Жанр: Pop, Soul
Издатель (лейбл): UMe
Продолжительность: 63:11
Наличие сканов в содержимом раздачи: Только обложка альбома
Треклист:
01. Luv Letter (4:37)
02. Sweet Tooth (5:36)
03. Rare Breed (feat. Alia Rose & Ty James) (4:38)
04. Love Starved (4:45)
05. Definition Of Down (4:48)
06. Maria Bonita (5:15)
07. Beautiful (For Alia) (5:44)
08. The Long Play (6:30)
09. Carte Blanche (5:17)
10. Give Me Your Love (feat. Alia Rose) (4:56)
11. Wild Horses (5:17)
12. The Perfect Feeling (5:49)
 
Beautiful is the mesmerizing posthumous project by Teena Marie. “The Ivory Queen of Soul” possessed one of music’s most soulful voices. This self-produced album contains all new material, plus a cover of Curtis Mayfield’s “Give Me Your Love” accompanied by her daughter Alia Rose. Alia Rose brought her mother’s final project to light, ensuring it lived up to her legacy. It includes the compelling single “Luv Letter,” which is Teena’s homage to her Motown roots. This is a truly magical work, essential for any music lover’s library.
Reviews
3 1/2 stars out of 4 - "She left her 14th album (finished by singer/daughter Alia Rose), which brims with her trademark lush ballads and swaggering jams. It's a beautiful parting gift." - USA Today

Контейнер: FLAC (*.flac)
Тип рипа: tracks
Разрядность: 24/96
Формат: PCM
Количество каналов: 2.0
Код:
foobar2000 1.3.9 / Dynamic Range Meter 1.1.1
log date: 2018-01-07 13:12:02
--------------------------------------------------------------------------------
Analyzed: Teena Marie / Beautiful
--------------------------------------------------------------------------------
DR         Peak         RMS     Duration Track
--------------------------------------------------------------------------------
DR7        0.00 dB    -7.57 dB      4:37 01-Luv Letter
DR7        0.00 dB    -8.26 dB      5:36 02-Sweet Tooth
DR6        0.00 dB    -6.83 dB      4:38 03-Rare Breed (feat. Alia Rose & Ty James)
DR6        0.00 dB    -6.65 dB      4:45 04-Love Starved
DR7        0.00 dB    -8.79 dB      4:48 05-Definition Of Down
DR6        0.00 dB    -7.79 dB      5:15 06-Maria Bonita
DR7        0.00 dB    -9.63 dB      5:44 07-Beautiful (For Alia)
DR8        0.00 dB    -9.85 dB      6:30 08-The Long Play
DR8        0.00 dB    -8.57 dB      5:17 09-Carte Blanche
DR7        0.00 dB    -7.89 dB      4:56 10-Give Me Your Love (feat. Alia Rose)
DR7        0.00 dB    -8.65 dB      5:17 11-Wild Horses
DR6        0.00 dB    -8.49 dB      5:49 12-The Perfect Feeling
--------------------------------------------------------------------------------
Number of tracks:  12
Official DR value: DR7
Samplerate:        96000 Hz
Channels:          2
Bits per sample:   24
Bitrate:           3235 kbps
Codec:             FLAC
================================================================================
Источник: hdtracks.com[/spoiler]
Правила, инструкции, FAQ!!!
Торрент  Добавлен [01 апр 2019, 19:06] Скачать торрент Магнет ссылка
Скачать торрент
[ Размер 14.89 КБ / Просмотров 18 ]

Статус
Проверен 
 
Размер  1.36 ГБ
Приватный: Нет (DHT включён)
.torrent скачан  0
 


     Отправить личное сообщение
   
Страница 1 из 1
Показать сообщения за:  Поле сортировки  
Начать новую тему Ответить на тему


Сейчас этот форум просматривают: нет зарегистрированных пользователей и гости: 0


Вы не можете начинать темы
Вы не можете отвечать на сообщения
Вы не можете редактировать свои сообщения
Вы не можете удалять свои сообщения
Вы не можете добавлять вложения

Перейти:  
cron