Начать новую тему Ответить на тему
Статистика раздачи
Размер: 2.32 ГБ | Добавлен: 24 авг 2016, 11:43 | Скачали: 0
Сидеров: 5  [0 байт/сек]    Личеров: 2  [0 байт/сек]
Пред. тема | След. тема 

Автор
Сообщение

СообщениеДобавлено: 24 авг 2016, 11:43 

Ответить с цитатой 






Жанр: Technical Death Metal
Год выпуска: 2002
Лейбл: Earache · MOSH 255
Страна-производитель: UK
Аудио кодек: FLAC
Тип рипа: tracks
Формат записи: 24/96
Формат раздачи: 24/96
Продолжительность: 35:08
Источник оцифровки: Albrech

A1. Perfect Dehumanisation (The Answer) (5:25)

A2. Eternity Too Short (4:33)
A3. Mother War (4:09)
A4. Nihility (Anti-Human Manifesto) (5:00)
B1. Names (3:53)
B2. Spheres of Madness (5:15)
B3. Babylon's Pride (4:16)
B4. Symmetry of Zero (2:36)


turntable: Technics SL-1200MK2
cartridge: Denon DL103R w/stabiliser
preamp: Pro-Ject Tube Box II
interface: Focusrite Saffire
software: Sound Forge, iZotope RX
foobar2000 1.2 / Dynamic Range Meter 1.1.1
log date: 2014-03-30 17:43:05

--------------------------------------------------------------------------------
Analyzed: Decapitated / Nihility
--------------------------------------------------------------------------------

DR Peak RMS Duration Track
--------------------------------------------------------------------------------
DR10 -1.37 dB -12.90 dB 5:25 A1-Perfect Dehumanisation (The Answer)
DR10 -1.23 dB -12.37 dB 4:33 A2-Eternity Too Short
DR10 -1.18 dB -12.30 dB 4:09 A3-Mother War
DR10 -0.84 dB -12.29 dB 5:00 A4-Nihility (Anti-Human Manifesto)
DR10 -0.18 dB -10.91 dB 3:53 B1-Names
DR10 -0.73 dB -12.02 dB 5:15 B2-Spheres of Madness
DR10 -0.82 dB -11.68 dB 4:16 B3-Babylon's Pride
DR10 -0.37 dB -10.93 dB 2:36 B4-Symmetry of Zero
--------------------------------------------------------------------------------

Number of tracks: 8
Official DR value: DR10

Samplerate: 96000 Hz
Channels: 2
Bits per sample: 24
Bitrate: 4288 kbps
Codec: FLAC
================================================================================
#777Жанр: Technical Death Metal
Год выпуска: 2004
Лейбл: Earache · MOSH 274LP
Страна-производитель: USA
Аудио кодек: FLAC
Тип рипа: tracks
Формат записи: 24/96
Формат раздачи: 24/96
Продолжительность: 32:55
Источник оцифровки: Albrech

01. The Fury (4:27)

02. Three-Dimensional Defect (3:58)
03. Lying And Weak (3:25)
04. Sensual Sickness (4:05)
05. The Calling (1:19)
06. The Negation (5:04)
07. Long-Desired Dementia (3:21)
08. The Empty Throne (4:43)
09. Lunatic Of God's Creation (2:33)


turntable: Technics SL-1200MK2
cartridge: Denon DL103R w/stabiliser
preamp: Pro-Ject Tube Box II
interface: Focusrite Saffire
software: Sound Forge, iZotope RX
foobar2000 1.2 / Dynamic Range Meter 1.1.1
log date: 2014-04-18 23:50:31

--------------------------------------------------------------------------------
Analyzed: Decapitated / The Negation
--------------------------------------------------------------------------------

DR Peak RMS Duration Track
--------------------------------------------------------------------------------
DR9 -0.15 dB -10.67 dB 4:27 01-The Fury
DR9 -0.11 dB -10.72 dB 3:58 02-Three-Dimensional Defect
DR9 -0.57 dB -10.80 dB 3:25 03-Lying And Weak
DR9 -0.88 dB -10.97 dB 4:05 04-Sensual Sickness
DR11 -2.64 dB -15.19 dB 1:19 05-The Calling
DR10 -0.36 dB -10.96 dB 5:04 06-The Negation
DR9 -0.48 dB -10.67 dB 3:21 07-Long-Desired Dementia
DR10 -0.28 dB -10.92 dB 4:43 08-The Empty Throne
DR10 -0.39 dB -11.07 dB 2:33 09-Lunatic Of God's Creation
--------------------------------------------------------------------------------

Number of tracks: 9
Official DR value: DR10

Samplerate: 96000 Hz
Channels: 2
Bits per sample: 24
Bitrate: 3289 kbps
Codec: FLAC

Данный материал предоставлен исключительно для ознакомления, после прослушивания уничтожить жёсткий диск. Рекомендуется приобрести фирменную продукцию.
Правила, инструкции, FAQ!!!
Торрент  Добавлен [24 авг 2016, 11:43] Скачать торрент Магнет ссылка
Скачать торрент
[ Размер 29.01 КБ / Просмотров 24 ]

Статус
Проверен 
 
Размер  2.32 ГБ
Приватный: Нет (DHT включён)
.torrent скачан  0
 


     Отправить личное сообщение
   
Страница 1 из 1
Показать сообщения за:  Поле сортировки  
Начать новую тему Ответить на тему


Сейчас этот форум просматривают: нет зарегистрированных пользователей и гости: 0


Вы не можете начинать темы
Вы не можете отвечать на сообщения
Вы не можете редактировать свои сообщения
Вы не можете удалять свои сообщения
Вы не можете добавлять вложения

Перейти:  
cron
cron