Начать новую тему Ответить на тему
Статистика раздачи
Размер: 324.21 МБ | Добавлен: 16 мар 2014, 00:55 | Скачали: 0
Сидеров: 1  [0 байт/сек]    Личеров: 0  [0 байт/сек]
Пред. тема | След. тема 

Автор
Сообщение

СообщениеДобавлено: 16 мар 2014, 00:55 

Ответить с цитатой 

Tear Out The Heart
- Violence


Год выпуска: 2013
Жанр: Metalcore | Post-Hardcore
Продолжительность: 00:39:13
Тип издания: Альбом
Страна: США



Треклист:

01. Dead By Dawn
02. Infamous Last Words
03. Crucified
04. Undead Anthem (featuring Caleb Shomo)
05. Violence
06. Feed Me A Stray Cat
07. Coffin Eyes (featuring Dan Marsala)
08. Eternal Shadows
09. Closure
10. Only Posers Die
11. Darker Tides


Код:
Код:
X Lossless Decoder version 20130407 (143.0)

XLD extraction logfile from 2013-07-22 18:35:38 -0400

Tear Out The Heart / Violence

Used drive : MATSHITA DVD-R   UJ-857 (revision HBEA)
Media type : Pressed CD

Ripper mode             : XLD Secure Ripper
Disable audio cache     : OK for the drive with a cache less than 1375KiB
Make use of C2 pointers : NO
Read offset correction  : 102
Max retry count         : 100
Gap status              : Analyzed, Appended (except HTOA)

TOC of the extracted CD
     Track |   Start  |  Length  | Start sector | End sector
    ---------------------------------------------------------
        1  | 00:00:00 | 04:18:07 |         0    |    19356
        2  | 04:18:07 | 03:41:15 |     19357    |    35946
        3  | 07:59:22 | 03:22:05 |     35947    |    51101
        4  | 11:21:27 | 03:32:35 |     51102    |    67036
        5  | 14:53:62 | 03:29:53 |     67037    |    82764
        6  | 18:23:40 | 03:18:36 |     82765    |    97650
        7  | 21:42:01 | 02:50:15 |     97651    |   110415
        8  | 24:32:16 | 03:58:74 |    110416    |   128339
        9  | 28:31:15 | 03:45:32 |    128340    |   145246
       10  | 32:16:47 | 03:05:32 |    145247    |   159153
       11  | 35:22:04 | 03:51:17 |    159154    |   176495

AccurateRip Summary
    Disc not found in AccurateRip DB.

All Tracks
    Album gain               : -11.77 dB
    Peak                     : 0.968719
    Statistics
        Read error                           : 0
        Jitter error (maybe fixed)           : 0
        Retry sector count                   : 0
        Damaged sector count                 : 0

Track 01
    Filename : /Users/Nathan/Documents/Vuze Downloads/Tear Out The Heart - Violence (2013) [FLAC]/01 Dead By Dawn.flac
    Pre-gap length : 00:02:00

    Track gain               : -11.99 dB
    Peak                     : 0.968536
    CRC32 hash (test run)    : 5178D0FF
    CRC32 hash               : 5178D0FF
    CRC32 hash (skip zero)   : 889E86B8
    AccurateRip v1 signature : 40DCBFAF
    AccurateRip v2 signature : 454A6410
        ->Track not present in AccurateRip database.
    Statistics
        Read error                           : 0
        Jitter error (maybe fixed)           : 0
        Retry sector count                   : 0
        Damaged sector count                 : 0

Track 02
    Filename : /Users/Nathan/Documents/Vuze Downloads/Tear Out The Heart - Violence (2013) [FLAC]/02 Infamous Last Words.flac

    Track gain               : -11.78 dB
    Peak                     : 0.968536
    CRC32 hash (test run)    : 35F7FAA2
    CRC32 hash               : 35F7FAA2
    CRC32 hash (skip zero)   : AB8F1AD4
    AccurateRip v1 signature : 70D4AD83
    AccurateRip v2 signature : 98EF697C
        ->Track not present in AccurateRip database.
    Statistics
        Read error                           : 0
        Jitter error (maybe fixed)           : 0
        Retry sector count                   : 0
        Damaged sector count                 : 0

Track 03
    Filename : /Users/Nathan/Documents/Vuze Downloads/Tear Out The Heart - Violence (2013) [FLAC]/03 Crucified.flac

    Track gain               : -11.54 dB
    Peak                     : 0.968689
    CRC32 hash (test run)    : 64982B1B
    CRC32 hash               : 64982B1B
    CRC32 hash (skip zero)   : C8C96D0D
    AccurateRip v1 signature : BCA48CB9
    AccurateRip v2 signature : 6E7C6C61
        ->Track not present in AccurateRip database.
    Statistics
        Read error                           : 0
        Jitter error (maybe fixed)           : 0
        Retry sector count                   : 0
        Damaged sector count                 : 0

Track 04
    Filename : /Users/Nathan/Documents/Vuze Downloads/Tear Out The Heart - Violence (2013) [FLAC]/04 Undead Anthem (featuring Caleb Shomo).flac

    Track gain               : -11.78 dB
    Peak                     : 0.968536
    CRC32 hash (test run)    : 5A41FE9B
    CRC32 hash               : 5A41FE9B
    CRC32 hash (skip zero)   : C4280B0C
    AccurateRip v1 signature : 21359B74
    AccurateRip v2 signature : 2FDFC0BC
        ->Track not present in AccurateRip database.
    Statistics
        Read error                           : 0
        Jitter error (maybe fixed)           : 0
        Retry sector count                   : 0
        Damaged sector count                 : 0

Track 05
    Filename : /Users/Nathan/Documents/Vuze Downloads/Tear Out The Heart - Violence (2013) [FLAC]/05 Violence.flac

    Track gain               : -11.87 dB
    Peak                     : 0.968719
    CRC32 hash (test run)    : BF242441
    CRC32 hash               : BF242441
    CRC32 hash (skip zero)   : 1762D5C1
    AccurateRip v1 signature : B5BD3339
    AccurateRip v2 signature : 5B60DCF9
        ->Track not present in AccurateRip database.
    Statistics
        Read error                           : 0
        Jitter error (maybe fixed)           : 0
        Retry sector count                   : 0
        Damaged sector count                 : 0

Track 06
    Filename : /Users/Nathan/Documents/Vuze Downloads/Tear Out The Heart - Violence (2013) [FLAC]/06 Feed Me A Stray Cat.flac

    Track gain               : -12.01 dB
    Peak                     : 0.968536
    CRC32 hash (test run)    : 9B7B9E75
    CRC32 hash               : 9B7B9E75
    CRC32 hash (skip zero)   : 94863F1C
    AccurateRip v1 signature : 15583337
    AccurateRip v2 signature : DFF0E988
        ->Track not present in AccurateRip database.
    Statistics
        Read error                           : 0
        Jitter error (maybe fixed)           : 0
        Retry sector count                   : 0
        Damaged sector count                 : 0

Track 07
    Filename : /Users/Nathan/Documents/Vuze Downloads/Tear Out The Heart - Violence (2013) [FLAC]/07 Coffin Eyes (featuring Dan Marsala).flac

    Track gain               : -11.48 dB
    Peak                     : 0.968506
    CRC32 hash (test run)    : D0D3DFC8
    CRC32 hash               : D0D3DFC8
    CRC32 hash (skip zero)   : 634B39FA
    AccurateRip v1 signature : B6E56570
    AccurateRip v2 signature : 074B3712
        ->Track not present in AccurateRip database.
    Statistics
        Read error                           : 0
        Jitter error (maybe fixed)           : 0
        Retry sector count                   : 0
        Damaged sector count                 : 0

Track 08
    Filename : /Users/Nathan/Documents/Vuze Downloads/Tear Out The Heart - Violence (2013) [FLAC]/08 Eternal Shadows.flac

    Track gain               : -11.89 dB
    Peak                     : 0.968536
    CRC32 hash (test run)    : 20D85969
    CRC32 hash               : 20D85969
    CRC32 hash (skip zero)   : C61D830B
    AccurateRip v1 signature : F01347FB
    AccurateRip v2 signature : CDA2B870
        ->Track not present in AccurateRip database.
    Statistics
        Read error                           : 0
        Jitter error (maybe fixed)           : 0
        Retry sector count                   : 0
        Damaged sector count                 : 0

Track 09
    Filename : /Users/Nathan/Documents/Vuze Downloads/Tear Out The Heart - Violence (2013) [FLAC]/09 Closure.flac

    Track gain               : -11.23 dB
    Peak                     : 0.968536
    CRC32 hash (test run)    : 42BE1C9E
    CRC32 hash               : 42BE1C9E
    CRC32 hash (skip zero)   : 7C6E27D2
    AccurateRip v1 signature : D315A643
    AccurateRip v2 signature : D350FE73
        ->Track not present in AccurateRip database.
    Statistics
        Read error                           : 0
        Jitter error (maybe fixed)           : 0
        Retry sector count                   : 0
        Damaged sector count                 : 0

Track 10
    Filename : /Users/Nathan/Documents/Vuze Downloads/Tear Out The Heart - Violence (2013) [FLAC]/10 Only Posers Die.flac

    Track gain               : -11.43 dB
    Peak                     : 0.968567
    CRC32 hash (test run)    : 2D46990F
    CRC32 hash               : 2D46990F
    CRC32 hash (skip zero)   : 13050F04
    AccurateRip v1 signature : BD3E3996
    AccurateRip v2 signature : CCD4EA1E
        ->Track not present in AccurateRip database.
    Statistics
        Read error                           : 0
        Jitter error (maybe fixed)           : 0
        Retry sector count                   : 0
        Damaged sector count                 : 0

Track 11
    Filename : /Users/Nathan/Documents/Vuze Downloads/Tear Out The Heart - Violence (2013) [FLAC]/11 Darker Tides.flac
    Pre-gap length : 00:02:00

    Track gain               : -11.68 dB
    Peak                     : 0.968536
    CRC32 hash (test run)    : 473553B7
    CRC32 hash               : 473553B7
    CRC32 hash (skip zero)   : 03432919
    AccurateRip v1 signature : 22E61BA7
    AccurateRip v2 signature : F7876509
        ->Track not present in AccurateRip database.
    Statistics
        Read error                           : 0
        Jitter error (maybe fixed)           : 0
        Retry sector count                   : 0
        Damaged sector count                 : 0

No errors occurred

End of status report

Код:
Код:
-----------------------

DON'T MODIFY THIS FILE

-----------------------

PERFORMER: auCDtect Task Manager, ver. 1.6.0 RC1 build 1.6.0.1
Copyright (c) 2008-2010 y-soft. All rights reserved
http:/y-soft.org

ANALYZER: auCDtect: CD records authenticity detector, version 0.8.2
Copyright (c) 2004 Oleg Berngardt. All rights reserved.
Copyright (c) 2004 Alexander Djourik. All rights reserved.

FILE: 11. Tear Out The Heart - Darker Tides.flac
  Size: 33045175 Hash: 89EB883401BD4536F5F0B889D137A49C Accuracy: -m0
  Conclusion: CDDA 100%
  Signature: E8E05440BA603B82D5F62245BA516A0460195DEE
FILE: 10. Tear Out The Heart - Only Posers Die.flac
  Size: 27182255 Hash: 40C18929D40A418321B8A42D1F54E4C4 Accuracy: -m0
  Conclusion: CDDA 99%
  Signature: D9E187C3CC417779D03F4406FCA990EFF3CDC7BC
FILE: 09. Tear Out The Heart - Closure.flac
  Size: 30606620 Hash: 6CB1B3113650D08E5C6B68D4D8A1237D Accuracy: -m0
  Conclusion: CDDA 100%
  Signature: 33CE96A773BBAFEA7AB6CE4C18833EFEABDAA94A
FILE: 08. Tear Out The Heart - Eternal Shadows.flac
  Size: 34102764 Hash: 0F5807620BFDEF8D4818312A2352B581 Accuracy: -m0
  Conclusion: CDDA 100%
  Signature: 97366FB007B27472B84D6411655C9AAC8F65FB75
FILE: 07. Tear Out The Heart - Coffin Eyes (featuring Dan Marsala).flac
  Size: 24236310 Hash: 704E10D6A570A870A1378EE0AAAB76E7 Accuracy: -m0
  Conclusion: CDDA 100%
  Signature: 95FC0CA8F5427BD8650B5F1405A0F9D0F7BF6BEB
FILE: 06. Tear Out The Heart - Feed Me A Stray Cat.flac
  Size: 29879472 Hash: 1755B4E3871823042094C6646080DA6A Accuracy: -m0
  Conclusion: CDDA 100%
  Signature: 153626638D347C70F19389BDB8753ABE28445688
FILE: 05. Tear Out The Heart - Violence.flac
  Size: 30862251 Hash: 767E6B455254EAAF270EE31A5F44650E Accuracy: -m0
  Conclusion: CDDA 100%
  Signature: A53ECEC4EE95144EB1B59DF4D3820F7A2C580B96
FILE: 04. Tear Out The Heart - Undead Anthem (featuring Caleb Shomo).flac
  Size: 30974171 Hash: BD3A0365DDBED10BA67510A0C61A8383 Accuracy: -m0
  Conclusion: CDDA 100%
  Signature: 39C30BE5CD350B4CF987259922A89CB1BC7E28BB
FILE: 03. Tear Out The Heart - Crucified.flac
  Size: 29204079 Hash: 510535F0E191D06AF12C45E8DB097B93 Accuracy: -m0
  Conclusion: CDDA 100%
  Signature: 92003B8AABDA39ACF7F64D8E6BE66715ACF88308
FILE: 02. Tear Out The Heart - Infamous Last Words.flac
  Size: 32261657 Hash: 3E8A80FD6D8665C9726781CD28B4411B Accuracy: -m0
  Conclusion: CDDA 100%
  Signature: 6C12BB559846996DC2EB721C9618AE9DE9FE98DE
FILE: 01. Tear Out The Heart - Dead By Dawn.flac
  Size: 35493662 Hash: DC690636F9C292643D3BFF44DB4E2EE5 Accuracy: -m0
  Conclusion: CDDA 100%
  Signature: 9690B54378C6A29775044040083C347F2AD039CE

Тип рипа: Tracks+.cue
Аудиокодек: FLAC
Битрейт аудио: lossless
Правила, инструкции, FAQ!!!
Торрент  Добавлен [16 мар 2014, 00:55] Скачать торрент Магнет ссылка
Скачать торрент
[ Размер 14.4 КБ / Просмотров 34 ]

Статус  
 
Размер  324.21 МБ
Приватный: Нет (DHT включён)
.torrent скачан  0
 


     Отправить личное сообщение
   
Страница 1 из 1
Показать сообщения за:  Поле сортировки  
Начать новую тему Ответить на тему


Сейчас этот форум просматривают: нет зарегистрированных пользователей и гости: 0


Вы не можете начинать темы
Вы не можете отвечать на сообщения
Вы не можете редактировать свои сообщения
Вы не можете удалять свои сообщения
Вы не можете добавлять вложения

Перейти:  
cron