Начать новую тему Ответить на тему
Статистика раздачи
Размер: 1.39 ГБ | Добавлен: 16 мар 2014, 00:02 | Скачали: 0
Сидеров: 0  [0 байт/сек]    Личеров: 0  [0 байт/сек]
Пред. тема | След. тема 

Автор
Сообщение

СообщениеДобавлено: 16 мар 2014, 00:02 

Ответить с цитатой 

Tasavallan Presidentti - 5 Studio Albums (1969-1974)



Жанр: Psychedelic Rock/Jazz Rock/Progressive rock | Год: 1969-1974 | Страна: Finland
language: Celtic-Viking | Released: 1990-2002/Finland | Label: Love Records/EMI
Аудио кодек: APE/FLAC | Тип рипа: image+.cue/tracks+.cue
Битрейт аудио: lossless | Продолжительность: 03:43:15
Scans: в раздаче


Tasavallan presidentti
Год: 1969
Released: 1990/Finland Remastered
Label: Love Records
Catalog#: LRCD 7
Format: Remastered, Enhanced
Аудио кодек: APE
Тип рипа: image + .cue
Продолжительность: 00:51:21
Источник-релизер: Corvin von Amber
Трек лист:
01a. Introduction
01b. You'll Be Back For More (06:15) Written-By – Robson
02. Obsolete Machine (03:54) Written-By – Tasavallan Presidentti
03. Who's Free (03:28) Written-By – Robson
04. I Love You Teddy Bear (03:39) Written-By – Robson, Groundstroem
05. Crazy Thing Nr 1 (00:54) Written-By – Groundstroem
06. Drinking (03:14) Written-By – Robson, Groundstroem
07. Crazy Thing Nr 2 (00:14) Written-By – Tolonen, Groundstroem
08. Driving Through (04:31) Written-By – Tasavallan Presidentti
09. Ancient Mariner (03:25) Written-By – Robson, Groundstroem
10. Wutu-Banale (06:37) Written-By – Groundstroem
11. Woman Of The World (02:52) Written-By – Robson
12. Roll Over Yourself (02:26) Written-By – Robson
13. Thinking Back (03:01) Written-By – Tolonen
Bonus Tracks
14. Solitary (03:43) Written-By – Robson, Tolonen, Groundstroem
15. Deep Thinker (02:42) Written-By – Robson, Tolonen

Credits
Artwork By [Drawing] – Ulla Ground
Bass, Organ – Mans Groundstroem
Drums – Vesa Aaltonen
Guitar, Piano – Jukka Tolonen
Mastered By [Digital Mastering] – Pauli Saastamoinen
Photography – Veikko Vatanen
Producer – Otto Donner
Recorded By – Erkki Hyvonen
Saxophone [Sopr. & Tenor], Flute – Juhani Aaltonen
Vocals, Piano, Organ – Frank Robson
Код:
Код:
EAC extraction logfile from 9. September 2007, 13:24 for CD
Tasavallan Presidentti / Tasavallan Presidentti

Used drive  : BENQ    DVD DD DW1640   Adapter: 1  ID: 0
Read mode   : Secure with NO C2, accurate stream, disable cache
Read offset correction : 618
Overread into Lead-In and Lead-Out : No

Used output format : Internal WAV Routines
                     44.100 Hz; 16 Bit; Stereo

Other options      :
    Fill up missing offset samples with silence : Yes
    Delete leading and trailing silent blocks : No
    Installed external ASPI interface

Range status and errors
Selected range
     Filename D:\Music\Rip\Tasavallan Presidentti - Tasavallan Presidentti.wav

     Peak level 100.0 %
     Range quality 100.0 %
     CRC 67CF16AF
     Copy OK

No errors occured

End of status report
Код:
Код:
-----------------------

DON'T MODIFY THIS FILE

-----------------------

PERFORMER: auCDtect Task Manager, ver. 1.6.0 RC1 build 1.6.0.1
Copyright (c) 2008-2010 y-soft. All rights reserved
http:/y-soft.org

ANALYZER: auCDtect: CD records authenticity detector, version 0.8.2
Copyright (c) 2004 Oleg Berngardt. All rights reserved.
Copyright (c) 2004 Alexander Djourik. All rights reserved.

FILE: Tasavallan Presidentti - Tasavallan Presidentti.ape
  Size: 325649960 Hash: 1FE96688A98354C1B098423137464133 Accuracy: -m0
  Conclusion: CDDA 99%
  Signature: 82EC22D8F0C242D7F16E410870CEAB2CD312E4E0
#777
Pekka Streng & Magneettimiehen Kuolema
Год: 1970
Released: 2003/Finland
Label: Love Records
Catalog#: LRCD 28
Аудио кодек: FLAC
Тип рипа: image+.cue
Продолжительность: 00:49:31
Источник-релизер: Rajt
Трек лист:
01. Gilgames (2:02)
02. Kylma Kaupunki (3:11)
03. Olen Erilainen (3:44)
04. Pitka Kieli (4:31)
05. Makea Sandra (3:23)
06. Laulu Hyonteisesta Joka Nukahti Ruusun Vuoteeseen (1:55)
07. Takaisinvirtaan (7:10)
08. Olen Elain (3:05)
09. Ahnehtiva Kud (2:52)
10. Olen Vasynyt (2:05)
11. Sisaltani Portin Loysin (5:23)
12. Gilgames - demo (4:57)
13. Makea Sandra - YLE 1969 (3:58)
14. Laulu Hyonteisesta Joka Nukahti Ruusun Vuoteeseen - YLE 1969 (1:15)

Credits
Cello – Karoly Garam
Drums, Bongos – Vesa Aaltonen
Drums, Bongos, Tabla – Esko Rosnell
Guitar, Piano – Jukka Tolonen
Mastered By – Pauli Saastamoinen
Producer, Bass, Piano – Mans Groundstroem
Recorded By – Erkki Hyvonen
Saxophone [Tenor], Flute – Pekka Poyry
Vocals, Guitar [Acoustic] – Pekka Streng
Notes
Originally Released in 1970. Remastered at Finnvox Studios March 2003. Tracks 12-14 Are Bonus Tracks.
Код:
Код:
Exact Audio Copy V0.99 prebeta 4 from 23. January 2008

Отчёт EAC об извлечении, выполненном 28. октября 2010, 19:05

Pekka Streng & Tasavallan Presidentti / Magneettimiehen Kuolema

Дисковод: ASUS    DRW-24B1ST   Adapter: 3  ID: 0

Режим чтения                 : Достоверность
Использование точного потока : Да
Отключение кэша аудио        : Да
Использование указателей C2  : Нет

Коррекция смещения при чтении                     : 6
Способность читать области Lead-in и Lead-out     : Нет
Заполнение пропущенных сэмплов тишиной            : Да
Удаление блоков с тишиной в начале и конце        : Нет
При вычислениях CRC использовались нулевые сэмплы : Да
Интерфейс                                         : Встроенный Win32-интерфейс для Win NT/2000

Выходной формат          : Пользовательский кодировщик
Выбранный битрейт        : 128 kBit/s
Качество                 : Высокий
Добавление ID3-тэга      : Нет
Утилита сжатия           : C:\Program Files\Exact Audio Copy\FLAC\FLAC.EXE
Дополнительные параметры : -8 -V %s

TOC извлечённого CD

     Трек |   Старт  | Длительность | Начальный сектор | Конечный сектор
    ---------------------------------------------------------------------
       1  |  0:00.00 |    2:02.06   |           0      |       9155
       2  |  2:02.06 |    3:10.49   |        9156      |      23454
       3  |  5:12.55 |    3:44.21   |       23455      |      40275
       4  |  8:57.01 |    4:30.64   |       40276      |      60589
       5  | 13:27.65 |    3:22.56   |       60590      |      75795
       6  | 16:50.46 |    1:54.57   |       75796      |      84402
       7  | 18:45.28 |    7:10.20   |       84403      |     116672
       8  | 25:55.48 |    3:04.71   |      116673      |     130543
       9  | 29:00.44 |    2:51.61   |      130544      |     143429
      10  | 31:52.30 |    2:05.07   |      143430      |     152811
      11  | 33:57.37 |    5:22.51   |      152812      |     177012
      12  | 39:20.13 |    4:57.28   |      177013      |     199315
      13  | 44:17.41 |    3:58.03   |      199316      |     217168
      14  | 48:15.44 |    1:14.71   |      217169      |     222789

Характеристики диапазона извлечения и сообщения об ошибках

Выбранный диапазон

     Имя файла C:\Torrent\purple\Pekka Streng & Tasavallan Presidentti - Magneettimiehen Kuolema.wav

     Пиковый уровень 100.0 %
     Качество диапазона 100.0 %
     CRC теста FF45C046
     CRC копии FF45C046
     Копирование... OK

Ошибок не произошло

AccurateRip: сводка

Трек  1  точность не определена (достоверность 2)  [CF9E720D], AccurateRip вернул [47E93818]
Трек  2  точность не определена (достоверность 2)  [46BE5179], AccurateRip вернул [22204B86]
Трек  3  точность не определена (достоверность 2)  [CE30299D], AccurateRip вернул [40E18520]
Трек  4  точность не определена (достоверность 2)  [AB1B5FAE], AccurateRip вернул [ADF554B8]
Трек  5  точность не определена (достоверность 2)  [109162EA], AccurateRip вернул [09E9D6F9]
Трек  6  точность не определена (достоверность 2)  [24373187], AccurateRip вернул [AF5F2593]
Трек  7  точность не определена (достоверность 2)  [3AFC8AE7], AccurateRip вернул [84506558]
Трек  8  точность не определена (достоверность 2)  [CB9B2AC1], AccurateRip вернул [C87A61B7]
Трек  9  точность не определена (достоверность 2)  [616F4C06], AccurateRip вернул [D7EEFE98]
Трек 10  точность не определена (достоверность 2)  [DB03157E], AccurateRip вернул [41A50169]
Трек 11  точность не определена (достоверность 2)  [A7C644F5], AccurateRip вернул [505C8589]
Трек 12  точность не определена (достоверность 2)  [EC284985], AccurateRip вернул [B1F34E55]
Трек 13  точность не определена (достоверность 2)  [F4938BA7], AccurateRip вернул [EE571827]
Трек 14  точность не определена (достоверность 2)  [70E59FA2], AccurateRip вернул [F7F76D6A]

Ни один трек не прошёл проверки на точность
В вашей базе может быть иной вариант штамповки диска

Конец отчёта
Код:
Код:
-----------------------

DON'T MODIFY THIS FILE

-----------------------

PERFORMER: auCDtect Task Manager, ver. 1.6.0 RC1 build 1.6.0.1
Copyright (c) 2008-2010 y-soft. All rights reserved
http:/y-soft.org

ANALYZER: auCDtect: CD records authenticity detector, version 0.8.2
Copyright (c) 2004 Oleg Berngardt. All rights reserved.
Copyright (c) 2004 Alexander Djourik. All rights reserved.

FILE: Pekka Streng & Tasavallan Presidentti - Magneettimiehen Kuolema.flac
  Size: 306815332 Hash: A76A9426145E599F821BE94FEA174673 Accuracy: -m0
  Conclusion: CDDA 100%
  Signature: F677B34E04828280C5D113DE3104C92C6D8D1968
Код:
Код:
REM DISCID BC0B9A0E
REM COMMENT "ExactAudioCopy v0.99pb4"
PERFORMER "Pekka Streng & Tasavallan Presidentti"
TITLE "Magneettimiehen Kuolema"
FILE "Pekka Streng & Tasavallan Presidentti - Magneettimiehen Kuolema.flac" WAVE
  TRACK 01 AUDIO
    TITLE "1. Gilgames"
    PERFORMER "Pekka Streng & Tasavallan Presidentti"
    INDEX 01 00:00:00
  TRACK 02 AUDIO
    TITLE "2. Kylma Kaupunki"
    PERFORMER "Pekka Streng & Tasavallan Presidentti"
    INDEX 00 01:58:70
    INDEX 01 02:02:06
  TRACK 03 AUDIO
    TITLE "3. Olen Erilainen"
    PERFORMER "Pekka Streng & Tasavallan Presidentti"
    INDEX 00 05:09:68
    INDEX 01 05:12:55
  TRACK 04 AUDIO
    TITLE "4. Pitka Kieli"
    PERFORMER "Pekka Streng & Tasavallan Presidentti"
    INDEX 01 08:57:01
  TRACK 05 AUDIO
    TITLE "5. Makea Sandra"
    PERFORMER "Pekka Streng & Tasavallan Presidentti"
    INDEX 00 13:24:40
    INDEX 01 13:27:65
  TRACK 06 AUDIO
    TITLE "6. Laulu Hyonteisesta Joka Nukahti Ruusun Vuoteeseen"
    PERFORMER "Pekka Streng & Tasavallan Presidentti"
    INDEX 00 16:47:19
    INDEX 01 16:50:46
  TRACK 07 AUDIO
    TITLE "7. Takaisinvirtaan"
    PERFORMER "Pekka Streng & Tasavallan Presidentti"
    INDEX 00 18:41:20
    INDEX 01 18:45:28
  TRACK 08 AUDIO
    TITLE "8. Olen Elain"
    PERFORMER "Pekka Streng & Tasavallan Presidentti"
    INDEX 01 25:55:48
  TRACK 09 AUDIO
    TITLE "9. Ahnehtiva Kud"
    PERFORMER "Pekka Streng & Tasavallan Presidentti"
    INDEX 01 29:00:44
  TRACK 10 AUDIO
    TITLE "10. Olen Vasynyt"
    PERFORMER "Pekka Streng & Tasavallan Presidentti"
    INDEX 00 31:48:17
    INDEX 01 31:52:30
  TRACK 11 AUDIO
    TITLE "11. Sisaltani Portin Loysin"
    PERFORMER "Pekka Streng & Tasavallan Presidentti"
    INDEX 00 33:54:19
    INDEX 01 33:57:37
  TRACK 12 AUDIO
    TITLE "12. Gilgames - demo"
    PERFORMER "Pekka Streng & Tasavallan Presidentti"
    INDEX 00 39:05:59
    INDEX 01 39:20:13
  TRACK 13 AUDIO
    TITLE "13. Makea Sandra - YLE 1969"
    PERFORMER "Pekka Streng & Tasavallan Presidentti"
    INDEX 00 44:14:45
    INDEX 01 44:17:41
  TRACK 14 AUDIO
    TITLE "14. Laulu Hyonteisesta Joka Nukahti Ruusun Vuoteeseen - YLE 1969"
    PERFORMER "Pekka Streng & Tasavallan Presidentti"
    INDEX 00 48:14:26
    INDEX 01 48:15:44
#777
Tasavallan Presidentti II
Год: 1970
Released: 2002/Finland
Label: EMI
Catalog#: 7243 538778 2 8
Format: Reissue, Remastered
Аудио кодек: FLAC
Тип рипа: tracks+.cue
Продолжительность: 00:34:41
Источник-релизер: Corvin von Amber
Трек лист:
01. Introduction (4:05)
02. Deep Thinker (2:36)
03. I Love You Teddy Bear (2:53)
04. Struggling For Freedom (4:46)
05. Tis Me Tis You (1:59)
06. Weather Brightly (3:20)
07. Sinking (7:05)
08. I'm Going Home Again (4:04)
09. Tell Me More (3:52)

Credits
Acoustic Guitar – Jukka Tolonen (tracks: 1, 2, 5, 8)
Alto Saxophone – Pekka Poyry (tracks: 1, 9)
Bass Guitar – Mans Groundstroem
Drums, Percussion – Vesa Aaltonen
Electric Guitar – Jukka Tolonen (tracks: 1 to 7, 9)
Engineer – Michael Tretow
Flute – Pekka Poyry (tracks: 2, 3, 5, 7, 8)
Organ – Frank Robson (tracks: 6), Mans Groundstroem (tracks: 3, 8)
Photography – Jukka Vatanen, Vesa Aaltonen
Producer – Bob Azzam
Reissue Producer, Design – Juha Nikulainen
Remastered By – Mans Groundstroem, Rogi Renwall
Soprano Saxophone – Pekka Poyry (tracks: 4)
Tenor Saxophone – Pekka Poyry (tracks: 1, 4, 6, 9)
Vocals – Frank Robson
Код:
Код:
EAC extraction logfile from 21. May 2007, 19:07 for CD
Tasavallan Presidentti / Tasavallan Presidentti II

Used drive  : PLEXTOR DVDR   PX-755A   Adapter: 4  ID: 1
Read mode   : Secure with NO C2, accurate stream, disable cache
Read offset correction : 30
Overread into Lead-In and Lead-Out : No

Used output format : D:\Program Files\EAC\Exact Audio Copy\flac.exe   (User Defined Encoder)
                     320 kBit/s
                     Additional command line options : -V -8 -T "artist=%a" -T "title=%t" -T "album=%g" -T "date=%y" -T "tracknumber=%n" -T "genre=%m" %s

Other options      :
    Fill up missing offset samples with silence : Yes
    Delete leading and trailing silent blocks : No
    Installed external ASPI interface

Track  1
     Filename D:\1 - Music +  Stuff\01 - Introduction.wav

     Pre-gap length  0:00:02.00

     Peak level 100.0 %
     Track quality 99.9 %
     Test CRC 07801093
     Copy CRC 07801093
     Copy OK

Track  2
     Filename D:\1 - Music +  Stuff\02 - Deep Thinker.wav

     Pre-gap length  0:00:01.96

     Peak level 98.8 %
     Track quality 100.0 %
     Test CRC 7E7853A2
     Copy CRC 7E7853A2
     Copy OK

Track  3
     Filename D:\1 - Music +  Stuff\03 - I Love You Teddy Bear.wav

     Pre-gap length  0:00:01.93

     Peak level 98.8 %
     Track quality 100.0 %
     Test CRC 12D4C68F
     Copy CRC 12D4C68F
     Copy OK

Track  4
     Filename D:\1 - Music +  Stuff\04 - Struggling For Freedom.wav

     Pre-gap length  0:00:01.97

     Peak level 98.8 %
     Track quality 100.0 %
     Test CRC 5FF5789B
     Copy CRC 5FF5789B
     Copy OK

Track  5
     Filename D:\1 - Music +  Stuff\05 - Tis Me Tis You.wav

     Pre-gap length  0:00:01.97

     Peak level 98.8 %
     Track quality 100.0 %
     Test CRC EB12E7A7
     Copy CRC EB12E7A7
     Copy OK

Track  6
     Filename D:\1 - Music +  Stuff\06 - Weather Brightly.wav

     Pre-gap length  0:00:01.96

     Peak level 98.8 %
     Track quality 99.9 %
     Test CRC 98DDD2B6
     Copy CRC 98DDD2B6
     Copy OK

Track  7
     Filename D:\1 - Music +  Stuff\07 - Sinking.wav

     Pre-gap length  0:00:01.97

     Peak level 98.8 %
     Track quality 100.0 %
     Test CRC A0C69A47
     Copy CRC A0C69A47
     Copy OK

Track  8
     Filename D:\1 - Music +  Stuff\08 - I'm Going Home Again.wav

     Pre-gap length  0:00:01.96

     Peak level 98.8 %
     Track quality 100.0 %
     Test CRC DBF65D27
     Copy CRC DBF65D27
     Copy OK

Track  9
     Filename D:\1 - Music +  Stuff\09 - Tell Me More.wav

     Pre-gap length  0:00:01.97

     Peak level 98.8 %
     Track quality 100.0 %
     Test CRC 2C2852BE
     Copy CRC 2C2852BE
     Copy OK

No errors occured

End of status report
Код:
Код:
-----------------------

DON'T MODIFY THIS FILE

-----------------------

PERFORMER: auCDtect Task Manager, ver. 1.6.0 RC1 build 1.6.0.1
Copyright (c) 2008-2010 y-soft. All rights reserved
http:/y-soft.org

ANALYZER: auCDtect: CD records authenticity detector, version 0.8.2
Copyright (c) 2004 Oleg Berngardt. All rights reserved.
Copyright (c) 2004 Alexander Djourik. All rights reserved.

FILE: 09 - Tell Me More.flac
  Size: 26542058 Hash: D5A9078C5D2102FDE0555F3E990FFF1A Accuracy: -m0
  Conclusion: CDDA 100%
  Signature: 941D08AA93272DAE70771FA79934D7063F6533F3
FILE: 08 - I'm Going Home Again.flac
  Size: 27572137 Hash: F24C47B1B825E820F33552DD91705A0E Accuracy: -m0
  Conclusion: CDDA 100%
  Signature: CD0F5398F4014EA184F8579F521FC5975E7CE217
FILE: 07 - Sinking.flac
  Size: 42729124 Hash: AEE1C65957309148A6C5CD1EB31B2F47 Accuracy: -m0
  Conclusion: CDDA 100%
  Signature: 7660FA5F95E1DC3BA656A5C7669B58B6E1D4316E
FILE: 06 - Weather Brightly.flac
  Size: 22295497 Hash: E21B1753AFDF1B76E5CA44BBD62166A4 Accuracy: -m0
  Conclusion: CDDA 100%
  Signature: 6C01A3E078D1E3B8B51E120CE2A5F246043B82C6
FILE: 05 - Tis Me Tis You.flac
  Size: 13504586 Hash: 33AB95418840256435AB1F81169BCEFB Accuracy: -m0
  Conclusion: CDDA 100%
  Signature: 87B6875ADBC7314D2C9271E17423A699379CD88F
FILE: 04 - Struggling For Freedom.flac
  Size: 31680546 Hash: 893191D0A035C37E8A374869CF278D13 Accuracy: -m0
  Conclusion: CDDA 100%
  Signature: 527BE4B66B293FD9DA7F8D6C80220546E58CAF82
FILE: 03 - I Love You Teddy Bear.flac
  Size: 18880043 Hash: 94A5AAB3A6F2A5786517AEAC84EE5457 Accuracy: -m0
  Conclusion: CDDA 100%
  Signature: 0514355260CD6B713DF4EA0556C5CBC7443511E1
FILE: 02 - Deep Thinker.flac
  Size: 18487163 Hash: 2930AC96035BE5EC98C95369EE8461D9 Accuracy: -m0
  Conclusion: CDDA 100%
  Signature: 5FD767F11DCBA83063AF017D7D4864CE08B08C8B
FILE: 01 - Introduction.flac
  Size: 30214573 Hash: 4524C7E665C3FCC0F0872ECF8F83BA8B Accuracy: -m0
  Conclusion: CDDA 100%
  Signature: 36688381B5F27C81D86E36D96A23269C26001871
#777
Lambertland
Год: 1972
Released: 1990/Finland
Label: Love Records
Catalog#: LRCD 60
Format: Reissue
Аудио кодек: APE
Тип рипа: image+.cue
Продолжительность: 00:40:25
Источник-релизер: Corvin von Amber
Трек лист:
01. Lounge (08:25)
02. Lambertland (06:59)
03. Celebration Of The Saved Nine (03:33)
04. The Bargain (07:17)
05. Dance (05:57)
06. Last Quarters (08:14)

Credits
Bass – Mans Groundstroem
Drums – Vesa Aaltonen
Guitar, Music By – Jukka Tolonen
Illustration [Etching] – Jerome Bock
Mastered By [Cd Mastering] – Pauli Saastamoinen
Music By – Pekka Poyry (tracks: 3)
Producer – Sam Charters
Recorded By – Erkki Hyvonen, Gert Palmcrantz
Saxophone, Flute – Pekka Poyry
Vocals – Eero Raittinen
Words By, Cover – Mats Hulden
Код:
Код:
EAC extraction logfile from 17. September 2007, 21:34 for CD
Tasavallan Presidentti / Lambertland

Used drive  : BENQ    DVD DD DW1640   Adapter: 1  ID: 0
Read mode   : Secure with NO C2, accurate stream, disable cache
Read offset correction : 618
Overread into Lead-In and Lead-Out : No

Used output format : Internal WAV Routines
                     44.100 Hz; 16 Bit; Stereo

Other options      :
    Fill up missing offset samples with silence : Yes
    Delete leading and trailing silent blocks : No
    Installed external ASPI interface

Range status and errors
Selected range
     Filename D:\Music\Rip\Tasavallan Presidentti - Lambertland.wav

     Peak level 100.0 %
     Range quality 100.0 %
     CRC B747760C
     Copy OK

No errors occured

End of status report
Код:
Код:
-----------------------

DON'T MODIFY THIS FILE

-----------------------

PERFORMER: auCDtect Task Manager, ver. 1.6.0 RC1 build 1.6.0.1
Copyright (c) 2008-2010 y-soft. All rights reserved
http:/y-soft.org

ANALYZER: auCDtect: CD records authenticity detector, version 0.8.2
Copyright (c) 2004 Oleg Berngardt. All rights reserved.
Copyright (c) 2004 Alexander Djourik. All rights reserved.

FILE: Tasavallan Presidentti - Lambertland.ape
  Size: 238799940 Hash: 4168D4E52F42AB4981EA0AC214F33A39 Accuracy: -m0
  Conclusion: CDDA 100%
  Signature: 4F7AE6AE2B73F90E43F8C71ED13BBF5502D69F94
#777
Milky Way Moses
Год: 1974
Released: 1996/Finland
Label: Love Records
Catalog#: LRCD 102
Format: Reissue
Аудио кодек: FLAC
Тип рипа: tracks+.cue
Продолжительность: 00:47:17
Источник-релизер: Corvin von Amber
Трек лист:
01. Milky Way Moses (08:18)
Written-By – Jim Pembroke, Jukka Tolonen
02. Caught From The Air (11:36)
Written-By – Eero Koivistoinen, Jim Pembroke
03. Jelly (03:33)
Written-By – Eero Raittinen, Heikki Virtanen, Jukka Tolonen, Pekka Poyry, Vesa Aaltonen
04. Confusing The Issue (05:42)
Written-By – Jim Pembroke, Jukka Tolonen
05. How To Start A Day (13:45)
Written-By – Jim Pembroke, Pekka Poyry
06. Piece Of Mind (04:00)
Written-By – Jim Pembroke, Pekka Poyry

Credits
Bass Guitar – Heikki Virtanen
Drums, Percussion – Vesa Aaltonen
Engineer [Recording] – Kenny Denton, Terry Evennett
Guitar, Keyboards – Jukka Tolonen
Producer – Peter Eden
Saxophone, Flute, Piano – Pekka Poyry
Vocals – Eero Raittinen
Код:
Код:
EAC extraction logfile from 28. May 2006, 15:01 for CD
Tasavallan Presidentti / Milky Way Moses

Used drive  : TSSTcorpCD/DVDW TS-H542A   Adapter: 1  ID: 0
Read mode   : Secure with NO C2, accurate stream, disable cache
Read offset correction : 116
Overread into Lead-In and Lead-Out : No

Used output format : Internal WAV Routines
                     44.100 Hz; 16 Bit; Stereo

Other options      :
    Fill up missing offset samples with silence : Yes
    Delete leading and trailing silent blocks : No
    Installed external ASPI interface

Track  1
     Filename F:\Seeds\Tasavallan Presidentti - Milky Way Moses (1974) [FLAC]\01 - Milky Way Moses.wav

     Pre-gap length  0:00:02.00

     Peak level 89.6 %
     Track quality 99.8 %
     Test CRC EE9EFD06
     Copy CRC EE9EFD06
     Copy OK

Track  2
     Filename F:\Seeds\Tasavallan Presidentti - Milky Way Moses (1974) [FLAC]\02 - Caught from the Air.wav

     Pre-gap length  0:00:03.53

     Peak level 94.0 %
     Track quality 99.9 %
     Test CRC 73C970D1
     Copy CRC 73C970D1
     Copy OK

Track  3
     Filename F:\Seeds\Tasavallan Presidentti - Milky Way Moses (1974) [FLAC]\03 - Jelly.wav

     Pre-gap length  0:00:03.53

     Peak level 96.7 %
     Track quality 99.9 %
     Test CRC 2AB59192
     Copy CRC 2AB59192
     Copy OK

Track  4
     Filename F:\Seeds\Tasavallan Presidentti - Milky Way Moses (1974) [FLAC]\04 - Confusing the Issue.wav

     Pre-gap length  0:00:03.56

     Peak level 95.0 %
     Track quality 99.9 %
     Test CRC 625943C8
     Copy CRC 625943C8
     Copy OK

Track  5
     Filename F:\Seeds\Tasavallan Presidentti - Milky Way Moses (1974) [FLAC]\05 - How To Start a Day.wav

     Pre-gap length  0:00:03.53

     Peak level 95.2 %
     Track quality 100.0 %
     Test CRC B9E46F0F
     Copy CRC B9E46F0F
     Copy OK

Track  6
     Filename F:\Seeds\Tasavallan Presidentti - Milky Way Moses (1974) [FLAC]\06 - Piece of Mind.wav

     Pre-gap length  0:00:03.53

     Peak level 64.8 %
     Track quality 99.9 %
     Test CRC BAE4E664
     Copy CRC BAE4E664
     Copy OK

No errors occured

End of status report
Код:
Код:
-----------------------

DON'T MODIFY THIS FILE

-----------------------

PERFORMER: auCDtect Task Manager, ver. 1.6.0 RC1 build 1.6.0.1
Copyright (c) 2008-2010 y-soft. All rights reserved
http:/y-soft.org

ANALYZER: auCDtect: CD records authenticity detector, version 0.8.2
Copyright (c) 2004 Oleg Berngardt. All rights reserved.
Copyright (c) 2004 Alexander Djourik. All rights reserved.

FILE: 06 - piece of mind.flac
  Size: 18614680 Hash: A31FACB88A694A998281A3A528FB14FC Accuracy: -m0
  Conclusion: CDDA 100%
  Signature: 7A1CF2CD4C1FBE9431F3F3004C163231232EBF0C
FILE: 05 - how to start a day.flac
  Size: 78517628 Hash: 32DE0D21ABEB1405A19BE84E0C536627 Accuracy: -m0
  Conclusion: CDDA 100%
  Signature: C3D5058A99C37B23FC857A3EDA4FF4F0BDA89B69
FILE: 04 - confusing the issue.flac
  Size: 38746120 Hash: 53B115B4CD1C7752B6ADED1EB9C04D54 Accuracy: -m0
  Conclusion: CDDA 100%
  Signature: 04EC0DE50F05B2EBF193AB9DAF92AB0498D9CCC1
FILE: 03 - jelly.flac
  Size: 24226633 Hash: F4B2EEC403A40B8C704CC8A80D4D5067 Accuracy: -m0
  Conclusion: CDDA 100%
  Signature: 3D1A3E5CBBE4FC4259E7AF33FB7C90778D6E921A
FILE: 02 - caught from the air.flac
  Size: 76581496 Hash: CC956C8419C63C3790F7D01246465A23 Accuracy: -m0
  Conclusion: CDDA 100%
  Signature: A0E97952F2626913F5F9BF98A072A27E35D2CAA8
FILE: 01 - milky way moses.flac
  Size: 53003632 Hash: F7F3216FA7619F37B0688882A8DC87AA Accuracy: -m0
  Conclusion: CDDA 100%
  Signature: 5F42DF05A2C63B5DB532EF554F1A6D02446DF654


Группа была основана в Хельсинки в 1969 году. Большинство членов коллектива имело музыкальное образование и росло в семьях, где родители-музыканты горячо приветствовали увлечение своих детей джазом, фольклором и классикой. Мэнс Гроундстроем весьма неплохо знал и любил фольклор и латиноамериканскую музыку, Веса Аалтонен предпочитал джаз и учился играть на ударных, находясь под впечатлением от жесткой и виртуозной техники Джинджера Бэйкера (Ginger Baker) из Cream. Его брат Юнну Аалтонен был самым старшим в группе. На момент основания коллектива ему уже исполнилось 34 года. Самым молодым (но при этом отнюдь не самым непрофессиональным) из всех был гитарист и по совместительству клавишник Юкка Толонен. Его отец был профессиональным скрипачом, и Толонен рос на музыке Баха и Стравинского. Уже в шесть лет он неплохо играл на фортепиано, а, увлекшись в более зрелом возрасте джазом и горячо полюбив музыку Майлза Дэвиса и Франка Заппы, решил стать профессиональным музыкантом. Единственным кто изначально не имел серьезного фундамента для своих музыкальных изысканий, был вокалист Фрэнк Робсон. Родился он в Великобритании. Единственное чем он мог похвастать, так это небольшой опыт работы администратора в звукозаписывающей компании. Прежде чем оказаться в Финляндии, он около года провел в Париже, где играл в нескольких третьесортных коллективах. В составе Tasavallan Presidentti он оказался благодаря знакомству с Мэнсом Гроундстроемом, с которым недолго играл в группе Blues Section.
В общем, проблем по части профессионализма и музыкальной эрудиции у участников коллектива не было. С фантазией у них так же все было в порядке, и дела у группы сразу же пошли довольно-таки успешно. Англо-говорящий вокалист для финской группы так же был удачным приобретением. Название Tasavallan Presidentti, что в переводе означает "Президент Республики" имело, по мнению музыкантов, глубокий философский смысл. Имелось в виду, что коллектив - некая "Республика Музыки", а каждый из пяти совершенно равноправных музыкантов - ее президент.
Свой первый альбом группа выпустила на Love Records в 1969 году. Его чаще всего сравнивают с ранними работами Traffic. Сплав джазрока, блюза и психоделии, который "Президенты" представили на суд публики, действительно сильно напоминает эту группу, но элементы фолка, активная работа флейты и, в особенности, голос Робсона вызывают в памяти самые первые блюзовые альбомы Jethro Tull. В некоторых моментах возникают ассоциацией с так называемой "Canterbury Music". Обращает на себя внимание хорошая техника гитариста Толонена, а так же грамотное и интересное солирование духовых. Ритм-секция чудес не творит, но работает вполне технично и слаженно. В целом, это вполне приличная работа выполненная на твердую четверку.
В 1970 году группа в полном составе помогала в записи сольной пластинки авторитетному финскому музыканту Пекке Стренгу (Pekka Streng). Альбом "Pekka Streng with Tasavallan Presidentti - Magneettimiehen kuolema", к сожалению, прошел совершенно незамеченным, а его CD-версия была выпущена очень маленьким тиражом и практически недоставаема.
Вскоре в составе группы произошло очень значимое изменение. Выбыл Юнну Аалтонен, а вместо него управляться с флейтой и саксофоном был приглашен Пекка Поири (Pekka Poyry). Его приход стал настоящим подарком для коллектива. Будучи старше всех остальных музыкантов на 10-15 лет, он уже обладал очень солидным опытом и авторитетом в музыкальных кругах. Наивысшими достижениями в его карьере были два события: выступление на престижном джазовом фестивале в Лондоне в 1966 году и приглашение на Ежегодый Фестиваль Джаза и Блюза в Монтре в качестве представителя Финляндии.
С приходом нового замечательного музыканта дела у группы пошли в гору. Во время одного из живых выступлений группу заметил известный продюсер Боб Аззам (Bob Azzam). "Президенты" произвели на него такое сильное впечатление, что он даже предоставил им для репетиций свой собственный дом (сцена одной из этих репетиций запечатлена на обложке альбома) и "выписал" для них одного из лучших в Скандинавии звукорежиссеров Майкла Третоу (Michael B. Tretow). Позже этот инженер прославился своей работой с группой ABBA.
Следующий альбом Tasavallan Presidentti вышел в 1971 году уже на финском отделении концерна EMI. Альбом выдержан примерно в том же стиле, что и предыдущий, но коллектив, усиленный новым духовиком и заметно поднабравшийся опыта, выполнил свою задачу уже на отлично. Особенно радуют интересные и красивые соло Пекки Поири и работа явно подтянувшегося до его уровня гитариста Юкки Толонена. Материал вышел достаточно оригинальным, хотя и не без некоторой "джетроталлинки". Альбом включил три композиции из предыдущего альбома, записанных в новом исполнении. Единственной неприятностью, связанной с этой пластинкой, стало то, что она, так же как и первая работа Tasavallan Presidentti, не имела названия. То, что группа выпустила два одноименных альбома подряд, стало мелкой, но неприятной деталью, вызвавшей путаницу среди коллекционеров. К сожалению, мастер-лента второго альбома была утеряна, и его современная CD-версия была оцифрована с винила.
Толонен, которому, очевидно, наскучило работать в рамках одного коллектива, выпустил в 1971 году свой первый сольник, не выходя из состава Tasavallan Presidentti. С тех пор его сольные работы выходили (и продолжают выходить) регулярно и никогда не разочаровывали любителей прогрессива и джазрока. Это большей частью очень качественные и виртуозные инструментальные работы, в которых Толонену помогают многие известные финские прог-музыканты, в частности участники Tasavallan Presidentti и Wigwam. С музыкантами из "Вигвама" Толонена вообще много что связывает. В 1970 и 1971 годах он принимал участие в записи альбомов "Tombston Valentine" и "Fairyport" (во втором случае совместно с Пекка Поири), и не раз помогал "экс-вигвамовцам" в работе над сольными пластинками.
В 1972 году в составе "Президентов" происходит очередная рокировка. Уволенного Робсона сменил новый вокалист Ееро Раиттинен (Eero Raittinen), голос которого чем-то напоминал Джима Пемброке (Jim Pembroke) из Wigwam. Вышедший в том же году альбом "Lambertland" показал группу в несколько ином качестве. С приходом нового вокалиста "джетроталлинка" совершенно исчезла, ушла блюзовость, усложнилась структура композиций. Саунд группы стал менее жестким и окрасился в пастельные тона, а музыка, заметно "поджазев", стала гораздо ближе к "Canterbury", чем была до этого. Композиционно этот альбом получился более интересным и стройным.
Тот год стал для Tasavallan Presidentti этапным. Группу наконец-то заметили за пределами Финляндии. Альбом "Lambertland" стал первой работой "Президентов" изданной в США, а состоявшиеся наконец-то выступления в Лондоне вызывали у англичан самые что ни на есть положительные эмоции.
Следующей студийной работой коллектива стал альбом "Milky Way Moses" 1974 года. В его записи участвовал уже новый басист Хеикки Виртанен (Heikki Virtanen), который играл гораздо менее плотно и как-то "не по-рокерски". Пластинка показала, что группа продолжает движение в избранном направлении. Еще больше джаза, еще меньше флейты и драйва… Результат - какой-то совсем уж "кентерберийский" альбом, очень интересный и грамотно сыгранный, но несколько скучноватый.
В том же году группа откатала большое и успешное турне по Великобритании. К сожалению, последние выступления проходили уже без Пекки Поири, который решил оставить группу. Ему временно нашли замену в лице клавишника Есы Котилаинена (Esa Kotilainen), но все-таки Поири был для Tasavallan Presidentti незаменим. Его великолепная игра всегда была для музыки группы настоящим украшением, и в одиночку Толонену (который, кстати, выпустил в том же году прекрасный сольный альбом) лидерство в коллективе было не потянуть. Таким образом, в 1974 году Tasavallan Presidentti не стало.
После распада группы, музыканты разбрелись кто куда. Братья Аалтонен так же как и Виртанен подались в сессионщики и работали в последствии со многими джазовыми музыкантами. Тем же путем пошел и Поири. К сожалению, нам не суждено услышать его сольных работ - в 1980 году этот замечательный музыкант покончил с собой. Раиттинен так же подался в джазовую степь вместе со своим братом и записал несколько альбомов. Гроундстроем в 1974 году недолго поработал в Wigwam, а затем устроился работать менеджером на Love Records. Наиболее удачно сложилась дальнейшая судьба Толонена. Помимо работы в Wigwam и в не менее знаменитой фьюжн-группе Piirpauke, он известен благодаря своей сольной карьере и даже приобрел славу "финского Клэптона". Все, что он играет, от рэгги до классической акустической гитарной музыки, считается "классикой своего жанра", и слушатели всегда отмечают великолепное качество всех его работ.
В восьмидесятых и девяностых годах Tasavallan Presidentti не раз собиралась для гастрольных поездок по Финляндии. Состав группы был непостоянным, и в разное время в ней играли разные люди, прошедшие через нее в "золотой период" конца шестидесятых и начала семидесятых. Последнее возрождение произошло в феврале 2004 года для большого джем-выступления в Хельсинки совместно с музыкантами из Wigwam. В 2001 году по следам концертных выступлений "Президентов" был выпущен альбом "Still Struggling For Freedom", на котором старые композиции записаны в более жестком, даже несколько металлизированном варианте...

Официальный сайт >>>
Правила, инструкции, FAQ!!!
Торрент  Добавлен [16 мар 2014, 00:02] Скачать торрент Магнет ссылка
Скачать торрент
[ Размер 21.3 КБ / Просмотров 63 ]

Статус  
 
Размер  1.39 ГБ
Приватный: Нет (DHT включён)
.torrent скачан  0
 


     Отправить личное сообщение
   
Страница 1 из 1
Показать сообщения за:  Поле сортировки  
Начать новую тему Ответить на тему


Сейчас этот форум просматривают: нет зарегистрированных пользователей и гости: 0


Вы не можете начинать темы
Вы не можете отвечать на сообщения
Вы не можете редактировать свои сообщения
Вы не можете удалять свои сообщения
Вы не можете добавлять вложения

Перейти:  
cron