Начать новую тему Ответить на тему
Статистика раздачи
Размер: 288.55 МБ | Добавлен: 16 мар 2014, 00:09 | Скачали: 0
Сидеров: 0  [0 байт/сек]    Личеров: 1  [0 байт/сек]
Пред. тема | След. тема 

Автор
Сообщение

СообщениеДобавлено: 16 мар 2014, 00:09 

Ответить с цитатой 

Tangier - Stranded (1991) Japan

Год:
1991
Жанр: Hard'n'Heavy
Label & Catalog#: ATCO - AMCY-225
Продолжительность: 00:41:07

Кодек: WavPack
Битрейт: Lossless

Треклист:
01. Down The Line [04:24]
02. Caution To The Wind [04:27]
03. You're Not The Lovin' Kind [04:06]
04. Since You Been Gone [04:31]
05. Takes Just A Little Time [04:47]
06. Excited [03:51]
07. Back In The Limelight [03:49]
08. Stranded [04:18]
09. It's Hard [03:41]
10. If Ya Can't Find Love [03:09]
REM GENRE Hard'n'Heavy
REM DATE 1991
REM DISCID 9A09A30A
REM COMMENT "ExactAudioCopy v0.99pb5"
PERFORMER "Tangier"
TITLE "Stranded"
FILE "Tangier - Stranded.wv" WAVE
TRACK 01 AUDIO
TITLE "Down The Line"
PERFORMER "Tangier"
INDEX 01 00:00:00
TRACK 02 AUDIO
TITLE "Caution To The Wind"
PERFORMER "Tangier"
INDEX 00 04:24:06
INDEX 01 04:24:07
TRACK 03 AUDIO
TITLE "You're Not The Lovin' Kind"
PERFORMER "Tangier"
INDEX 01 08:51:22
TRACK 04 AUDIO
TITLE "Since You Been Gone"
PERFORMER "Tangier"
INDEX 00 12:57:68
INDEX 01 12:57:70
TRACK 05 AUDIO
TITLE "Takes Just A Little Time"
PERFORMER "Tangier"
INDEX 01 17:29:22
TRACK 06 AUDIO
TITLE "Excited"
PERFORMER "Tangier"
INDEX 01 22:16:25
TRACK 07 AUDIO
TITLE "Back In The Limelight"
PERFORMER "Tangier"
INDEX 01 26:07:30
TRACK 08 AUDIO
TITLE "Stranded"
PERFORMER "Tangier"
INDEX 01 29:57:27
TRACK 09 AUDIO
TITLE "It's Hard"
PERFORMER "Tangier"
INDEX 00 34:16:04
INDEX 01 34:16:05
TRACK 10 AUDIO
TITLE "If Ya Can't Find Love"
PERFORMER "Tangier"
INDEX 01 37:57:60
Код:
Код:
Exact Audio Copy V0.99 prebeta 5 from 4. May 2009

EAC extraction logfile from 26. January 2010, 9:01

Tangier / Stranded

Used drive  : PLEXTOR DVD-ROM PX-116A2   Adapter: 1  ID: 1

Read mode               : Secure
Utilize accurate stream : Yes
Defeat audio cache      : Yes
Make use of C2 pointers : No

Read offset correction                      : 102
Overread into Lead-In and Lead-Out          : No
Fill up missing offset samples with silence : Yes
Delete leading and trailing silent blocks   : No
Null samples used in CRC calculations       : No
Used interface                              : Installed external ASPI interface

Used output format : Internal WAV Routines
Sample format      : 44.100 Hz; 16 Bit; Stereo

TOC of the extracted CD

     Track |   Start  |  Length  | Start sector | End sector
    ---------------------------------------------------------
        1  |  0:00.00 |  4:24.07 |         0    |    19806
        2  |  4:24.07 |  4:27.15 |     19807    |    39846
        3  |  8:51.22 |  4:06.48 |     39847    |    58344
        4  | 12:57.70 |  4:31.27 |     58345    |    78696
        5  | 17:29.22 |  4:47.03 |     78697    |   100224
        6  | 22:16.25 |  3:51.05 |    100225    |   117554
        7  | 26:07.30 |  3:49.72 |    117555    |   134801
        8  | 29:57.27 |  4:18.53 |    134802    |   154204
        9  | 34:16.05 |  3:41.55 |    154205    |   170834
       10  | 37:57.60 |  3:09.35 |    170835    |   185044

Range status and errors

Selected range

     Filename E:\!works\Tangier91\flac\Tangier - Stranded.wav

     Peak level 96.0 %
     Range quality 99.9 %
     Copy CRC 0FF9F3FC
     Copy OK

No errors occurred

End of status report
Код:
Код:
DON'T MODIFY THIS FILE

-----------------------

PERFORMER: auCDtect Task Manager, ver. 1.6.0 RC1 build 1.6.0.1
Copyright (c) 2008-2010 y-soft. All rights reserved
http:/y-soft.org

ANALYZER: auCDtect: CD records authenticity detector, version 0.8.2
Copyright (c) 2004 Oleg Berngardt. All rights reserved.
Copyright (c) 2004 Alexander Djourik. All rights reserved.

FILE: Tangier - Stranded.wv
  Size: 285589606 Hash: 7A111D30D01D98B5796B88364B5D3787 Accuracy: -m0
  Conclusion: MPEG 95%
  Signature: 27EF202FA5044AF709C14E2CBA3B7C9ADD66A16F

Правила, инструкции, FAQ!!!
Торрент  Добавлен [16 мар 2014, 00:09] Скачать торрент Магнет ссылка
Скачать торрент
[ Размер 46.55 КБ / Просмотров 82 ]

Статус  
 
Размер  288.55 МБ
Приватный: Нет (DHT включён)
.torrent скачан  0
 


     Отправить личное сообщение
   
Страница 1 из 1
Показать сообщения за:  Поле сортировки  
Начать новую тему Ответить на тему


Сейчас этот форум просматривают: нет зарегистрированных пользователей и гости: 0


Вы не можете начинать темы
Вы не можете отвечать на сообщения
Вы не можете редактировать свои сообщения
Вы не можете удалять свои сообщения
Вы не можете добавлять вложения

Перейти:  
cron