Начать новую тему Ответить на тему
Статистика раздачи
Размер: 927.27 МБ | Добавлен: 24 авг 2016, 12:28 | Скачали: 0
Сидеров: 0  [0 байт/сек]    Личеров: 0  [0 байт/сек]
Пред. тема | След. тема 

Автор
Сообщение

СообщениеДобавлено: 24 авг 2016, 12:28 

Ответить с цитатой 

Wallenstein - Mother Universe

Жанр: Symphonic-Rock
Носитель: LP
Год выпуска: 2008(1972)
Лейбл: ZYX Music /OHR 70031-1,Pilz/20 29113-8
Страна-производитель: Germany
Аудио кодек: FLAC
Тип рипа: tracks+.cue
Формат записи: 24/96
Формат раздачи: 24/96
Продолжительность: 00:40:50
Треклист:

Side A
1 Mother Universe 8:30
2 Braintrain 8:33
3 Shakespearesque 4:20
Side B
1 Dedicated To Mystery Land 7:48
2 Relics Of Past 6:18
3 Golden Antenna 4:15

Источник оцифровки: LP Rip & Full Scan LP Cover: Fran Solo
Код класса состояния винила: Неизвестно
Cleaning: RCM Moth MkII Pro Vinyl
Устройство воспроизведения: Marantz 6170
Головка звукоснимателя: SHURE M97xE
Предварительный усилитель: Sansui 9090DB
АЦП: E-MU 0404
Программа-оцифровщик: XLD
Обработка: Silent spaces haven't been deleted in this rip
Полторы и одна минута первого и последнего треков пластинки соответственно
01 Wallenstein - Mother Universe.flac
06 Wallenstein - Golden Antenna.flac
Phonographic Copyright (p) – ZYX Music
Copyright (c) – ZYX Music
Copyright (c) – Edition Intro Meisel GmbH
Pressed By – Celebrate Records GmbH
Recorded At – Dierks Studios
Mastered At – Celebrate Records GmbH
(p) & © 2008 Zyx Music
Made in Germany.
Barcode and Other Identifiers
Barcode (Text): 0 90204 82003 0
Matrix / Runout (Runout Side A, etched): 105322A1FK
Matrix / Runout (Runout Side B, etched): 105322B1FK
Rights Society: GEMA
Label Code: LC 02641
Bass [Baß], Lead Vocals – Jerry Berkers
Cover – Harald Großkopf, Wallenstein
Drums, Percussion – Harald Großkopf
Engineer [Toningenieur] – Dieter Dierks
Guitar, Vocals – Bill Barone
Keyboards, Mellotron, Lead Vocals – Jürgen Dollase
Mastered By – Frank Kirschner
Music By [Musik], Lyrics By [Texte] – Jürgen Dollase
Then, there are the previous Wallenstein characteristics apparent. Dollase's deeply moving keys playing, obviously classically inspired at times, the playfully aggressive guitar work going on at the same time at times, and the creative bass and drum work, as well. And the compositions are Dollase's, as in the case of the debut album.

On Mother Universe, the vocal work and instrumental play go together really well, and make for a balanced album, though it is instrumentally where this band really shines. Mr. Dollase's keyboard work is especially delightful, and a thrill to follow on this album, as well. Vocally and instrumentally, there is real unbridled emotion going on here, and what would music be without real emotion? The whole record is very moving, and displays some of the greatest music of the symphonic prog world, period.

Wallenstein would not peter out after these first two masterpieces, and continue to create some great music, up to, and including the album Charline, an album which is a far cry from this one, but good, nonetheless. Mother Universe is definitely one of the band's very best-i give it five stars.
Rating: 5 stars
progarchives.com
----------------------------------------------------------------------------------------------
Analyzed folder: /Wallenstein - Mother Universe (LP)
----------------------------------------------------------------------------------------------
DR Peak RMS Filename
----------------------------------------------------------------------------------------------

DR12 -0.12 dB -15.71 dB 01 Wallenstein - LADO 1- Mother Universe.wav
DR11 -0.31 dB -13.50 dB 02 Wallenstein - Braintrain.wav
DR15 -0.00 dB -18.21 dB 03 Wallenstein - Shakespearesque.wav
DR11 -0.03 dB -11.77 dB 04 Wallenstein - LADO 2- Dedicated To Mystery Land.wav
DR12 over -15.16 dB 05 Wallenstein - Relics Of Past.wav
DR11 -0.22 dB -12.75 dB 06 Wallenstein - Golden Antenna.wav
----------------------------------------------------------------------------------------------

Number of files: 6
Official DR value: DR12

==============================================================================================
#777#777#777#777
Правила, инструкции, FAQ!!!
Торрент  Добавлен [24 авг 2016, 12:28] Скачать торрент Магнет ссылка
Скачать торрент
[ Размер 19.41 КБ / Просмотров 32 ]

Статус
Проверен 
 
Размер  927.27 МБ
Приватный: Нет (DHT включён)
.torrent скачан  0
 


     Отправить личное сообщение
   
Страница 1 из 1
Показать сообщения за:  Поле сортировки  
Начать новую тему Ответить на тему


Сейчас этот форум просматривают: нет зарегистрированных пользователей и гости: 0


Вы не можете начинать темы
Вы не можете отвечать на сообщения
Вы не можете редактировать свои сообщения
Вы не можете удалять свои сообщения
Вы не можете добавлять вложения

Перейти:  
cron
cron