Начать новую тему Ответить на тему
Статистика раздачи
Размер: 765.22 МБ | Добавлен: 24 авг 2016, 12:09 | Скачали: 1
Сидеров: 4  [0 байт/сек]    Личеров: 2  [0 байт/сек]
Пред. тема | След. тема 

Автор
Сообщение

СообщениеДобавлено: 24 авг 2016, 12:09 

Ответить с цитатой 

SFF (Schicke,Fuhrs & Frohling) - Symphonic Pictures

Жанр: Symphonic-Rock
Носитель: LP
Год выпуска: 1976
Лейбл: Label: Brain/0060.010
Страна-производитель: DE
Аудио кодек: FLAC
Тип рипа: tracks+.cue
Формат записи: 24/96
Формат раздачи: 24/96
Продолжительность: 00:36:09
Треклист:
A1 Tao
A2 Solution
A3 Dialog
A4 Sundrops

B Pictures

Источник оцифровки: LP Rip & Full Scan LP Cover: Fran Solo
Код класса состояния винила: NM
Устройство воспроизведения: Marantz 6170
Головка звукоснимателя: SHURE M97xE With JICO SAS Stylus
Предварительный усилитель: Sansui 9090DB
АЦП: E-MU 0404
Программа-оцифровщик: iZotope RX3
Обработка: Only Manual (Click per click)
----------------------------------------------------------------------------------------------
Analyzed folder: /SFF - Symphonic Pictures (LP)
----------------------------------------------------------------------------------------------
DR Peak RMS Filename
----------------------------------------------------------------------------------------------

DR11 -0.09 dB -13.81 dB 01 SFF - LADO 1- Tao.wav
DR11 -4.31 dB -18.68 dB 02 SFF - Solution.wav
DR10 -0.12 dB -12.87 dB 03 SFF - Dialog.wav
DR11 -4.02 dB -18.57 dB 04 SFF - Sundrops.wav
DR11 -0.12 dB -15.99 dB 05 SFF - LADO 2- Pictures.wav
----------------------------------------------------------------------------------------------

Number of files: 5
Official DR value: DR11

==============================================================================================
- Eduard Schicke / drums, percussion
- Gerd Fuhrs / keyboards
- Heinz Frohling / bass, guitars, keyboards
Arranged By – SFF
Producer, Arranged By – Dieter Dierks
Written By – Eduard Schicke, Gerhard Fuhrs, Heinz Frohling
#777#777#777
Правила, инструкции, FAQ!!!
Торрент  Добавлен [24 авг 2016, 12:09] Скачать торрент Магнет ссылка
Скачать торрент
[ Размер 15.88 КБ / Просмотров 15 ]

Статус
Проверен 
 
Размер  765.22 МБ
Приватный: Нет (DHT включён)
.torrent скачан  1
 


     Отправить личное сообщение
   
Страница 1 из 1
Показать сообщения за:  Поле сортировки  
Начать новую тему Ответить на тему


Сейчас этот форум просматривают: нет зарегистрированных пользователей и гости: 0


Вы не можете начинать темы
Вы не можете отвечать на сообщения
Вы не можете редактировать свои сообщения
Вы не можете удалять свои сообщения
Вы не можете добавлять вложения

Перейти:  
cron
cron