Начать новую тему Ответить на тему
Статистика раздачи
Размер: 275.72 МБ | Добавлен: 16 мар 2014, 00:08 | Скачали: 0
Сидеров: 0  [0 байт/сек]    Личеров: 0  [0 байт/сек]
Пред. тема | След. тема 

Автор
Сообщение

СообщениеДобавлено: 16 мар 2014, 00:08 

Ответить с цитатой 

Sylvium - The Gift Of Anxiety (2013)

Год: 2013
Жанр: Heavy Prog, Progressive Rock
Лейбл: Freia Music
Каталог #: THOR 6CD
Продолжительность: 00:41:37
Кодек: FLAC
Тип рипа: image + .cue
Битрейт: Lossless
Треклист:
01. Disposable (6:31)
02. Surround (6:58)
03. Falling (6:34)
04. Ominous (7:10)
05. Heaven (6:30)
06. Weathering (7:54)
Код:
Код:
Exact Audio Copy V1.0 beta 3 from 29. August 2011

Отчёт EAC об извлечении, выполненном 19. декабря 2013, 20:11

Sylvium / The Gift Of Anxiety

Дисковод: ASUS    BW-12D1S-U   Adapter: 0  ID: 0

Режим чтения                 : Достоверность
Использование точного потока : Да
Отключение кэша аудио        : Да
Использование указателей C2  : Нет

Коррекция смещения при чтении                     : 667
Способность читать области Lead-in и Lead-out     : Нет
Заполнение пропущенных сэмплов тишиной            : Да
Удаление блоков с тишиной в начале и конце        : Нет
При вычислениях CRC использовались нулевые сэмплы : Да
Интерфейс                                         : Установленный внешний ASPI-интерфейс

Выходной формат          : Пользовательский кодировщик
Выбранный битрейт        : 1024 kBit/s
Качество                 : Высокий
Добавление ID3-тега      : Нет
Утилита сжатия           : C:\Program Files (x86)\Exact Audio Copy\Flac\flac.exe
Дополнительные параметры :  -V -8 -T "Date=%year%" -T "Genre=%genre%" %source%

TOC извлечённого CD

     Трек |   Старт  | Длительность | Начальный сектор | Конечный сектор
    ---------------------------------------------------------------------
       1  |  0:00.00 |    6:31.30   |           0      |      29354
       2  |  6:31.30 |    6:57.43   |       29355      |      60672
       3  | 13:28.73 |    6:33.52   |       60673      |      90199
       4  | 20:02.50 |    7:10.24   |       90200      |     122473
       5  | 27:12.74 |    6:30.16   |      122474      |     151739
       6  | 33:43.15 |    7:54.05   |      151740      |     187294

Характеристики диапазона извлечения и сообщения об ошибках

Выбранный диапазон

     Имя файла F:\----CD----\Sylvium (2013) -  The Gift Of Anxiety\Sylvium - The Gift Of Anxiety.wav

     Пиковый уровень 99.8 %
     Скорость извлечения 7.0 X
     Качество диапазона 100.0 %
     CRC теста B01D7BE6
     CRC копии B01D7BE6
     Копирование... OK

Ошибок не произошло

AccurateRip: сводка

Трек  1  отсутствует в базе данных
Трек  2  отсутствует в базе данных
Трек  3  отсутствует в базе данных
Трек  4  отсутствует в базе данных
Трек  5  отсутствует в базе данных
Трек  6  отсутствует в базе данных

Ни одного трека нет в базе AccurateRip

Конец отчёта

Код:
Код:
-----------------------

DON'T MODIFY THIS FILE

-----------------------

PERFORMER: auCDtect Task Manager, ver. 1.6.0 RC1 build 1.6.0.1
Copyright (c) 2008-2010 y-soft. All rights reserved
http:/y-soft.org

ANALYZER: auCDtect: CD records authenticity detector, version 0.8.2
Copyright (c) 2004 Oleg Berngardt. All rights reserved.
Copyright (c) 2004 Alexander Djourik. All rights reserved.

FILE: Sylvium - The Gift Of Anxiety.flac
  Size: 266008294 Hash: 4870FFA70B2E6AD8AA212DE93FFDC6FD Accuracy: -m0
  Conclusion: CDDA 100%
  Signature: 8882D087674CAE175057C3CEDCB878FC2665345B

Код:
Код:
REM GENRE "Heavy Prog / Progressive Rock"
REM DATE 2013
REM DISCID 3809C106
REM COMMENT "ExactAudioCopy v1.0b3"
CATALOG 8714835100867
PERFORMER "Sylvium"
TITLE "The Gift Of Anxiety"
FILE "Sylvium - The Gift Of Anxiety.flac" WAVE
  TRACK 01 AUDIO
    TITLE "Disposable"
    PERFORMER "Sylvium"
    ISRC NLVZ21300079
    INDEX 01 00:00:00
  TRACK 02 AUDIO
    TITLE "Surround"
    PERFORMER "Sylvium"
    ISRC NLVZ21300080
    INDEX 01 06:31:30
  TRACK 03 AUDIO
    TITLE "Falling"
    PERFORMER "Sylvium"
    ISRC NLVZ21300081
    INDEX 01 13:28:73
  TRACK 04 AUDIO
    TITLE "Ominous"
    PERFORMER "Sylvium"
    ISRC NLVZ21300082
    INDEX 01 20:02:50
  TRACK 05 AUDIO
    TITLE "Heaven"
    PERFORMER "Sylvium"
    ISRC NLVZ21300083
    INDEX 01 27:12:74
  TRACK 06 AUDIO
    TITLE "Weathering"
    PERFORMER "Sylvium"
    ISRC NLVZ21300084
    INDEX 01 33:43:15

Код:
Код:
[CUETools log; Date: 10.01.2014 20:41:21; Version: 2.1.4]
[CTDB TOCID: dqK0ekW3D8uBa3grahZRTRRCFPU-] disk not present in database.
[AccurateRip ID: 0009cac9-00346b8d-3809c106] found.
Track   [  CRC   |   V2   ] Status
 01     [2a2b4a48|f9522dfd] (0+1/1) Accurately ripped
 02     [756c9f6a|48d197fd] (0+1/1) Accurately ripped
 03     [4c6639a7|ed72526a] (0+1/1) Accurately ripped
 04     [daccd05b|1ee596b3] (0+1/1) Accurately ripped
 05     [83184cb1|ccce784d] (0+1/1) Accurately ripped
 06     [42a06a53|56c78fdc] (0+1/1) Accurately ripped

Track Peak [ CRC32  ] [W/O NULL] [  LOG   ]
 --   99,8 [B01D7BE6] [84F3FAC1]   CRC32
 01   98,8 [7A86FB74] [01E8E0ED]
 02   98,8 [7C585D2F] [EBB1BFDD]
 03   98,8 [B3EE425D] [B65B1DE3]
 04   98,8 [9BADF3CF] [946C1317]
 05   98,8 [9B9D6DAF] [980D7B50]
 06   99,8 [999AD91D] [D3D28248]

Правила, инструкции, FAQ!!!
Торрент  Добавлен [16 мар 2014, 00:08] Скачать торрент Магнет ссылка
Скачать торрент
[ Размер 12.18 КБ / Просмотров 15 ]

Статус  
 
Размер  275.72 МБ
Приватный: Нет (DHT включён)
.torrent скачан  0
 


     Отправить личное сообщение
   
Страница 1 из 1
Показать сообщения за:  Поле сортировки  
Начать новую тему Ответить на тему


Сейчас этот форум просматривают: нет зарегистрированных пользователей и гости: 0


Вы не можете начинать темы
Вы не можете отвечать на сообщения
Вы не можете редактировать свои сообщения
Вы не можете удалять свои сообщения
Вы не можете добавлять вложения

Перейти:  
cron