Начать новую тему Ответить на тему
Статистика раздачи
Размер: 403.53 МБ | Добавлен: 16 мар 2014, 00:40 | Скачали: 0
Сидеров: 1  [0 байт/сек]    Личеров: 0  [0 байт/сек]
Пред. тема | След. тема 

Автор
Сообщение

СообщениеДобавлено: 16 мар 2014, 00:40 

Ответить с цитатой 

Switchfoot - Fading West (2014)

Жанр: Alternative Rock, Christian Rock
Год издания: 2014
Издатель (лейбл): Atlantic
Номер по каталогу: 536462-2
Страна: USA
Аудиокодек: FLAC (*.flac)
Тип рипа: tracks+.cue
Битрейт аудио: lossless
Продолжительность: 00:43:38
Релизер: Знак Качества
Наличие сканов в содержимом раздачи: да
Треклист:
01. Love Alone Is Worth the Fight (4:34)
02. Who We Are (3:24)
03. When We Come Alive (3:38)
04. Say It Like You Mean It (3:53)
05. The World You Want (4:21)
06. Slipping Away (3:35)
07. BA55 (4:41)
08. Let It Out (3:19)
09. All or Nothing at All (3:48)
10. Saltwater Heart (4:05)
11. Back to the Beginning Again (4:20)

Код:
Код:
Exact Audio Copy V1.0 beta 3 from 29. August 2011

EAC extraction logfile from 17. January 2014, 22:48

Switchfoot / Fading West

Used drive  : PIONEER DVD-RW  DVR-118L   Adapter: 2  ID: 0

Read mode               : Secure
Utilize accurate stream : Yes
Defeat audio cache      : Yes
Make use of C2 pointers : No

Read offset correction                      : 6
Overread into Lead-In and Lead-Out          : No
Fill up missing offset samples with silence : Yes
Delete leading and trailing silent blocks   : No
Null samples used in CRC calculations       : Yes
Used interface                              : Native Win32 interface for Win NT & 2000
Gap handling                                : Appended to previous track

Used output format              : User Defined Encoder
Selected bitrate                : 1024 kBit/s
Quality                         : High
Add ID3 tag                     : No
Command line compressor         : C:\Program Files (x86)\Exact Audio Copy\Flac\flac.exe
Additional command line options : -8 -V -T "ARTIST=%artist%" -T "TITLE=%title%" -T "ALBUM=%albumtitle%" -T "DATE=%year%" -T "TRACKNUMBER=%tracknr%" -T "GENRE=%genre%" -T "PERFORMER=%albuminterpret%" -T "COMPOSER=%composer%" %haslyrics%--tag-from-file=LYRICS="%lyricsfile%"%haslyrics% -T "ALBUMARTIST=%albumartist%" -T "DISCNUMBER=%cdnumber%" -T "TOTALDISCS=%totalcds%" -T "TOTALTRACKS=%numtracks%" -T "COMMENT=%comment%" %source% -o %dest%

TOC of the extracted CD

     Track |   Start  |  Length  | Start sector | End sector
    ---------------------------------------------------------
        1  |  0:00.00 |  4:33.52 |         0    |    20526
        2  |  4:33.52 |  3:24.27 |     20527    |    35853
        3  |  7:58.04 |  3:38.04 |     35854    |    52207
        4  | 11:36.08 |  3:52.69 |     52208    |    69676
        5  | 15:29.02 |  4:20.44 |     69677    |    89220
        6  | 19:49.46 |  3:35.21 |     89221    |   105366
        7  | 23:24.67 |  4:40.58 |    105367    |   126424
        8  | 28:05.50 |  3:19.23 |    126425    |   141372
        9  | 31:24.73 |  3:47.57 |    141373    |   158454
       10  | 35:12.55 |  4:05.31 |    158455    |   176860
       11  | 39:18.11 |  4:20.00 |    176861    |   196360

Track  1

     Filename D:\CDRip\01 - Love Alone Is Worth the Fight.wav

     Pre-gap length  0:00:02.00

     Peak level 100.0 %
     Extraction speed 1.1 X
     Track quality 100.0 %
     Test CRC 2BD5D5A3
     Copy CRC 2BD5D5A3
     Track not present in AccurateRip database
     Copy OK

Track  2

     Filename D:\CDRip\02 - Who We Are.wav

     Peak level 100.0 %
     Extraction speed 1.2 X
     Track quality 100.0 %
     Test CRC 2F60619D
     Copy CRC 2F60619D
     Track not present in AccurateRip database
     Copy OK

Track  3

     Filename D:\CDRip\03 - When We Come Alive.wav

     Peak level 95.3 %
     Extraction speed 1.3 X
     Track quality 100.0 %
     Test CRC CF9F8822
     Copy CRC CF9F8822
     Track not present in AccurateRip database
     Copy OK

Track  4

     Filename D:\CDRip\04 - Say It Like You Mean It.wav

     Peak level 100.0 %
     Extraction speed 1.4 X
     Track quality 100.0 %
     Test CRC 795DD53E
     Copy CRC 795DD53E
     Track not present in AccurateRip database
     Copy OK

Track  5

     Filename D:\CDRip\05 - The World You Want.wav

     Peak level 98.9 %
     Extraction speed 1.4 X
     Track quality 99.9 %
     Test CRC 2885758F
     Copy CRC 2885758F
     Track not present in AccurateRip database
     Copy OK

Track  6

     Filename D:\CDRip\06 - Slipping Away.wav

     Peak level 100.0 %
     Extraction speed 1.6 X
     Track quality 100.0 %
     Test CRC B4B9D65A
     Copy CRC B4B9D65A
     Track not present in AccurateRip database
     Copy OK

Track  7

     Filename D:\CDRip\07 - BA55.wav

     Peak level 100.0 %
     Extraction speed 1.7 X
     Track quality 100.0 %
     Test CRC C05D1AC4
     Copy CRC C05D1AC4
     Track not present in AccurateRip database
     Copy OK

Track  8

     Filename D:\CDRip\08 - Let It Out.wav

     Peak level 100.0 %
     Extraction speed 1.7 X
     Track quality 100.0 %
     Test CRC EC301BB9
     Copy CRC EC301BB9
     Track not present in AccurateRip database
     Copy OK

Track  9

     Filename D:\CDRip\09 - All or Nothing at All.wav

     Peak level 100.0 %
     Extraction speed 1.6 X
     Track quality 99.9 %
     Test CRC 1BAEB223
     Copy CRC 1BAEB223
     Track not present in AccurateRip database
     Copy OK

Track 10

     Filename D:\CDRip\10 - Saltwater Heart.wav

     Peak level 100.0 %
     Extraction speed 1.9 X
     Track quality 100.0 %
     Test CRC 86B2A2B1
     Copy CRC 86B2A2B1
     Track not present in AccurateRip database
     Copy OK

Track 11

     Filename D:\CDRip\11 - Back to the Beginning Again.wav

     Peak level 100.0 %
     Extraction speed 2.0 X
     Track quality 100.0 %
     Test CRC 22C9F60A
     Copy CRC 22C9F60A
     Track not present in AccurateRip database
     Copy OK

None of the tracks are present in the AccurateRip database

No errors occurred

End of status report

---- CUETools DB Plugin V2.1.3

[CTDB TOCID: 1QDJlswRG1jx0qA0bHGYlPUjqKc-] found, Submit result: 1QDJlswRG1jx0qA0bHGYlPUjqKc- has been confirmed
[7bff2068] (3/3) Accurately ripped

==== Log checksum 9C1EBB5816C47EB388D7CAEEE901B5BA09319938DF17E9BDA5DA7B51045A66B3 ====
Код:
Код:
REM DATE 2014
REM DISCID 970A3A0B
REM COMMENT "ExactAudioCopy v1.0b3"
CATALOG 0075678683824
PERFORMER "Switchfoot"
TITLE "Fading West"
FILE "01 - Love Alone Is Worth the Fight.wav" WAVE
  TRACK 01 AUDIO
    TITLE "Love Alone Is Worth the Fight"
    PERFORMER "Switchfoot"
    ISRC H29021302573
    INDEX 01 00:00:00
FILE "02 - Who We Are.wav" WAVE
  TRACK 02 AUDIO
    TITLE "Who We Are"
    PERFORMER "Switchfoot"
    ISRC H29021302572
    INDEX 01 00:00:00
FILE "03 - When We Come Alive.wav" WAVE
  TRACK 03 AUDIO
    TITLE "When We Come Alive"
    PERFORMER "Switchfoot"
    ISRC H29021302572
    INDEX 01 00:00:00
FILE "04 - Say It Like You Mean It.wav" WAVE
  TRACK 04 AUDIO
    TITLE "Say It Like You Mean It"
    PERFORMER "Switchfoot"
    ISRC H29021304081
    INDEX 01 00:00:00
FILE "05 - The World You Want.wav" WAVE
  TRACK 05 AUDIO
    TITLE "The World You Want"
    PERFORMER "Switchfoot"
    ISRC H29021304082
    INDEX 01 00:00:00
FILE "06 - Slipping Away.wav" WAVE
  TRACK 06 AUDIO
    TITLE "Slipping Away"
    PERFORMER "Switchfoot"
    ISRC H29021304083
    INDEX 01 00:00:00
FILE "07 - BA55.wav" WAVE
  TRACK 07 AUDIO
    TITLE "BA55"
    PERFORMER "Switchfoot"
    ISRC H29021302574
    INDEX 01 00:00:00
FILE "08 - Let It Out.wav" WAVE
  TRACK 08 AUDIO
    TITLE "Let It Out"
    PERFORMER "Switchfoot"
    ISRC H29021302825
    INDEX 01 00:00:00
FILE "09 - All or Nothing at All.wav" WAVE
  TRACK 09 AUDIO
    TITLE "All or Nothing at All"
    PERFORMER "Switchfoot"
    ISRC H29021304084
    INDEX 01 00:00:00
FILE "10 - Saltwater Heart.wav" WAVE
  TRACK 10 AUDIO
    TITLE "Saltwater Heart"
    PERFORMER "Switchfoot"
    ISRC H29021304085
    INDEX 01 00:00:00
FILE "11 - Back to the Beginning Again.wav" WAVE
  TRACK 11 AUDIO
    TITLE "Back to the Beginning Again"
    PERFORMER "Switchfoot"
    ISRC H29021302824
    INDEX 01 00:00:00
Код:
Код:
-----------------------

DON'T MODIFY THIS FILE

-----------------------

PERFORMER: auCDtect Task Manager, ver. 1.6.0 RC1 build 1.6.0.1
Copyright (c) 2008-2010 y-soft. All rights reserved
http:/y-soft.org

ANALYZER: auCDtect: CD records authenticity detector, version 0.8.2
Copyright (c) 2004 Oleg Berngardt. All rights reserved.
Copyright (c) 2004 Alexander Djourik. All rights reserved.

FILE: 11 - Back to the Beginning Again.flac
  Size: 32512763 Hash: 6AA6EFE14678BE78A5E35A5206B40A45 Accuracy: -m0
  Conclusion: CDDA 100%
  Signature: FDE7AFE9A7B2D26F0BDE66224D1143E74F2E10A1
FILE: 10 - Saltwater Heart.flac
  Size: 29882829 Hash: 035E2F4713D9B366364BAD5DD7AD5946 Accuracy: -m0
  Conclusion: CDDA 100%
  Signature: 4A10F465827637C4782039D677A89ACB29FC3353
FILE: 09 - All or Nothing at All.flac
  Size: 28072438 Hash: 3BF9B7D90D772B4CE3589C7F24AA88B6 Accuracy: -m0
  Conclusion: CDDA 100%
  Signature: F44A45BCC2F51E40FB9CE76B782026567B03846E
FILE: 08 - Let It Out.flac
  Size: 25098055 Hash: 3168EA7845673D5DF104DB224919A07E Accuracy: -m0
  Conclusion: CDDA 100%
  Signature: 681A0A8536D91401BCD5A965ED4D8E94884AAAB6
FILE: 07 - BA55.flac
  Size: 29595017 Hash: A99516DBD3B5ADC8E69FC2926E5DA53B Accuracy: -m0
  Conclusion: MPEG 95%
  Signature: 6BD14538B0D74A9EC7B0CE8698C4F78F10076439
FILE: 06 - Slipping Away.flac
  Size: 26698534 Hash: 7C1D534C1C9A3C7DBD103673A55D5CF8 Accuracy: -m0
  Conclusion: CDDA 100%
  Signature: 7F646D3ECCA081AC7394305A1415D945BFA6481B
FILE: 05 - The World You Want.flac
  Size: 29007266 Hash: 220489155D2B66B0E130C39780D7431C Accuracy: -m0
  Conclusion: CDDA 100%
  Signature: 80A8AC54EBEDCDE8D85D2F188E334DD674A45B62
FILE: 04 - Say It Like You Mean It.flac
  Size: 29797393 Hash: B17E7D4E078BB6DF0C0D9F649ED34E6B Accuracy: -m0
  Conclusion: MPEG 95%
  Signature: ABB4E5C6FB42D6E8EA00360FF8DE9BD2B195C818
FILE: 03 - When We Come Alive.flac
  Size: 26834578 Hash: 3668ADBEAC35902F359FA5CB7F03FF8B Accuracy: -m0
  Conclusion: CDDA 100%
  Signature: A1EE196D1CEAB1C8585D31D9D3B3138F7B6E5432
FILE: 02 - Who We Are.flac
  Size: 26241893 Hash: F4FEA733F6A73FDC0EFFCAB7FF879AB8 Accuracy: -m0
  Conclusion: MPEG 100%
  Signature: ED8FC9ACD7E994FD1AC63AABCFE1E30AAEFD96D8
FILE: 01 - Love Alone Is Worth the Fight.flac
  Size: 34520597 Hash: 26F7ACD25A336912443867AEA4084E6D Accuracy: -m0
  Conclusion: CDDA 99%
  Signature: E06054065C35082FCE918F0D4870FBA16A8F8669
01. Love Alone Is Worth the Fight:

02. Who We Are:

04 - Say It Like You Mean It:

07 - BA55:

Правила, инструкции, FAQ!!!
Торрент  Добавлен [16 мар 2014, 00:40] Скачать торрент Магнет ссылка
Скачать торрент
[ Размер 34.51 КБ / Просмотров 19 ]

Статус  
 
Размер  403.53 МБ
Приватный: Нет (DHT включён)
.torrent скачан  0
 


     Отправить личное сообщение
   
Страница 1 из 1
Показать сообщения за:  Поле сортировки  
Начать новую тему Ответить на тему


Сейчас этот форум просматривают: нет зарегистрированных пользователей и гости: 0


Вы не можете начинать темы
Вы не можете отвечать на сообщения
Вы не можете редактировать свои сообщения
Вы не можете удалять свои сообщения
Вы не можете добавлять вложения

Перейти:  
cron