Начать новую тему Ответить на тему
Статистика раздачи
Размер: 373.35 МБ | Добавлен: 16 мар 2014, 00:08 | Скачали: 1
Сидеров: 5  [0 байт/сек]    Личеров: 7  [0 байт/сек]
Пред. тема | След. тема 

Автор
Сообщение

СообщениеДобавлено: 16 мар 2014, 00:08 

Ответить с цитатой 

Sweet - Desolation Boulevard (1975)

Год: 1975/ 1986
Страна-производитель диска: Япония
Издатель (лейбл): Toshiba EMI
Номер по каталогу: CP28-1055
Жанр: Glam Rock
Продолжительность: 00:47:00
Кодек: FLAC (*.flac)
Битрейт: Lossless
Тип рипа: image+.cue
Спасибо: alonzo
Треклист:
01. Ballroom Blitz
02. The 6-Teens
03. No You Don't
04. A.C.D.C.
05. I Wanna Be Committed
06. Sweet F.A
07. Fox On The Run
08. Set Me Free
09. In To Night
10. Solid Gold Brass
11. Action
Код:
Код:
Exact Audio Copy V1.0 beta 3 from 29. August 2011

EAC extraction logfile from 10. January 2014, 8:47

Sweet / Desolation Boulevard

Used drive  : SONY    BD RW BDX-S600U   Adapter: 2  ID: 1

Read mode               : Secure
Utilize accurate stream : Yes
Defeat audio cache      : Yes
Make use of C2 pointers : No

Read offset correction                      : 48
Overread into Lead-In and Lead-Out          : No
Fill up missing offset samples with silence : Yes
Delete leading and trailing silent blocks   : No
Null samples used in CRC calculations       : Yes
Used interface                              : Native Win32 interface for Win NT & 2000

Used output format              : User Defined Encoder
Selected bitrate                : 128 kBit/s
Quality                         : High
Add ID3 tag                     : No
Command line compressor         : C:\Program Files (x86)\Exact Audio Copy\Flac\flac.exe
Additional command line options : -V -8 -T "Date=%year%" -T "Genre=%genre%" %source%

TOC of the extracted CD

     Track |   Start  |  Length  | Start sector | End sector
    ---------------------------------------------------------
        1  |  0:00.40 |  4:05.52 |        40    |    18466
        2  |  4:06.17 |  4:05.65 |     18467    |    36906
        3  |  8:12.07 |  4:36.35 |     36907    |    57641
        4  | 12:48.42 |  3:28.28 |     57642    |    73269
        5  | 16:16.70 |  3:13.67 |     73270    |    87811
        6  | 19:30.62 |  6:15.03 |     87812    |   115939
        7  | 25:45.65 |  3:28.02 |    115940    |   131541
        8  | 29:13.67 |  3:58.65 |    131542    |   149456
        9  | 33:12.57 |  4:25.25 |    149457    |   169356
       10  | 37:38.07 |  5:37.70 |    169357    |   194701
       11  | 43:16.02 |  3:44.53 |    194702    |   211554

Range status and errors

Selected range

     Filename F:\music\1971. Sweet - Desolation Boulevard (Toshiba-EMI,CP-28-1055,Japan)\Sweet - Desolation Boulevard.wav

     Peak level 100.0 %
     Extraction speed 6.4 X
     Range quality 100.0 %
     Test CRC 1947249A
     Copy CRC 1947249A
     Copy OK

No errors occurred

AccurateRip summary

Track  1  accurately ripped (confidence 1)  [88C60CE2]  (AR v1)
Track  2  accurately ripped (confidence 1)  [CBA16593]  (AR v1)
Track  3  accurately ripped (confidence 1)  [90A1B91E]  (AR v1)
Track  4  accurately ripped (confidence 1)  [33B41319]  (AR v1)
Track  5  accurately ripped (confidence 1)  [A322874F]  (AR v1)
Track  6  accurately ripped (confidence 1)  [7C53B1C7]  (AR v1)
Track  7  accurately ripped (confidence 1)  [F922B2F0]  (AR v1)
Track  8  accurately ripped (confidence 1)  [034016D1]  (AR v1)
Track  9  accurately ripped (confidence 1)  [9E52F52E]  (AR v1)
Track 10  accurately ripped (confidence 1)  [CA0A88F4]  (AR v1)
Track 11  accurately ripped (confidence 1)  [8429B7ED]  (AR v1)

All tracks accurately ripped

End of status report

---- CUETools DB Plugin V2.1.3

[CTDB TOCID: HeNDof2JzkKzZEobYIWqwKGC9jE-] disk not present in database, Submit result: discs with pregaps not supported in this protocol version

==== Log checksum A5CC441ECE3C879CB2F47E58B07E6D78024AAB62B68F9704B9762485A17B0B98 ====
Код:
Код:
-----------------------

DON'T MODIFY THIS FILE

-----------------------

PERFORMER: auCDtect Task Manager, ver. 1.6.0 RC1 build 1.6.0.1
Copyright (c) 2008-2010 y-soft. All rights reserved
http:/y-soft.org

ANALYZER: auCDtect: CD records authenticity detector, version 0.8.2
Copyright (c) 2004 Oleg Berngardt. All rights reserved.
Copyright (c) 2004 Alexander Djourik. All rights reserved.

FILE: Sweet - Desolation Boulevard.flac
  Size: 308685355 Hash: 9E066C05B9BA5AE438BD734AD21DDFD0 Accuracy: -m0
  Conclusion: CDDA 100%
  Signature: 3095557FC2A86D23E6CC2F14DE429A132CCA6A6D
Правила, инструкции, FAQ!!!
Торрент  Добавлен [16 мар 2014, 00:08] Скачать торрент Магнет ссылка
Скачать торрент
[ Размер 16 КБ / Просмотров 43 ]

Статус  
 
Размер  373.35 МБ
Приватный: Нет (DHT включён)
.torrent скачан  1
 


     Отправить личное сообщение
   
Страница 1 из 1
Показать сообщения за:  Поле сортировки  
Начать новую тему Ответить на тему


Сейчас этот форум просматривают: нет зарегистрированных пользователей и гости: 0


Вы не можете начинать темы
Вы не можете отвечать на сообщения
Вы не можете редактировать свои сообщения
Вы не можете удалять свои сообщения
Вы не можете добавлять вложения

Перейти:  
cron