Начать новую тему Ответить на тему
Статистика раздачи
Размер: 830.17 МБ | Добавлен: 16 мар 2014, 00:03 | Скачали: 11
Сидеров: 1  [0 байт/сек]    Личеров: 0  [0 байт/сек]
Пред. тема | След. тема 

Автор
Сообщение

СообщениеДобавлено: 16 мар 2014, 00:03 

Ответить с цитатой 

Survivor - 2 Albums (1982-1984) / 2013

Год издания:
2013
Страна: США
Издатель: RCA, Legacy Recordings, Sony Music Japan
Jewel Case / Blu-spec CD2
Каталог: SICP-30392/93
Страна производитель диска: Япония
Жанр: Rock
Продолжительность: 01:18:57

Кодек: FLAC
Битрейт: Lossless
Тип рипа: image +.cue +.log
Наличие сканов: format PNG 600dpi/300dpi (booklets), full scans
Rip by ALLexxess спасибо

Трек лист:
#777
Продолжительность:
00:38:07
Трек лист:
01 Eye Of The Tiger
02 Feels Like Love
03 Hesitation Dance
04 The One That Really Matters
05 I'm Not That Man Anymore
06 Children Of The Night
07 Ever Since The World Began
08 American Heartbeat
09 Silver Girl
Код:
Код:
Exact Audio Copy V1.0 beta 3 from 29. August 2011

EAC extraction logfile from 19. January 2014, 20:22

Survivor / Eye Of The Tiger BSCD2

Used drive  : PLEXTOR BD-R  PX-B950SA   Adapter: 6  ID: 0

Read mode               : Secure
Utilize accurate stream : Yes
Defeat audio cache      : Yes
Make use of C2 pointers : No

Read offset correction                      : 6
Overread into Lead-In and Lead-Out          : No
Fill up missing offset samples with silence : Yes
Delete leading and trailing silent blocks   : No
Null samples used in CRC calculations       : Yes
Used interface                              : Native Win32 interface for Win NT & 2000

Used output format : Internal WAV Routines
Sample format      : 44.100 Hz; 16 Bit; Stereo

TOC of the extracted CD

     Track |   Start  |  Length  | Start sector | End sector
    ---------------------------------------------------------
        1  |  0:00.00 |  4:06.72 |         0    |    18521
        2  |  4:06.72 |  4:08.74 |     18522    |    37195
        3  |  8:15.71 |  3:52.65 |     37196    |    54660
        4  | 12:08.61 |  3:32.22 |     54661    |    70582
        5  | 15:41.08 |  4:49.03 |     70583    |    92260
        6  | 20:30.11 |  4:45.11 |     92261    |   113646
        7  | 25:15.22 |  3:46.73 |    113647    |   130669
        8  | 29:02.20 |  4:10.54 |    130670    |   149473
        9  | 33:12.74 |  4:53.45 |    149474    |   171493

Range status and errors

Selected range

     Filename C:\Users\Meijin\Desktop\Lossless Galaxy ALLexxess\Survivor\1982 Eye Of The Tiger (BSCD2 Sony Music Japan 2013)\Survivor - Eye Of The Tiger BSCD2.wav

     Peak level 100.0 %
     Extraction speed 6.7 X
     Range quality 100.0 %
     Test CRC 1C684DB3
     Copy CRC 1C684DB3
     Copy OK

No errors occurred

AccurateRip summary

Track  1  accurately ripped (confidence 2)  [9A043AC7]  (AR v1)
Track  2  accurately ripped (confidence 2)  [A6A1EDDA]  (AR v1)
Track  3  accurately ripped (confidence 2)  [73363CA0]  (AR v1)
Track  4  accurately ripped (confidence 2)  [BDB52352]  (AR v1)
Track  5  accurately ripped (confidence 2)  [0FEC9E26]  (AR v1)
Track  6  accurately ripped (confidence 2)  [4C45445D]  (AR v1)
Track  7  accurately ripped (confidence 2)  [773CEFB4]  (AR v1)
Track  8  accurately ripped (confidence 2)  [18B53956]  (AR v1)
Track  9  accurately ripped (confidence 2)  [963D16B2]  (AR v1)

All tracks accurately ripped

End of status report

==== Log checksum 8C31926C1292993765F41598084700FD135AE8B528D914D40DE0D261198C60AF ====
Код:
Код:
-----------------------

DON'T MODIFY THIS FILE

-----------------------

PERFORMER: auCDtect Task Manager, ver. 1.5.1RC3 build 1.5.1.4
Copyright (c) 2008-2010 y-soft. All rights reserved
http:/y-soft.org

ANALYZER: auCDtect: CD records authenticity detector, version 0.8.2
Copyright (c) 2004 Oleg Berngardt. All rights reserved.
Copyright (c) 2004 Alexander Djourik. All rights reserved.

FILE: Survivor - Eye Of The Tiger BSCD2.wav
  Size: 403353932 Hash: D83D98755AE860F4B51F87FB40061DBF Accuracy: -m8
  Conclusion: CDDA 100%
  Signature: E6B24C92D3A55D0642ED665661661CE8EE99296A
FILE: Survivor - Eye Of The Tiger BSCD2.flac
  Size: 293874914 Hash: D83D98755AE860F4B51F87FB40061DBF Accuracy: -m8
  Conclusion: CDDA 100%
  Signature: 0A247A9911A6A68DE0D92EE75DBA027E0CD7364B
#777
Продолжительность: 00:40:50
Трек лист:

01 I Can't Hold Back
02 High On You
03 First Night
04 The Search Is Over
05 Broken Promises
06 Popular Girl
07 Everlasting
08 It's The Singer Not The Song
09 I See You In Everyone
Bonus Track
10 The Moment Of Truth
Код:
Код:
Exact Audio Copy V1.0 beta 3 from 29. August 2011

EAC extraction logfile from 19. January 2014, 19:48

Survivor / Vital Signs BSCD2

Used drive  : PLEXTOR BD-R  PX-B950SA   Adapter: 6  ID: 0

Read mode               : Secure
Utilize accurate stream : Yes
Defeat audio cache      : Yes
Make use of C2 pointers : No

Read offset correction                      : 6
Overread into Lead-In and Lead-Out          : No
Fill up missing offset samples with silence : Yes
Delete leading and trailing silent blocks   : No
Null samples used in CRC calculations       : Yes
Used interface                              : Native Win32 interface for Win NT & 2000

Used output format : Internal WAV Routines
Sample format      : 44.100 Hz; 16 Bit; Stereo

TOC of the extracted CD

     Track |   Start  |  Length  | Start sector | End sector
    ---------------------------------------------------------
        1  |  0:00.00 |  3:59.40 |         0    |    17964
        2  |  3:59.40 |  4:08.37 |     17965    |    36601
        3  |  8:08.02 |  4:17.09 |     36602    |    55885
        4  | 12:25.11 |  4:12.61 |     55886    |    74846
        5  | 16:37.72 |  3:56.16 |     74847    |    92562
        6  | 20:34.13 |  3:39.01 |     92563    |   108988
        7  | 24:13.14 |  3:51.44 |    108989    |   126357
        8  | 28:04.58 |  4:33.73 |    126358    |   146905
        9  | 32:38.56 |  4:24.62 |    146906    |   166767
       10  | 37:03.43 |  3:46.65 |    166768    |   183782

Range status and errors

Selected range

     Filename C:\Users\Meijin\Desktop\Lossless Galaxy ALLexxess\Survivor\1984 Vital Signs (BSCD2 Sony Music Japan 2013)\Survivor - Vital Signs BSCD2.wav

     Peak level 100.0 %
     Extraction speed 6.8 X
     Range quality 100.0 %
     Test CRC E778D407
     Copy CRC E778D407
     Copy OK

No errors occurred

AccurateRip summary

Track  1  accurately ripped (confidence 3)  [E6F99EFD]  (AR v1)
Track  2  accurately ripped (confidence 3)  [FDF78719]  (AR v1)
Track  3  accurately ripped (confidence 3)  [A2629803]  (AR v1)
Track  4  accurately ripped (confidence 3)  [A7844D4E]  (AR v1)
Track  5  accurately ripped (confidence 3)  [02382F49]  (AR v1)
Track  6  accurately ripped (confidence 3)  [090FBDD3]  (AR v1)
Track  7  accurately ripped (confidence 3)  [A3C13144]  (AR v1)
Track  8  accurately ripped (confidence 3)  [6A9E2D90]  (AR v1)
Track  9  accurately ripped (confidence 3)  [8235D9B0]  (AR v1)
Track 10  accurately ripped (confidence 3)  [5BACD0A3]  (AR v1)

All tracks accurately ripped

End of status report

==== Log checksum ABF36F28D543308F3FC7CAF6BECF9CF8FE92825A6EF8C20B48778F039FA18C5F ====
Код:
Код:
-----------------------

DON'T MODIFY THIS FILE

-----------------------

PERFORMER: auCDtect Task Manager, ver. 1.5.1RC3 build 1.5.1.4
Copyright (c) 2008-2010 y-soft. All rights reserved
http:/y-soft.org

ANALYZER: auCDtect: CD records authenticity detector, version 0.8.2
Copyright (c) 2004 Oleg Berngardt. All rights reserved.
Copyright (c) 2004 Alexander Djourik. All rights reserved.

FILE: Survivor - Vital Signs BSCD2.wav
  Size: 432257660 Hash: B72DB54CA8F790B8757EF0865E6DBE9A Accuracy: -m8
  Conclusion: CDDA 100%
  Signature: 23B91C94F9D1244FD228511C07D6BFB7859EE538
FILE: Survivor - Vital Signs BSCD2.flac
  Size: 329137523 Hash: B72DB54CA8F790B8757EF0865E6DBE9A Accuracy: -m8
  Conclusion: CDDA 100%
  Signature: FF1BBF39EC8B61B663E9DD5D811A4759C0D1D310
Правила, инструкции, FAQ!!!
Торрент  Добавлен [16 мар 2014, 00:03] Скачать торрент Магнет ссылка
Скачать торрент
[ Размер 21.45 КБ / Просмотров 155 ]

Статус  
 
Размер  830.17 МБ
Приватный: Нет (DHT включён)
.torrent скачан  11
 


     Отправить личное сообщение
   
Страница 1 из 1
Показать сообщения за:  Поле сортировки  
Начать новую тему Ответить на тему


Сейчас этот форум просматривают: нет зарегистрированных пользователей и гости: 0


Вы не можете начинать темы
Вы не можете отвечать на сообщения
Вы не можете редактировать свои сообщения
Вы не можете удалять свои сообщения
Вы не можете добавлять вложения

Перейти:  
cron
cron